<?xml version="1.0" standalone="no"?>
<!DOCTYPE svg PUBLIC "-//W3C//DTD SVG 1.1//EN" "http://www.w3.org/Graphics/SVG/1.1/DTD/svg11.dtd" >
<svg>
<metadata>
Created by FontForge 20090622 at Mon Aug 31 13:04:31 2015
 By deploy user
Copyright (c) 2014 by www.moslemebrahimi.com. All rights reserved.
</metadata>
<defs>
<font id="IRANSans" horiz-adv-x="0" >
  <font-face 
    font-family="IRAN Sans"
    font-weight="400"
    font-stretch="normal"
    units-per-em="2048"
    panose-1="2 11 4 0 0 0 0 0 0 0"
    ascent="1638"
    descent="-410"
    x-height="880"
    cap-height="928"
    bbox="-380 -1045 2177 1968.7"
    underline-thickness="60"
    underline-position="-1010"
    unicode-range="U+0008-U+FEFC"
  />
<missing-glyph horiz-adv-x="1024" 
d="M128 0v1343h768v-1343h-768zM256 128h512v1087h-512v-1087z" />
    <glyph glyph-name="uE818" unicode="&#x651;&#x64b;" 
d="M398 1621l-302 -124v79l302 120v-75zM398 1806l-302 -124v79l302 119v-74zM159 1223q-37 0 -62 28q-28 37 -25 110q1 25 4 43t4 19l56 -12q-1 -7 -2 -16q-1 -8 -2 -17t-1 -20q-3 -50 12 -70q2 -2 5 -4t11 -2q20 0 33.5 20t21.5 42q5 14 8 27.5t5 24.5q3 12 4 24l59 -2
q0 -12 2 -24q2 -11 3.5 -24t6.5 -27q5 -20 15.5 -39.5t28.5 -19.5q13 0 19 5q4 5 9 18t5 44q0 16 -4.5 33.5t-10.5 34t-12.5 29.5t-10.5 20l50 29q1 -1 8.5 -14.5t16 -34.5t15.5 -46.5t7 -50.5q0 -70 -33 -103q-17 -17 -34.5 -20t-24.5 -3q-42 0 -71 37q-5 7 -10 15t-9 18
q-11 -22 -23 -36t-25 -22t-25.5 -11t-23.5 -3z" />
    <glyph glyph-name="uFC5E" unicode="&#x651;&#x64c;" arabic-form="isolated" 
d="M152 1292q-37 0 -62 28q-28 37 -25 110q1 25 4 43t4 19l56 -12q-1 -7 -2 -16q-1 -8 -2 -17t-1 -20q-3 -50 12 -70q2 -2 5 -4t11 -2q20 0 33.5 20t21.5 42q5 14 8 27.5t5 24.5q3 12 4 24l59 -2q0 -12 2 -24q2 -11 3.5 -24t6.5 -27q5 -20 15.5 -39.5t28.5 -19.5q13 0 19 5
q4 5 9 18t5 44q0 16 -4.5 33.5t-10.5 34t-12.5 29.5t-10.5 20l50 29q1 -1 8.5 -14.5t16 -34.5t15.5 -46.5t7 -50.5q0 -70 -33 -103q-17 -17 -34.5 -20t-24.5 -3q-42 0 -71 37q-5 7 -10 15t-9 18q-11 -22 -23 -36t-25 -22t-25.5 -11t-23.5 -3zM160 1594l-33 46q4 7 8.5 20.5
t7 28.5t2 30t-5.5 24q-2 5 -6 8t-14 4q-8 0 -16.5 -3t-16 -7.5t-13 -9t-7.5 -6.5l-44 43q2 2 10.5 9.5t21.5 15.5t30.5 14t37.5 5q50 -3 71 -44q13 -23 13 -50.5t-5 -53.5q35 11 75.5 27t69.5 36l-4 3l-18.5 8.5l-20.5 9.5q-29 14 -44.5 33t-21.5 38.5t-4.5 37.5t7.5 31
q10 21 27.5 38t38.5 27t44 11.5t44 -8.5q42 -20 56 -69q10 -33 6 -69t-12 -61q5 -2 10 -3.5t10 -2.5l-18 -59q-6 2 -15 4.5l-19 5.5q-27 -27 -67 -47.5t-78.5 -34t-69 -21.5t-37.5 -9zM355 1907q-15 0 -33 -12t-27 -29l-1.5 -6t0.5 -14.5t9.5 -18.5t26.5 -19q10 -5 20 -9.5
t19 -9.5l17 -8q5 17 8.5 45.5t-4.5 51.5q-7 18 -23 27q-6 2 -12 2z" />
    <glyph glyph-name="uFC5F" unicode="&#x651;&#x64d;" arabic-form="isolated" 
d="M336 1500l-302 -123v78l302 120v-75zM336 1340l-302 -123v78l302 120v-75zM90 1613q-37 0 -62 28q-28 37 -25 110q1 25 4 43t4 19l56 -12q-1 -7 -2 -16q-1 -8 -2 -17t-1 -20q-3 -50 12 -70q2 -2 5 -4t11 -2q20 0 33.5 20t21.5 42q5 14 8 27.5t5 24.5q3 12 4 24l59 -2
q0 -12 2 -24q2 -11 3.5 -24t6.5 -27q5 -20 15.5 -39.5t28.5 -19.5q13 0 19 5q4 5 9 18t5 44q0 16 -4.5 33.5t-10.5 34t-12.5 29.5t-10.5 20l50 29q1 -1 8.5 -14.5t16 -34.5t15.5 -46.5t7 -50.5q0 -70 -33 -103q-17 -17 -34.5 -20t-24.5 -3q-42 0 -71 37q-5 7 -10 15t-9 18
q-11 -22 -23 -36t-25 -22t-25.5 -11t-23.5 -3z" />
    <glyph glyph-name="uFC60" unicode="&#x651;&#x64e;" arabic-form="isolated" 
d="M163 1257q-37 0 -62 28q-28 37 -25 110q1 25 4 43t4 19l56 -12q-1 -7 -2 -16q-1 -8 -2 -17t-1 -20q-3 -50 12 -70q2 -2 5 -4t11 -2q20 0 33.5 20t21.5 42q5 14 8 27.5t5 24.5q3 12 4 24l59 -2q0 -12 2 -24q2 -11 3.5 -24t6.5 -27q5 -20 15.5 -39.5t28.5 -19.5q13 0 19 5
q4 5 9 18t5 44q0 16 -4.5 33.5t-10.5 34t-12.5 29.5t-10.5 20l50 29q1 -1 8.5 -14.5t16 -34.5t15.5 -46.5t7 -50.5q0 -70 -33 -103q-17 -17 -34.5 -20t-24.5 -3q-42 0 -71 37q-5 7 -10 15t-9 18q-11 -22 -23 -36t-25 -22t-25.5 -11t-23.5 -3zM431 1697l-302 -124v79l302 119
v-74z" />
    <glyph glyph-name="uFC61" unicode="&#x651;&#x64f;" arabic-form="isolated" 
 />
    <glyph glyph-name="uFC62" unicode="&#x651;&#x650;" arabic-form="isolated" 
d="M451 1312l-302 -123v78l302 120v-75zM196 1431q-37 0 -62 28q-28 37 -25 110q1 25 4 43t4 19l56 -12q-1 -7 -2 -16q-1 -8 -2 -17t-1 -20q-3 -50 12 -70q2 -2 5 -4t11 -2q20 0 33.5 20t21.5 42q5 14 8 27.5t5 24.5q3 12 4 24l59 -2q0 -12 2 -24q2 -11 3.5 -24t6.5 -27
q5 -20 15.5 -39.5t28.5 -19.5q13 0 19 5q4 5 9 18t5 44q0 16 -4.5 33.5t-10.5 34t-12.5 29.5t-10.5 20l50 29q1 -1 8.5 -14.5t16 -34.5t15.5 -46.5t7 -50.5q0 -70 -33 -103q-17 -17 -34.5 -20t-24.5 -3q-42 0 -71 37q-5 7 -10 15t-9 18q-11 -22 -23 -36t-25 -22t-25.5 -11
t-23.5 -3z" />
    <glyph glyph-name="uFDF2" unicode="&#xfedf;&#xfee0;&#xfeea;" horiz-adv-x="1351" arabic-form="isolated" 
d="M719 2h-29v-2q-23 0 -48 2h-9v1q-6 0 -13 1q-37 5 -60 22q-56 27 -94 87q-44 -7 -83 -10t-74 -3q-184 0 -256 89q-20 24 -28.5 50.5t-9.5 51t3 45.5t10 35l1 4q29 60 73.5 106t92.5 79t93 54t75 32l-8 88t-3 35l140 12q40 -464 73.5 -551.5t85.5 -89t84 0.5t53.5 18.5
t32.5 41t-28 638.5l142 15q44 -614 44 -620q0 -13 4 -33t22.5 -41t49 -22t53.5 1.5t40.5 10.5t25.5 19q13 16 16 36.5t3 41.5q0 7 -53 644l138 32q51 -663 49.5 -722.5t-48.5 -129t-188 -66.5q-35 -5 -73 6q-14 2 -27 7q-49 20 -78 46l-28 -22q-20 -13 -41.5 -21t-43 -12
t-42.5 -5.5t-39 -1.5zM379 501q-26 -11 -57 -28t-61.5 -39.5t-57.5 -51.5t-45 -65q-1 -5 -2 -17t8 -23q5 -6 21 -15.5t51 -15.5q35 -5 80 -5t101 7q-8 41 -17.5 101.5t-20.5 151.5zM773 904q-37 0 -62 28q-28 37 -25 110q1 25 4 43t4 19l56 -12q-1 -7 -2 -16q-1 -8 -2 -17
t-1 -20q-3 -50 12 -70q2 -2 5 -4t11 -2q20 0 33.5 20t21.5 42q5 14 8 27.5t5 24.5q3 12 4 24l59 -2q0 -12 2 -24q2 -11 3.5 -24t6.5 -27q5 -20 15.5 -39.5t28.5 -19.5q13 0 19 5q4 5 9 18t5 44q0 16 -4.5 33.5t-10.5 34t-12.5 29.5t-10.5 20l50 29q1 -1 8.5 -14.5t16 -34.5
t15.5 -46.5t7 -50.5q0 -70 -33 -103q-17 -17 -34.5 -20t-24.5 -3q-42 0 -71 37q-5 7 -10 15t-9 18q-11 -22 -23 -36t-25 -22t-25.5 -11t-23.5 -3zM876 1172l-51 16q14 51 13.5 104t-13.5 101l52 16q11 -43 13 -102t-14 -135z" />
    <glyph glyph-name="uFEF5" unicode="&#xfedf;&#xfe82;" horiz-adv-x="814" arabic-form="isolated" 
d="M781 366q6 -83 -22 -153.5t-90 -126.5q-47 -43 -110.5 -74t-139.5 -48q-80 -17 -159 -17q-54 0 -105 9l24 139q45 -8 99.5 -6.5t109.5 13.5q-16 85 -50 176t-76 178.5t-87 166l-82 138t-61.5 95t-25.5 36.5l116 82q1 -2 16.5 -24l40.5 -60.5l57 -91l67 -115.5
q170 -304 219 -531l27.5 18t24.5 20q73 66 66 166l-62 724l140 14q0 -1 3.5 -33l9 -86.5l12.5 -126.5t13.5 -152.5l13 -165.5t11.5 -164zM-123 1062q0 1 3 9.5t7.5 19.5l10 23.5t11.5 22.5q23 36 53 58t62 28q7 2 15.5 2h15.5q31 0 56.5 -8t47.5 -17q20 -8 38.5 -13.5
t40.5 -6.5q17 -1 33.5 7.5t30 20.5t23.5 23.5t15 16.5l81 -53q-1 -2 -15 -21t-38.5 -40t-58.5 -38t-74 -16q-29 1 -54 8t-46 15l-12 4q-23 9 -42 15t-41 2q-13 -2 -24.5 -13t-20.5 -25.5t-15 -29.5l-9 -23z" />
    <glyph glyph-name="uFEF6" unicode="&#xfee0;&#xfe82;" horiz-adv-x="876" arabic-form="final" 
d="M-153 1035q0 1 3 9.5t7.5 19.5l10 23.5t11.5 22.5q23 36 53 58t62 28q7 2 15.5 2h15.5q31 0 56.5 -8t47.5 -17q20 -8 38.5 -13.5t40.5 -6.5q17 -1 33.5 7.5t30 20.5t23.5 23.5t15 16.5l81 -53q-1 -2 -15 -21t-38.5 -40t-58.5 -38t-74 -16q-29 1 -54 8t-46 15l-12 4
q-23 9 -42 15t-41 2q-13 -2 -24.5 -13t-20.5 -25.5t-15 -29.5l-9 -23zM797 166q26 -14 47.5 -19t26.5 -6h34q27 -2 46 -22.5t19 -48.5q0 -29 -21 -49.5t-50 -20.5h-6h-29q-3 0 -14.5 1.5t-29.5 5.5t-40.5 12t-46.5 21q-29 15 -45 35l-34 44q-15 -17 -33 -33
q-95 -87 -250 -122q-80 -17 -159 -17q-54 0 -105 9l24 139q45 -8 99.5 -6.5t109.5 13.5q-16 85 -50 176t-76 178.5t-87 166l-82 138t-61 95t-25 36.5l115 82q1 -2 16.5 -24l40.5 -60.5l57 -91l67 -115.5q170 -304 219 -531l27.5 18t24.5 20q73 67 66 164q-5 78 -12 161.5
l-13.5 164t-13 152.5t-12 126.5t-8.5 87t-3 33.5l140 15q0 -1 4 -39t10 -100.5l13.5 -144l15 -170.5t14 -179t11.5 -170q3 -44 13.5 -74.5t45.5 -50.5z" />
    <glyph glyph-name="uFEF7" unicode="&#xfedf;&#xfe84;" horiz-adv-x="829" arabic-form="isolated" 
d="M58 931l1 -1q0 -1 1 -2q-2 2 -2 3zM206 1306q-8 2 -19 4q-9 2 -21 3.5t-26 1.5q-11 0 -22 -1.5t-22 -6.5v1q-23 -10 -37 -30.5t-14 -43.5q0 -11 6 -26l-1 1q11 -25 36 -42t56 -17q17 0 30 5q19 6 36.5 15.5l31.5 17.5q16 10 31 21l42 -56q-28 -20 -70 -44l-103 -57
l-162 -90l-34 62l128 71q-29 13 -52 35.5t-35 50.5q-5 12 -7.5 25t-2.5 28q0 45 26 83t69 55q33 13 70 13q16 0 31.5 -2.5l27.5 -4.5l27 -6zM781 366q6 -83 -22 -153.5t-90 -126.5q-47 -43 -110.5 -74t-139.5 -48q-80 -17 -159 -17q-54 0 -105 9l24 139q45 -8 99.5 -6.5
t109.5 13.5q-16 85 -50 176t-76 178.5t-87 166l-82 138t-61.5 95t-25.5 36.5l116 82q1 -2 16.5 -24l40.5 -60.5l57 -91l67 -115.5q170 -304 219 -531l27.5 18t24.5 20q73 66 66 166l-62 724l140 14q0 -1 3.5 -33l9 -86.5l12.5 -126.5t13.5 -152.5l13 -165.5t11.5 -164z" />
    <glyph glyph-name="uFEF8" unicode="&#xfee0;&#xfe84;" horiz-adv-x="875" arabic-form="final" 
d="M264 1378q-8 2 -19 4q-9 2 -21 3.5t-26 1.5q-11 0 -22 -1.5t-22 -6.5v1q-23 -10 -37 -30.5t-14 -43.5q0 -11 6 -26l-1 1q11 -25 36 -42t56 -17q17 0 30 5q19 6 36.5 15.5l31.5 17.5q16 10 31 21l42 -56q-28 -20 -70 -44l-103 -57l-162 -90l-34 62l128 71q-29 13 -52 35.5
t-35 50.5q-5 12 -7.5 25t-2.5 28q0 45 26 83t69 55q33 13 70 13q16 0 31.5 -2.5l27.5 -4.5l27 -6zM797 166q26 -14 47.5 -19t26.5 -6h34q27 -2 46 -22.5t19 -48.5q0 -29 -21 -49.5t-50 -20.5h-6h-29q-3 0 -14.5 1.5t-29.5 5.5t-40.5 12t-46.5 21q-29 15 -45 35l-34 44
q-15 -17 -33 -33q-95 -87 -250 -122q-80 -17 -159 -17q-54 0 -105 9l24 139q45 -8 99.5 -6.5t109.5 13.5q-16 85 -50 176t-76 178.5t-87 166l-82 138t-61 95t-25 36.5l115 82q1 -2 16.5 -24l40.5 -60.5l57 -91l67 -115.5q170 -304 219 -531l27.5 18t24.5 20q73 67 66 164
q-5 78 -12 161.5l-13.5 164t-13 152.5t-12 126.5t-8.5 87t-3 33.5l140 15q0 -1 4 -39t10 -100.5l13.5 -144l15 -170.5t14 -179t11.5 -170q3 -44 13.5 -74.5t45.5 -50.5z" />
    <glyph glyph-name="uFEF9" unicode="&#xfedf;&#xfe88;" horiz-adv-x="846" arabic-form="isolated" 
d="M369 -230q-8 2 -19 4q-9 2 -21 3.5t-26 1.5q-11 0 -22 -1.5t-22 -6.5v1q-23 -10 -37 -30.5t-14 -43.5q0 -11 6 -26l-1 1q11 -25 36 -42t56 -17q17 0 30 5q19 6 36.5 15.5l31.5 17.5q16 10 31 21l42 -56q-28 -20 -70 -44l-103 -57l-162 -90l-34 62l128 71q-29 13 -52 35.5
t-35 50.5q-5 12 -7.5 25t-2.5 28q0 45 26 83t69 55q33 13 70 13q16 0 31.5 -2.5l27.5 -4.5l27 -6zM781 366q6 -83 -22 -153.5t-90 -126.5q-47 -43 -110.5 -74t-139.5 -48q-80 -17 -159 -17q-54 0 -105 9l24 139q45 -8 99.5 -6.5t109.5 13.5q-16 85 -50 176t-76 178.5
t-87 166l-82 138t-61.5 95t-25.5 36.5l116 82q1 -2 16.5 -24l40.5 -60.5l57 -91l67 -115.5q170 -304 219 -531l27.5 18t24.5 20q73 66 66 166l-62 724l140 14q0 -1 3.5 -33l9 -86.5l12.5 -126.5t13.5 -152.5l13 -165.5t11.5 -164z" />
    <glyph glyph-name="uFEFA" unicode="&#xfee0;&#xfe88;" horiz-adv-x="874" arabic-form="final" 
d="M379 -225q-8 2 -19 4q-9 2 -21 3.5t-26 1.5q-11 0 -22 -1.5t-22 -6.5v1q-23 -10 -37 -30.5t-14 -43.5q0 -11 6 -26l-1 1q11 -25 36 -42t56 -17q17 0 30 5q19 6 36.5 15.5l31.5 17.5q16 10 31 21l42 -56q-28 -20 -70 -44l-103 -57l-162 -90l-34 62l128 71q-29 13 -52 35.5
t-35 50.5q-5 12 -7.5 25t-2.5 28q0 45 26 83t69 55q33 13 70 13q16 0 31.5 -2.5l27.5 -4.5l27 -6zM797 166q26 -14 47.5 -19t26.5 -6h34q27 -2 46 -22.5t19 -48.5q0 -29 -21 -49.5t-50 -20.5h-6h-29q-3 0 -14.5 1.5t-29.5 5.5t-40.5 12t-46.5 21q-29 15 -45 35l-34 44
q-15 -17 -33 -33q-95 -87 -250 -122q-80 -17 -159 -17q-54 0 -105 9l24 139q45 -8 99.5 -6.5t109.5 13.5q-16 85 -50 176t-76 178.5t-87 166l-82 138t-61 95t-25 36.5l115 82q1 -2 16.5 -24l40.5 -60.5l57 -91l67 -115.5q170 -304 219 -531l27.5 18t24.5 20q73 67 66 164
q-5 78 -12 161.5l-13.5 164t-13 152.5t-12 126.5t-8.5 87t-3 33.5l140 15q0 -1 4 -39t10 -100.5l13.5 -144l15 -170.5t14 -179t11.5 -170q3 -44 13.5 -74.5t45.5 -50.5z" />
    <glyph glyph-name="uFEFB" unicode="&#xfedf;&#xfe8e;" horiz-adv-x="846" arabic-form="isolated" 
d="M781 366q6 -83 -22 -153.5t-90 -126.5q-47 -43 -110.5 -74t-139.5 -48q-80 -17 -159 -17q-54 0 -105 9l24 139q45 -8 99.5 -6.5t109.5 13.5q-16 85 -50 176t-76 178.5t-87 166l-82 138t-61.5 95t-25.5 36.5l116 82q1 -2 16.5 -24l40.5 -60.5l57 -91l67 -115.5
q170 -304 219 -531l27.5 18t24.5 20q73 66 66 166l-62 724l140 14q0 -1 3.5 -33l9 -86.5l12.5 -126.5t13.5 -152.5l13 -165.5t11.5 -164z" />
    <glyph glyph-name="uFEFC" unicode="&#xfee0;&#xfe8e;" horiz-adv-x="889" arabic-form="final" 
d="M797 166q26 -14 47.5 -19t26.5 -6h22h6q29 0 50 -21t21 -50t-21 -49.5t-50 -20.5h-6h-29q-3 0 -14.5 1.5t-29.5 5.5t-40.5 12t-46.5 21q-29 15 -45 35l-34 44q-15 -17 -33 -33q-95 -87 -250 -122q-80 -17 -159 -17q-54 0 -105 9l24 139q45 -8 99.5 -6.5t109.5 13.5
q-16 85 -50 176t-76 178.5t-87 166l-82 138t-61 95t-25 36.5l115 82q1 -2 16.5 -24l40.5 -60.5l57 -91l67 -115.5q170 -304 219 -531l27.5 18t24.5 20q73 67 66 164q-5 78 -12 161.5l-13.5 164t-13 152.5t-12 126.5t-8.5 87t-3 33.5l140 15q0 -1 4 -39t10 -100.5l13.5 -144
l15 -170.5t14 -179t11.5 -170q3 -44 13.5 -74.5t45.5 -50.5z" />
    <glyph glyph-name="u0629" unicode="&#x6c0;" horiz-adv-x="683" arabic-form="isolated" 
d="M370 1064q-8 2 -19 4q-9 2 -21 3.5t-26 1.5q-11 0 -22 -1.5t-22 -6.5v1q-23 -10 -37 -30.5t-14 -43.5q0 -11 6 -26l-1 1q11 -25 36 -42t56 -17q17 0 30 5q19 6 36.5 15.5l31.5 17.5q16 10 31 21l42 -56q-28 -20 -70 -44l-103 -57l-162 -90l-34 62l128 71q-29 13 -52 35.5
t-35 50.5q-5 12 -7.5 25t-2.5 28q0 45 26 83t69 55q33 13 70 13q16 0 31.5 -2.5l27.5 -4.5l27 -6zM347 -7q-3 0 -17 0.5t-35 4t-46.5 10.5t-52.5 19q-68 32 -103.5 86.5t-35.5 127.5q0 128 117 269q23 28 45 50l38 37q-21 20 -34 30.5t-13 11.5l90 109q1 -1 15.5 -13.5
l37.5 -33.5t52 -50.5l60 -63.5q174 -197 174 -346q0 -73 -32.5 -127.5t-95.5 -85.5q-23 -11 -46.5 -18t-45.5 -11t-40.5 -5t-31.5 -1zM356 496q-21 -18 -48.5 -47t-51.5 -63.5t-41 -71.5t-17 -73q0 -21 10 -44.5t48 -41.5q27 -13 54 -16.5t37 -3.5q7 0 18.5 0.5t25.5 2.5
t28.5 5.5t28.5 10.5q26 14 38 34.5t12 52.5q0 46 -35.5 111t-103.5 141z" />
    <glyph glyph-name="u0643" unicode="&#x6a9;" horiz-adv-x="1581" arabic-form="isolated" 
d="M1569 1068l-567 -238l46.5 -37.5t50.5 -44.5q216 -197 245 -371q23 -127 -56 -229q-8 -11 -37.5 -39t-91.5 -57q-54 -25 -110.5 -39.5t-114 -21.5t-116.5 -8t-118 1q-258 2 -411 58q-147 57 -200 164q-29 57 -29.5 124.5t27.5 142.5q20 51 40.5 83.5l23.5 37.5l113 -84
l-16 -26q-7 -12 -15 -28t-15 -36q-33 -92 -3 -150q35 -70 160.5 -107t326.5 -38q75 -3 135 0.5t107 11t81.5 17.5t58.5 20q45 18 63.5 33t22.5 19l2 2l3 5q42 54 30 120q-23 126 -199 289q-35 32 -68.5 59t-59.5 46l-41.5 30l-15.5 11l11 124l682 286z" />
    <glyph glyph-name="u064A" unicode="&#x6cc;" horiz-adv-x="1240" arabic-form="isolated" 
d="M958 618q49 10 94 7t79.5 -10.5t55.5 -16t23 -9.5l-62 -131l-13.5 5t-35.5 10t-51 7t-60 -5q-65 -13 -119 -54t-89 -103q-26 -44 -34.5 -87.5t1.5 -72.5q10 -28 46 -40t97 -23q45 -8 88.5 -18.5t79.5 -36.5q16 -12 32.5 -29.5t27.5 -42.5t15 -59t-3 -77
q-13 -70 -63 -128.5t-133 -100.5q-78 -40 -178 -60.5t-217 -20.5q-135 0 -239 38.5t-170 113.5q-59 67 -83 155.5t-11 193.5q6 46 16 96t22 97t24.5 90l22.5 75.5t17 52.5l8 23l137 -48q0 -1 -6.5 -19.5t-16 -49l-21.5 -71t-23 -85t-20.5 -90.5t-14.5 -88q-3 -26 -3.5 -55.5
t5.5 -60.5t19 -61.5t37 -57.5q45 -51 121 -77t179 -26q102 0 182 16.5t137 43t89.5 60.5t38.5 70q3 18 3 29.5t-2.5 18.5t-5.5 10t-6 5q-17 11 -47.5 18t-63.5 13q-35 6 -70 14t-67 22q-89 39 -118 123q-20 60 -8.5 133.5t52.5 145.5q51 90 130.5 149t174.5 79z" />
    <glyph glyph-name="uFB57" unicode="&#x67e;" horiz-adv-x="1558" arabic-form="final" 
d="M661 -252l-116 -116l-117 117l116 116zM914 -253l-116 -116l-117 117l116 116zM794 -449l-116 -116l-117 117l116 116zM1282 117q-14 17 -25 36.5t-19 41.5q-12 -14 -25.5 -26l-27.5 -24q-183 -147 -542 -147q-217 1 -357.5 55t-204.5 163q-28 47 -38.5 97t-9 97t11 89
t21 74t21 51.5t10.5 22.5l124 -68q0 -1 -6.5 -14t-14.5 -35.5t-15.5 -52t-9 -61.5t4 -65.5t23.5 -63.5q43 -72 154.5 -109t285.5 -38q157 0 268.5 28t184.5 87q33 26 56.5 57t40.5 63.5t28.5 66t20.5 65.5l136 -37q-8 -29 -18 -60h1q-1 -5 -4.5 -28t-2.5 -53.5t9 -64
t30 -60.5q51 -63 170 -63q29 0 50 -21t21 -50t-21 -49.5t-50 -20.5h-6q-186 2 -275 117z" />
    <glyph glyph-name="uFB58" unicode="&#x67e;" horiz-adv-x="520" arabic-form="initial" 
d="M236 -254l-116 -116l-117 117l116 116zM489 -255l-116 -116l-117 117l116 116zM369 -451l-116 -116l-117 117l116 116zM-72 70q0 29 20.5 50t49.5 21h101q38 -1 73 0.5t64.5 10t52 25.5t36.5 47q14 31 8 88t-29 132q-8 23 -18.5 50t-20.5 50l-23 53l127 63q0 -1 6.5 -15
l17 -37.5t22.5 -54.5t23 -66q66 -205 16 -320q-51 -115 -180 -151q-38 -11 -75 -13.5t-69 -2.5h-126h-6q-29 0 -49.5 20.5t-20.5 49.5z" />
    <glyph glyph-name="uFB59" unicode="&#x67e;" horiz-adv-x="533" arabic-form="medial" 
d="M266 -249l-116 -116l-117 117l116 116zM519 -250l-116 -116l-117 117l116 116zM399 -446l-116 -116l-117 117l116 116zM-72 70q0 29 20.5 50t49.5 21h32q120 0 174.5 42.5t54.5 128.5q0 41 -8.5 99t-24.5 113l134 38q19 -66 29 -133.5t10 -116.5v-4q0 -26 5 -55.5
t18 -54.5t36.5 -41t60.5 -16h16q29 0 50 -21t21 -50t-21 -49.5t-50 -20.5h-16q-72 0 -119 25t-77 64q-45 -45 -117 -67t-176 -22h-26h-6q-29 0 -49.5 20.5t-20.5 49.5z" />
    <glyph glyph-name="uFB7B" unicode="&#x686;" horiz-adv-x="1165" arabic-form="final" 
d="M587 -18l-116 -116l-117 117l116 116zM840 -19l-116 -116l-117 117l116 116zM720 -215l-116 -116l-117 117l116 116zM662 -555q-76 0 -136.5 9t-93.5 20q-161 53 -250 155q-110 128 -93 311q12 143 109 260q42 49 96 89.5t118 70.5q87 40 181.5 63t183.5 34l-77 37
q-75 38 -137 65.5t-104 33.5q-99 14 -179 -71q-16 -17 -27.5 -33.5t-19.5 -30t-12 -22.5l-4 -8l-131 54q1 3 7.5 16t17.5 31.5t27.5 41.5t38.5 47q63 68 139.5 97t161.5 18q60 -8 129 -38.5t155 -73.5l166 -79t191 -75l-27 -137q-2 0 -46 1t-114 -3q-1 -8 -1.5 -22
t1.5 -30.5t8.5 -34t19.5 -33.5q17 -21 41.5 -34t53 -20.5t57.5 -10t55 -2.5q29 0 50 -21t21 -50t-21 -49.5t-50 -20.5q-223 0 -319 122q-26 34 -41 76t-17 90q-2 15 0 27q-79 -10 -162 -29.5t-157 -53.5q-25 -12 -64 -36t-76.5 -61t-66.5 -88.5t-35 -118.5
q-21 -232 247 -320q13 -5 38 -9.5t58.5 -8t73 -4t83.5 2.5q35 3 76.5 9.5t84 19.5t84 34t76.5 53l93 -107q-51 -45 -111 -74.5t-123 -47t-126 -24.5t-121 -7z" />
    <glyph glyph-name="uFB7C" unicode="&#x686;" horiz-adv-x="1108" arabic-form="initial" 
d="M475 -235l-116 -116l-117 117l116 116zM728 -236l-116 -116l-117 117l116 116zM608 -432l-116 -116l-117 117l116 116zM-88 71q0 29 21 49.5t50 20.5h125q96 0 184 18t171 47t161.5 66.5l155.5 75.5l13 7q-48 17 -93.5 37.5l-89.5 40.5q-66 32 -126 56.5t-105 24.5
q-30 0 -56.5 -13t-48.5 -32.5t-40 -42t-30.5 -42t-19.5 -33l-7 -13.5l-129 58q1 1 6.5 12t15.5 28.5t24.5 39.5t34.5 45q111 134 250 134q69 0 142 -29t150 -65l85 -39.5t86.5 -34.5t87.5 -24.5t88 -9.5l27 -136q-50 -20 -99.5 -44.5l-102.5 -50.5l-162 -78.5t-175.5 -71.5
t-190.5 -52t-207 -20h-119h-6q-29 0 -50 21t-21 50z" />
    <glyph glyph-name="uFB7D" unicode="&#x686;" horiz-adv-x="1140" arabic-form="medial" 
d="M537 -246l-116 -116l-117 117l116 116zM790 -247l-116 -116l-117 117l116 116zM670 -443l-116 -116l-117 117l116 116zM-78 70q0 29 21 50t50 21h95q96 0 184 18t171 47.5t161.5 67l155.5 75.5l13 6q-48 17 -93.5 38l-89.5 41q-66 31 -126 55.5t-106 24.5
q-30 0 -56.5 -13t-48.5 -32.5t-39.5 -42t-30 -42t-19.5 -32.5l-7 -13l-129 58q0 1 5.5 12t15.5 28.5t25 39.5t34 45q56 66 119 100t131 34q69 0 142 -29t150 -65l85.5 -39.5t87 -35t87 -25t87.5 -9.5l28 -135l-64.5 -29l-65.5 -31q12 -41 44 -64t70 -35t73.5 -15t55.5 -3h4
h6q29 0 50 -21t21 -50t-21 -49.5t-50 -20.5h-10q-141 0 -238 52t-133 143q-73 -36 -151.5 -71t-162.5 -62.5t-175 -44.5t-190 -17h-95q-29 0 -50 20.5t-21 49.5z" />
    <glyph glyph-name="uFB8B" unicode="&#x698;" horiz-adv-x="667" arabic-form="final" 
d="M347 724l116 116l117 -117l-116 -116zM94 725l116 116l117 -117l-116 -116zM214 921l116 116l117 -117l-116 -116zM494 53v-3q0 -93 -40 -178t-106 -158.5t-151 -134t-175 -105.5l-62 126q78 39 151.5 90.5t129.5 112.5t87 130.5t24 144.5v-1q-5 40 -15.5 87t-23 92
l-24.5 84.5l-20 66.5l134 41v-1q6 -19 17.5 -49.5t27 -64.5t36.5 -68t46.5 -61.5t56 -45t65.5 -17.5h23h6q29 0 50 -21t21 -50t-21 -49.5t-50 -20.5h-6h-23q-45 0 -84.5 14.5t-73.5 38.5z" />
    <glyph glyph-name="uFB93" unicode="&#x6af;" horiz-adv-x="1667" arabic-form="final" 
d="M1494 1285l-661 -281l5 91l622 262zM1677 141q29 0 49.5 -21t20.5 -50t-20.5 -49.5t-49.5 -20.5q-118 0 -216 45t-161 133q-23 -39 -61 -65.5t-78 -45.5q-149 -67 -392 -67h-66q-76 0 -143 6q-54 4 -104.5 11.5t-99.5 21.5q-9 2 -25 7.5l-33.5 12l-32 12t-20.5 8.5
q-41 21 -76 49q-46 35 -77 95q-1 1 -1 3q-24 52 -29 119.5t28 144.5q22 51 41.5 83.5l22.5 37.5l113 -84q-11 -18 -20 -35q-8 -14 -15.5 -29.5t-10.5 -25.5q-33 -92 -3 -150q28 -55 111 -90t216 -49q48 -4 90.5 -5t74.5 -1q145 -6 237 10.5t139 36.5q49 20 68 36.5t20 18.5
q34 45 34.5 89t-16.5 87v1q-43 107 -186 238q-53 48 -99 82.5l-69 50.5l-15 11l11 124l682 286l54 -130l-566 -238l46.5 -37.5t50.5 -44.5q84 -75 138 -146.5t82 -140.5q7 -14 12.5 -29l11.5 -32q12 -34 26 -69.5t35 -68t50.5 -61t73.5 -49.5q28 -13 63 -19t78 -7h6z" />
    <glyph glyph-name="uFB94" unicode="&#x6af;" horiz-adv-x="715" arabic-form="initial" 
d="M-71 70q0 29 21 50t50 21h10h52q35 0 71 -0.5t72 1t67.5 9t57.5 24t42 45.5q43 74 9 169q-30 88 -121 188q-40 44 -82 81t-76 64t-56 42l-22 15l11 125l682 285l55 -130l-567 -238l76.5 -66.5t82.5 -82.5q81 -90 120.5 -168t49 -144t-3.5 -120t-35 -94
q-64 -113 -215 -141q-29 -5 -62 -5h-212h-6q-29 0 -50 20.5t-21 49.5zM691 1268l-653 -278l5 91l614 259z" />
    <glyph glyph-name="uFB95" unicode="&#x6af;" horiz-adv-x="820" arabic-form="medial" 
d="M-71 70q0 29 21 50t50 21h6h235q46 0 80 28q24 20 39.5 48.5t21.5 59.5q7 36 0 71.5t-22 69.5q-30 68 -79.5 125t-103.5 108q-38 35 -77.5 66.5t-81.5 60.5q-1 1 -2.5 1.5t-2.5 2.5h-1v1l11 122l682 287l55 -130l-567 -238q60 -49 114.5 -102t101.5 -114q20 -27 38 -55.5
t33 -59.5q7 -13 12.5 -25.5t10.5 -26.5q3 -9 5.5 -18.5t6.5 -17.5q12 -30 25 -58.5t30 -55.5q18 -31 39.5 -59.5t51.5 -48.5q12 -8 24.5 -14.5t26.5 -11.5q40 -14 87 -16h30q29 0 49.5 -21t20.5 -50t-20.5 -49.5t-49.5 -20.5h-6q-26 0 -53 1t-53 8q-15 4 -30 7.5t-30 8.5
q-52 21 -97 57q-23 16 -42 39l-13 15q-5 5 -8.5 10.5t-8.5 10.5q-25 -47 -61 -80q-22 -20 -47 -33.5t-52 -23.5q-14 -5 -29 -9.5t-30 -6.5q-15 -3 -30.5 -3t-31.5 -1h-207q-29 0 -50 20.5t-21 49.5zM672 1268l-654 -278l5 90l617 261z" />
    <glyph glyph-name="Hcircumflex" unicode="&#x622;" horiz-adv-x="462" arabic-form="final" 
d="M-44 1136q0 1 3 9.5t7.5 19.5l10 23.5t11.5 22.5q23 36 53 58t62 28q7 2 15.5 2h15.5q31 0 56.5 -8t47.5 -17q20 -8 38.5 -13.5t40.5 -6.5q17 -1 33.5 7.5t30 20.5t23.5 23.5t15 16.5l81 -53q-1 -2 -15 -21t-38.5 -40t-58.5 -38t-74 -16q-29 1 -54 8t-46 15l-12 4
q-23 9 -42 15t-41 2q-13 -2 -24.5 -13t-20.5 -25.5t-15 -29.5l-9 -23zM463 0q-78 0 -134.5 19t-94.5 57q-24 24 -36.5 51t-18 53.5t-6.5 50.5t-1 41v13q0 1 0.5 26.5t1 68.5t0.5 99.5t-1 119.5q0 61 -1.5 127.5t-4.5 128.5t-7.5 114.5t-11.5 86.5l140 26q7 -36 12 -89.5
t8 -115.5t4.5 -129.5t1.5 -131.5q1 -63 1 -120.5v-103t-0.5 -74.5t-0.5 -35v-13q-1 -31 2 -55t19 -40q33 -33 122 -34h6q29 0 50 -21t21 -50t-21 -49.5t-50 -20.5z" />
    <glyph glyph-name="uFE84" unicode="&#x623;" horiz-adv-x="467" arabic-form="final" 
d="M302 1421q-8 2 -19 4q-9 2 -21 3.5t-26 1.5q-11 0 -22 -1.5t-22 -6.5v1q-23 -10 -37 -30.5t-14 -43.5q0 -11 6 -26l-1 1q11 -25 36 -42t56 -17q17 0 30 5q19 6 36.5 15.5l31.5 17.5q16 10 31 21l42 -56q-28 -20 -70 -44l-103 -57l-162 -90l-34 62l128 71q-29 13 -52 35.5
t-35 50.5q-5 12 -7.5 25t-2.5 28q0 45 26 83t69 55q33 13 70 13q16 0 31.5 -2.5l27.5 -4.5l27 -6zM474 0q-78 0 -134.5 19t-94.5 57q-24 24 -36.5 51t-18 53.5t-6.5 50.5t-1 41v13q0 1 0.5 26.5t1 68.5t0.5 99.5t-1 119.5q0 61 -1.5 127.5t-4.5 128.5t-7.5 114.5t-11.5 86.5
l140 26q7 -36 12 -89.5t8 -115.5t4.5 -129.5t1.5 -131.5q1 -63 1 -120.5v-103t-0.5 -74.5t-0.5 -35v-13q-1 -31 2 -55t19 -40q33 -33 122 -34h6q29 0 50 -21t21 -50t-21 -49.5t-50 -20.5z" />
    <glyph glyph-name="uFE86" unicode="&#x624;" horiz-adv-x="679" arabic-form="final" 
d="M325 959q-8 2 -19 4q-9 2 -21 3.5t-26 1.5q-11 0 -22 -1.5t-22 -6.5v1q-23 -10 -37 -30.5t-14 -43.5q0 -11 6 -26l-1 1q11 -25 36 -42t56 -17q17 0 30 5q19 6 36.5 15.5l31.5 17.5q16 10 31 21l42 -56q-28 -20 -70 -44l-103 -57l-162 -90l-34 62l128 71q-29 13 -52 35.5
t-35 50.5q-5 12 -7.5 25t-2.5 28q0 45 26 83t69 55q33 13 70 13q16 0 31.5 -2.5l27.5 -4.5l27 -6zM296 466q-27 0 -56 -38q-20 -25 -33.5 -59.5t-21.5 -77.5q-11 -65 15 -96q11 -15 27.5 -24.5t34 -16t34.5 -10t31 -4.5h148q-3 94 -32 166.5t-66 113.5q-14 17 -35 31.5
t-46 14.5zM132 -489l-69 123q71 40 133.5 85.5t112.5 93t87 95t57 92.5q-28 1 -62 1.5t-73 4.5q-157 9 -229 102q-65 83 -43 208q11 60 31.5 110t51.5 89q35 45 78 68.5t89 23.5q103 0 186 -92q61 -67 95.5 -166.5t38.5 -208.5h62q29 0 50 -20.5t21 -50.5q0 -29 -21 -49
t-50 -20h-75q-16 -57 -52 -116t-90 -120q-64 -69 -147 -134t-182 -119z" />
    <glyph glyph-name="uFE88" unicode="&#x625;" horiz-adv-x="407" arabic-form="final" 
d="M291 -137q-8 2 -19 4q-9 2 -21 3.5t-26 1.5q-11 0 -22 -1.5t-22 -6.5v1q-23 -10 -37 -30.5t-14 -43.5q0 -11 6 -26l-1 1q11 -25 36 -42t56 -17q17 0 30 5q19 6 36.5 15.5l31.5 17.5q16 10 31 21l42 -56q-28 -20 -70 -44l-103 -57l-162 -90l-34 62l128 71q-29 13 -52 35.5
t-35 50.5q-5 12 -7.5 25t-2.5 28q0 45 26 83t69 55q33 13 70 13q16 0 31.5 -2.5l27.5 -4.5l27 -6zM408 0q-78 0 -134.5 19t-94.5 57q-24 24 -36.5 51t-18 53.5t-6.5 50.5t-1 41v13q0 1 0.5 26.5t1 68.5t0.5 99.5t-1 119.5q0 61 -1.5 127.5t-4.5 128.5t-7.5 114.5t-11.5 86.5
l140 26q7 -36 12 -89.5t8 -115.5t4.5 -129.5t1.5 -131.5q1 -63 1 -120.5v-103t-0.5 -74.5t-0.5 -35v-13q-1 -31 2 -55t19 -40q33 -33 122 -34h6q29 0 50 -21t21 -50t-21 -49.5t-50 -20.5z" />
    <glyph glyph-name="uFE8A" unicode="&#x626;" horiz-adv-x="1145" arabic-form="final" 
d="M643 554q-8 2 -19 4q-9 2 -21 3.5t-26 1.5q-11 0 -22 -1.5t-22 -6.5v1q-23 -10 -37 -30.5t-14 -43.5q0 -11 6 -26l-1 1q11 -25 36 -42t56 -17q17 0 30 5q19 6 36.5 15.5l31.5 17.5q16 10 31 21l42 -56q-28 -20 -70 -44l-103 -57l-162 -90l-34 62l128 71q-29 13 -52 35.5
t-35 50.5q-5 12 -7.5 25t-2.5 28q0 45 26 83t69 55q33 13 70 13q16 0 31.5 -2.5l27.5 -4.5l27 -6zM540 -466q-35 0 -82 2.5t-99 15.5q-160 40 -237 155q-77 113 -68 293q9 194 121 466l131 -53q-91 -223 -108 -382t41 -246q29 -42 71.5 -64.5t88.5 -33t89 -11.5t73 -1h15
q23 0 53.5 3.5t65 10t70.5 16.5t69 24q16 6 40 17.5t46.5 27.5t38.5 35t16 41q0 17 -33 45.5t-114 58.5q-33 12 -65.5 21t-57.5 15t-41 9l-16 3l11 139h486q29 0 50 -21t21 -50t-21 -49.5t-50 -20.5h-107q24 -20 39 -40.5t24 -40t12 -37t3 -32.5q0 -27 -9 -59.5t-34.5 -66
t-70.5 -66t-116 -60.5q-41 -17 -84.5 -29t-84.5 -19.5t-77.5 -11.5t-63.5 -4h-36z" />
    <glyph glyph-name="uFE8B" unicode="&#x626;" horiz-adv-x="462" arabic-form="initial" 
d="M281 976q-8 2 -19 4q-9 2 -21 3.5t-26 1.5q-11 0 -22 -1.5t-22 -6.5v1q-23 -10 -37 -30.5t-14 -43.5q0 -11 6 -26l-1 1q11 -25 36 -42t56 -17q17 0 30 5q19 6 36.5 15.5l31.5 17.5q16 10 31 21l42 -56q-28 -20 -70 -44l-103 -57l-162 -90l-34 62l128 71q-29 13 -52 35.5
t-35 50.5q-5 12 -7.5 25t-2.5 28q0 45 26 83t69 55q33 13 70 13q16 0 31.5 -2.5l27.5 -4.5l27 -6zM-98 70q0 29 20.5 50t49.5 21h88q38 -1 73 0.5t64.5 10t52 25.5t36.5 47q14 31 8 88t-29 132q-8 23 -18.5 50t-20.5 50l-23 53l127 63q0 -1 6.5 -15l17 -37.5t22.5 -54.5
t23 -66q66 -205 16 -320q-51 -115 -180 -151q-38 -11 -75 -13.5t-69 -2.5h-113h-6q-29 0 -49.5 20.5t-20.5 49.5z" />
    <glyph glyph-name="uFE8C" unicode="&#x626;" horiz-adv-x="501" arabic-form="medial" 
d="M310 896q-8 2 -19 4q-9 2 -21 3.5t-26 1.5q-11 0 -22 -1.5t-22 -6.5v1q-23 -10 -37 -30.5t-14 -43.5q0 -11 6 -26l-1 1q11 -25 36 -42t56 -17q17 0 30 5q19 6 36.5 15.5l31.5 17.5q16 10 31 21l42 -56q-28 -20 -70 -44l-103 -57l-162 -90l-34 62l128 71q-29 13 -52 35.5
t-35 50.5q-5 12 -7.5 25t-2.5 28q0 45 26 83t69 55q33 13 70 13q16 0 31.5 -2.5l27.5 -4.5l27 -6zM-70 70q0 29 20.5 50t49.5 21h12q121 0 175.5 42.5t54.5 128.5q0 41 -8.5 99t-24.5 113l134 38q19 -66 29 -133.5t10 -116.5v-4q0 -26 5 -55.5t18 -54.5t36 -41t60 -16
q29 0 50 -21t21 -50t-20.5 -49.5t-49.5 -20.5q-72 0 -119 25t-77 64q-45 -45 -117.5 -67t-176.5 -22h-12q-29 0 -49.5 20.5t-20.5 49.5z" />
    <glyph glyph-name="uFE8E" unicode="&#x627;" horiz-adv-x="400" arabic-form="final" 
d="M408 0q-78 0 -134.5 19t-94.5 57q-24 24 -36.5 51t-18 53.5t-6.5 50.5t-1 41v13q0 1 0.5 26.5t1 68.5t0.5 99.5t-1 119.5q0 61 -1.5 127.5t-4.5 128.5t-7.5 114.5t-11.5 86.5l140 26q7 -36 12 -89.5t8 -115.5t4.5 -129.5t1.5 -131.5q1 -63 1 -120.5v-103t-0.5 -74.5
t-0.5 -35v-13q-1 -31 2 -55t19 -40q33 -33 122 -34h6q29 0 50 -21t21 -50t-21 -49.5t-50 -20.5z" />
    <glyph glyph-name="uFE90" unicode="&#x628;" horiz-adv-x="1559" arabic-form="final" 
d="M795 -287l-116 -116l-117 117l116 116zM1282 117q-14 17 -25 36.5t-19 41.5q-12 -14 -25.5 -26l-27.5 -24q-183 -147 -542 -147q-217 1 -357.5 55t-204.5 163q-28 47 -38.5 97t-9 97t11 89t21 74t21 51.5t10.5 22.5l124 -68q0 -1 -6.5 -14t-14.5 -35.5t-15.5 -52
t-9 -61.5t4 -65.5t23.5 -63.5q43 -72 154.5 -109t285.5 -38q157 0 268.5 28t184.5 87q33 26 56.5 57t40.5 63.5t28.5 66t20.5 65.5l136 -37q-8 -29 -18 -60h1q-1 -5 -4.5 -28t-2.5 -53.5t9 -64t30 -60.5q51 -63 170 -63q29 0 50 -21t21 -50t-21 -49.5t-50 -20.5h-6
q-186 2 -275 117z" />
    <glyph glyph-name="uFE91" unicode="&#x628;" horiz-adv-x="427" arabic-form="initial" 
d="M293 -276l-116 -116l-117 117l116 116zM-84 70q0 29 20.5 50t49.5 21h41q38 -1 73 0.5t64.5 10t52 25.5t36.5 47q14 31 8 88t-29 132q-8 23 -18.5 50t-20.5 50l-23 53l127 63q0 -1 6.5 -15l17 -37.5t22.5 -54.5t23 -66q66 -205 16 -320q-51 -115 -180 -151
q-38 -11 -75 -13.5t-69 -2.5h-66h-6q-29 0 -49.5 20.5t-20.5 49.5z" />
    <glyph glyph-name="uFE92" unicode="&#x628;" horiz-adv-x="501" arabic-form="medial" 
d="M403 -276l-116 -116l-117 117l116 116zM-70 70q0 29 20.5 50t49.5 21h12q121 0 175.5 42.5t54.5 128.5q0 41 -8.5 99t-24.5 113l134 38q19 -66 29 -133.5t10 -116.5v-4q0 -26 5 -55.5t18 -54.5t36 -41t60 -16q29 0 50 -21t21 -50t-20.5 -49.5t-49.5 -20.5q-72 0 -119 25
t-77 64q-45 -45 -117.5 -67t-176.5 -22h-12q-29 0 -49.5 20.5t-20.5 49.5z" />
    <glyph glyph-name="uFE94" unicode="&#x629;" horiz-adv-x="713" arabic-form="final" 
d="M458 1114q-8 2 -19 4q-9 2 -21 3.5t-26 1.5q-11 0 -22 -1.5t-22 -6.5v1q-23 -10 -37 -30.5t-14 -43.5q0 -11 6 -26l-1 1q11 -25 36 -42t56 -17q17 0 30 5q19 6 36.5 15.5l31.5 17.5q16 10 31 21l42 -56q-28 -20 -70 -44l-103 -57l-162 -90l-34 62l128 71q-29 13 -52 35.5
t-35 50.5q-5 12 -7.5 25t-2.5 28q0 45 26 83t69 55q33 13 70 13q16 0 31.5 -2.5l27.5 -4.5l27 -6zM393 501q-26 -11 -57 -27.5t-61.5 -39.5t-57.5 -52t-45 -65q-1 -5 -2 -17t8 -23q5 -6 21 -15.5t51 -15.5q35 -5 79.5 -5t101.5 7q-8 42 -17.5 102t-20.5 151zM323 100
q-184 0 -256 89q-20 24 -28.5 50.5t-9.5 51t3 45.5t10 35l1 4q29 60 73.5 106t92.5 79t93 54t75 32q-5 54 -8 79.5t-3 26.5l140 29v1q1 1 11 -105q5 -54 9.5 -93l7.5 -65q11 -92 20 -151t16 -93.5t12 -49.5t7 -19q17 -39 45.5 -52t78.5 -13q29 0 50 -21t21 -50t-21 -49.5
t-50 -20.5q-27 0 -64.5 4.5t-74.5 21.5q-57 28 -94 87q-45 -7 -83.5 -10t-73.5 -3z" />
    <glyph glyph-name="uFE96" unicode="&#x62a;" horiz-adv-x="1559" arabic-form="final" 
d="M690 742l-116 -116l-117 117l116 116zM933 741l-116 -116l-117 117l116 116zM1282 117q-14 17 -25 36.5t-19 41.5q-12 -14 -25.5 -26l-27.5 -24q-183 -147 -542 -147q-217 1 -357.5 55t-204.5 163q-28 47 -38.5 97t-9 97t11 89t21 74t21 51.5t10.5 22.5l124 -68
q0 -1 -6.5 -14t-14.5 -35.5t-15.5 -52t-9 -61.5t4 -65.5t23.5 -63.5q43 -72 154.5 -109t285.5 -38q157 0 268.5 28t184.5 87q33 26 56.5 57t40.5 63.5t28.5 66t20.5 65.5l136 -37q-8 -29 -18 -60h1q-1 -5 -4.5 -28t-2.5 -53.5t9 -64t30 -60.5q51 -63 170 -63q29 0 50 -21
t21 -50t-21 -49.5t-50 -20.5h-6q-186 2 -275 117z" />
    <glyph glyph-name="uFE97" unicode="&#x62a;" horiz-adv-x="495" arabic-form="initial" 
d="M243 846l-116 -116l-117 117l116 116zM478 845l-116 -116l-117 117l116 116zM-91 70q0 29 20.5 50t49.5 21h88q38 -1 73 0.5t64.5 10t52 25.5t36.5 47q14 31 8 88t-29 132q-8 23 -18.5 50t-20.5 50l-23 53l127 63q0 -1 6.5 -15l17 -37.5t22.5 -54.5t23 -66
q66 -205 16 -320q-51 -115 -180 -151q-38 -11 -75 -13.5t-69 -2.5h-113h-6q-29 0 -49.5 20.5t-20.5 49.5z" />
    <glyph glyph-name="uFE98" unicode="&#x62a;" horiz-adv-x="502" arabic-form="medial" 
d="M248 772l-116 -116l-117 117l116 116zM491 771l-116 -116l-117 117l116 116zM-70 70q0 29 20.5 50t49.5 21h12q121 0 175.5 42.5t54.5 128.5q0 41 -8.5 99t-24.5 113l134 38q19 -66 29 -133.5t10 -116.5v-4q0 -26 5 -55.5t18 -54.5t36 -41t60 -16q29 0 50 -21t21 -50
t-20.5 -49.5t-49.5 -20.5q-72 0 -119 25t-77 64q-45 -45 -117.5 -67t-176.5 -22h-12q-29 0 -49.5 20.5t-20.5 49.5z" />
    <glyph glyph-name="uFE9A" unicode="&#x62b;" horiz-adv-x="1511" arabic-form="final" 
d="M1521 0q-190 0 -281 117q-14 17 -25 36.5t-19 41.5q-12 -14 -25.5 -26l-27.5 -24q-183 -147 -542 -147q-217 1 -357.5 55t-204.5 163q-28 47 -38.5 97t-9 97t11 89t21 74t21 51.5t10.5 22.5l124 -68q0 -1 -6.5 -14t-14.5 -35.5t-15.5 -52t-9 -61.5t4 -65.5t23.5 -63.5
q43 -72 154.5 -109t285.5 -38q157 0 268.5 28t184.5 87q33 26 56.5 57t40.5 63.5t28.5 66t20.5 65.5l136 -37q-8 -29 -18 -60h1q-1 -5 -4.5 -28t-2.5 -53.5t9 -64t30 -60.5q51 -63 170 -63v-141zM696 642l116 116l117 -117l-116 -116zM443 643l116 116l117 -117l-116 -116z
M563 839l116 116l117 -117l-116 -116z" />
    <glyph glyph-name="uFE9B" unicode="&#x62b;" horiz-adv-x="505" arabic-form="initial" 
d="M265 842l116 116l117 -117l-116 -116zM12 843l116 116l117 -117l-116 -116zM132 1039l116 116l117 -117l-116 -116zM-71 70q0 29 20.5 50t49.5 21h88q38 -1 73 0.5t64.5 10t52 25.5t36.5 47q14 31 8 88t-29 132q-8 23 -18.5 50t-20.5 50l-23 53l127 63q0 -1 6.5 -15
l17 -37.5t22.5 -54.5t23 -66q66 -205 16 -320q-51 -115 -180 -151q-38 -11 -75 -13.5t-69 -2.5h-113h-6q-29 0 -49.5 20.5t-20.5 49.5z" />
    <glyph glyph-name="uFE9C" unicode="&#x62b;" horiz-adv-x="532" arabic-form="medial" 
d="M268 822l116 116l117 -117l-116 -116zM15 823l116 116l117 -117l-116 -116zM135 1019l116 116l117 -117l-116 -116zM-72 70q0 29 20.5 50t49.5 21h32q120 0 174.5 42.5t54.5 128.5q0 41 -8.5 99t-24.5 113l134 38q19 -66 29 -133.5t10 -116.5v-4q0 -26 5 -55.5t18 -54.5
t36.5 -41t60.5 -16h16q29 0 50 -21t21 -50t-21 -49.5t-50 -20.5h-16q-72 0 -119 25t-77 64q-45 -45 -117 -67t-176 -22h-26h-6q-29 0 -49.5 20.5t-20.5 49.5z" />
    <glyph glyph-name="uFE9E" unicode="&#x62c;" horiz-adv-x="1233" arabic-form="final" 
d="M821 -98l-116 -116l-117 117l116 116zM737 -555q-76 0 -136.5 9t-93.5 20q-161 53 -250 155q-110 128 -93 311q12 143 109 260q42 49 96 89.5t118 70.5q87 40 181.5 63t183.5 34l-77 37q-75 38 -137 65.5t-104 33.5q-99 14 -179 -71q-16 -17 -27.5 -33.5t-19.5 -30
t-12 -22.5l-4 -8l-131 54q1 3 7.5 16t17.5 31.5t27.5 41.5t38.5 47q63 68 139.5 97t161.5 18q60 -8 129 -38.5t155 -73.5l166 -79t191 -75l-27 -137q-2 0 -46 1t-114 -3q-1 -8 -1.5 -22t1.5 -30.5t8.5 -34t19.5 -33.5q17 -21 41.5 -34t53 -20.5t57.5 -10t55 -2.5
q29 0 50 -21t21 -50t-21 -49.5t-50 -20.5q-223 0 -319 122q-26 34 -41 76t-17 90q-2 15 0 27q-79 -10 -162 -29.5t-157 -53.5q-25 -12 -64 -36t-76.5 -61t-66.5 -88.5t-35 -118.5q-21 -232 247 -320q13 -5 38 -9.5t58.5 -8t73 -4t83.5 2.5q35 3 76.5 9.5t84 19.5t84 34
t76.5 53l93 -107q-51 -45 -111 -74.5t-123 -47t-126 -24.5t-121 -7z" />
    <glyph glyph-name="uFE9F" unicode="&#x62c;" horiz-adv-x="1102" arabic-form="initial" 
d="M651 -259l-116 -116l-117 117l116 116zM-88 71q0 29 21 49.5t50 20.5h125q96 0 184 18t171 47t161.5 66.5l155.5 75.5l13 7q-48 17 -93.5 37.5l-89.5 40.5q-66 32 -126 56.5t-105 24.5q-30 0 -56.5 -13t-48.5 -32.5t-40 -42t-30.5 -42t-19.5 -33l-7 -13.5l-129 58
q1 1 6.5 12t15.5 28.5t24.5 39.5t34.5 45q111 134 250 134q69 0 142 -29t150 -65l85 -39.5t86.5 -34.5t87.5 -24.5t88 -9.5l27 -136q-50 -20 -99.5 -44.5l-102.5 -50.5l-162 -78.5t-175.5 -71.5t-190.5 -52t-207 -20h-119h-6q-29 0 -50 21t-21 50z" />
    <glyph glyph-name="uFEA0" unicode="&#x62c;" horiz-adv-x="1137" arabic-form="medial" 
d="M660 -267l-116 -116l-117 117l116 116zM-78 70q0 29 21 50t50 21h95q96 0 184 18t171 47.5t161.5 67l155.5 75.5l13 6q-48 17 -93.5 38l-89.5 41q-66 31 -126 55.5t-106 24.5q-30 0 -56.5 -13t-48.5 -32.5t-39.5 -42t-30 -42t-19.5 -32.5l-7 -13l-129 58q0 1 5.5 12
t15.5 28.5t25 39.5t34 45q56 66 119 100t131 34q69 0 142 -29t150 -65l85.5 -39.5t87 -35t87 -25t87.5 -9.5l28 -135l-64.5 -29l-65.5 -31q12 -41 44 -64t70 -35t73.5 -15t55.5 -3h4h6q29 0 50 -21t21 -50t-21 -49.5t-50 -20.5h-10q-141 0 -238 52t-133 143
q-73 -36 -151.5 -71t-162.5 -62.5t-175 -44.5t-190 -17h-95q-29 0 -50 20.5t-21 49.5z" />
    <glyph glyph-name="uFEA2" unicode="&#x62d;" horiz-adv-x="1233" arabic-form="final" 
d="M737 -555q-76 0 -136.5 9t-93.5 20q-161 53 -250 155q-110 128 -93 311q12 143 109 260q42 49 96 89.5t118 70.5q87 40 181.5 63t183.5 34l-77 37q-75 38 -137 65.5t-104 33.5q-99 14 -179 -71q-16 -17 -27.5 -33.5t-19.5 -30t-12 -22.5l-4 -8l-131 54q1 3 7.5 16
t17.5 31.5t27.5 41.5t38.5 47q63 68 139.5 97t161.5 18q60 -8 129 -38.5t155 -73.5l166 -79t191 -75l-27 -137q-2 0 -46 1t-114 -3q-1 -8 -1.5 -22t1.5 -30.5t8.5 -34t19.5 -33.5q17 -21 41.5 -34t53 -20.5t57.5 -10t55 -2.5q29 0 50 -21t21 -50t-21 -49.5t-50 -20.5
q-223 0 -319 122q-26 34 -41 76t-17 90q-2 15 0 27q-79 -10 -162 -29.5t-157 -53.5q-25 -12 -64 -36t-76.5 -61t-66.5 -88.5t-35 -118.5q-21 -232 247 -320q13 -5 38 -9.5t58.5 -8t73 -4t83.5 2.5q35 3 76.5 9.5t84 19.5t84 34t76.5 53l93 -107q-51 -45 -111 -74.5t-123 -47
t-126 -24.5t-121 -7z" />
    <glyph glyph-name="uFEA3" unicode="&#x62d;" horiz-adv-x="1102" arabic-form="initial" 
d="M-88 71q0 29 21 49.5t50 20.5h125q96 0 184 18t171 47t161.5 66.5l155.5 75.5l13 7q-48 17 -93.5 37.5l-89.5 40.5q-66 32 -126 56.5t-105 24.5q-30 0 -56.5 -13t-48.5 -32.5t-40 -42t-30.5 -42t-19.5 -33l-7 -13.5l-129 58q1 1 6.5 12t15.5 28.5t24.5 39.5t34.5 45
q111 134 250 134q69 0 142 -29t150 -65l85 -39.5t86.5 -34.5t87.5 -24.5t88 -9.5l27 -136q-50 -20 -99.5 -44.5l-102.5 -50.5l-162 -78.5t-175.5 -71.5t-190.5 -52t-207 -20h-119h-6q-29 0 -50 21t-21 50z" />
    <glyph glyph-name="uFEA4" unicode="&#x62d;" horiz-adv-x="1140" arabic-form="medial" 
d="M-78 70q0 29 21 50t50 21h95q96 0 184 18t171 47.5t161.5 67l155.5 75.5l13 6q-48 17 -93.5 38l-89.5 41q-66 31 -126 55.5t-106 24.5q-30 0 -56.5 -13t-48.5 -32.5t-39.5 -42t-30 -42t-19.5 -32.5l-7 -13l-129 58q0 1 5.5 12t15.5 28.5t25 39.5t34 45q56 66 119 100
t131 34q69 0 142 -29t150 -65l85.5 -39.5t87 -35t87 -25t87.5 -9.5l28 -135l-64.5 -29l-65.5 -31q12 -41 44 -64t70 -35t73.5 -15t55.5 -3h4h6q29 0 50 -21t21 -50t-21 -49.5t-50 -20.5h-10q-141 0 -238 52t-133 143q-73 -36 -151.5 -71t-162.5 -62.5t-175 -44.5t-190 -17
h-95q-29 0 -50 20.5t-21 49.5z" />
    <glyph glyph-name="uFEA6" unicode="&#x62e;" horiz-adv-x="1233" arabic-form="final" 
d="M725 987l-116 -116l-117 117l116 116zM737 -555q-76 0 -136.5 9t-93.5 20q-161 53 -250 155q-110 128 -93 311q12 143 109 260q42 49 96 89.5t118 70.5q87 40 181.5 63t183.5 34l-77 37q-75 38 -137 65.5t-104 33.5q-99 14 -179 -71q-16 -17 -27.5 -33.5t-19.5 -30
t-12 -22.5l-4 -8l-131 54q1 3 7.5 16t17.5 31.5t27.5 41.5t38.5 47q63 68 139.5 97t161.5 18q60 -8 129 -38.5t155 -73.5l166 -79t191 -75l-27 -137q-2 0 -46 1t-114 -3q-1 -8 -1.5 -22t1.5 -30.5t8.5 -34t19.5 -33.5q17 -21 41.5 -34t53 -20.5t57.5 -10t55 -2.5
q29 0 50 -21t21 -50t-21 -49.5t-50 -20.5q-223 0 -319 122q-26 34 -41 76t-17 90q-2 15 0 27q-79 -10 -162 -29.5t-157 -53.5q-25 -12 -64 -36t-76.5 -61t-66.5 -88.5t-35 -118.5q-21 -232 247 -320q13 -5 38 -9.5t58.5 -8t73 -4t83.5 2.5q35 3 76.5 9.5t84 19.5t84 34
t76.5 53l93 -107q-51 -45 -111 -74.5t-123 -47t-126 -24.5t-121 -7z" />
    <glyph glyph-name="uFEA7" unicode="&#x62e;" horiz-adv-x="1108" arabic-form="initial" 
d="M393 910l-116 -116l-117 117l116 116zM-88 71q0 29 21 49.5t50 20.5h125q96 0 184 18t171 47t161.5 66.5l155.5 75.5l13 7q-48 17 -93.5 37.5l-89.5 40.5q-66 32 -126 56.5t-105 24.5q-30 0 -56.5 -13t-48.5 -32.5t-40 -42t-30.5 -42t-19.5 -33l-7 -13.5l-129 58
q1 1 6.5 12t15.5 28.5t24.5 39.5t34.5 45q111 134 250 134q69 0 142 -29t150 -65l85 -39.5t86.5 -34.5t87.5 -24.5t88 -9.5l27 -136q-50 -20 -99.5 -44.5l-102.5 -50.5l-162 -78.5t-175.5 -71.5t-190.5 -52t-207 -20h-119h-6q-29 0 -50 21t-21 50z" />
    <glyph glyph-name="uFEA8" unicode="&#x62e;" horiz-adv-x="1140" arabic-form="medial" 
d="M452 911l-116 -116l-117 117l116 116zM-78 70q0 29 21 50t50 21h95q96 0 184 18t171 47.5t161.5 67l155.5 75.5l13 6q-48 17 -93.5 38l-89.5 41q-66 31 -126 55.5t-106 24.5q-30 0 -56.5 -13t-48.5 -32.5t-39.5 -42t-30 -42t-19.5 -32.5l-7 -13l-129 58q0 1 5.5 12
t15.5 28.5t25 39.5t34 45q56 66 119 100t131 34q69 0 142 -29t150 -65l85.5 -39.5t87 -35t87 -25t87.5 -9.5l28 -135l-64.5 -29l-65.5 -31q12 -41 44 -64t70 -35t73.5 -15t55.5 -3h4h6q29 0 50 -21t21 -50t-21 -49.5t-50 -20.5h-10q-141 0 -238 52t-133 143
q-73 -36 -151.5 -71t-162.5 -62.5t-175 -44.5t-190 -17h-95q-29 0 -50 20.5t-21 49.5z" />
    <glyph glyph-name="uFEAA" unicode="&#x62f;" horiz-adv-x="836" arabic-form="final" 
d="M332 0q-84 0 -161.5 23.5t-149.5 60.5l65 125q211 -107 365 -46q36 14 59.5 31t35.5 29l-226 543l130 54l55 -134l68.5 -165l95.5 -229l25 -62t28.5 -47.5t45.5 -30.5t77 -11q29 0 50 -21t21 -50t-21 -49.5t-50 -20.5q-46 0 -82 7.5t-64 20.5t-48.5 30t-35.5 37
q-21 -16 -49 -33t-63 -31q-40 -16 -78.5 -23.5t-92.5 -7.5z" />
    <glyph glyph-name="uFEAC" unicode="&#x630;" horiz-adv-x="837" arabic-form="final" 
d="M548 1054l-116 -116l-117 117l116 116zM332 0q-84 0 -161.5 23.5t-149.5 60.5l65 125q211 -107 365 -46q36 14 59.5 31t35.5 29l-226 543l130 54l55 -134l68.5 -165l95.5 -229l25 -62t28.5 -47.5t45.5 -30.5t77 -11q29 0 50 -21t21 -50t-21 -49.5t-50 -20.5
q-46 0 -82 7.5t-64 20.5t-48.5 30t-35.5 37q-21 -16 -49 -33t-63 -31q-40 -16 -78.5 -23.5t-92.5 -7.5z" />
    <glyph glyph-name="uFEAE" unicode="&#x631;" horiz-adv-x="658" arabic-form="final" 
d="M494 53v-3q0 -93 -40 -178t-106 -158.5t-151 -134t-175 -105.5l-62 126q78 39 151.5 90.5t129.5 112.5t87 130.5t24 144.5v-1q-5 40 -15.5 87t-23 92l-24.5 84.5l-20 66.5l134 41v-1q6 -19 17.5 -49.5t27 -64.5t36.5 -68t46.5 -61.5t56 -45t65.5 -17.5h23h6q29 0 50 -21
t21 -50t-21 -49.5t-50 -20.5h-6h-23q-45 0 -84.5 14.5t-73.5 38.5z" />
    <glyph glyph-name="uFEB0" unicode="&#x632;" horiz-adv-x="655" arabic-form="final" 
d="M428 775l-116 -116l-117 117l116 116zM494 53v-3q0 -93 -40 -178t-106 -158.5t-151 -134t-175 -105.5l-62 126q78 39 151.5 90.5t129.5 112.5t87 130.5t24 144.5v-1q-5 40 -15.5 87t-23 92l-24.5 84.5l-20 66.5l134 41v-1q6 -19 17.5 -49.5t27 -64.5t36.5 -68t46.5 -61.5
t56 -45t65.5 -17.5h23h6q29 0 50 -21t21 -50t-21 -49.5t-50 -20.5h-6h-23q-45 0 -84.5 14.5t-73.5 38.5z" />
    <glyph glyph-name="uFEB2" unicode="&#x633;" horiz-adv-x="2098" arabic-form="final" 
d="M2106 141q29 0 50 -21t21 -50t-21 -49.5t-50 -20.5h-6h-8q-118 0 -199 95q-21 22 -39 54q-10 -23 -21.5 -41t-25.5 -34q-32 -35 -73.5 -54.5t-91.5 -19.5q-20 0 -42.5 6.5t-45 18.5t-43 29.5t-35.5 40.5q-43 -51 -97 -71.5t-114 -23.5q-34 -2 -60 5t-44 15q-21 10 -38 23
q2 -62 -7 -121.5t-31 -113.5t-59 -100.5t-91 -82.5q-130 -88 -336 -97q-7 0 -14 -0.5t-14 -0.5q-189 0 -310 107q-54 48 -89.5 115.5t-46.5 146.5q-7 44 -6.5 87.5t5.5 84t13.5 76.5t17.5 65q22 73 47.5 125t43.5 77l114 -84q-14 -19 -34 -62.5t-36.5 -100.5t-25 -122
t0.5 -126q4 -28 18 -70t47.5 -81.5t91 -67.5t147.5 -28h24q304 14 369 213q19 58 23.5 121t-1 123t-19 114t-31.5 96q-17 38 -21.5 49t-4.5 12l119 77l7 -19l7.5 -21.5t11.5 -28.5q18 -45 34 -92t38 -85t54 -62t81 -24q55 0 84.5 30t43.5 77t17 104t5 111l145 -11
q-1 -11 -1 -22q-1 -9 -1 -19.5t-1 -19.5q-1 -18 -2 -43.5t1 -54t7 -56.5t15.5 -50t28 -36t43.5 -14q20 0 32 8t24 22q24 26 38.5 78t19.5 122q2 32 1.5 59.5t-1.5 47.5q-2 18 -2.5 29t-0.5 12l140 10q1 0 1.5 -11t1.5 -29q4 -29 11.5 -75t23.5 -97q56 -173 158 -173h14z" />
    <glyph glyph-name="uFEB3" unicode="&#x633;" horiz-adv-x="1148" arabic-form="initial" 
d="M-76 70q0 28 19 48.5t47 22.5q42 0 76 16.5t60 44t46 63t34.5 74.5t24 78.5t16.5 74.5l141 -30l-13.5 -44t-16.5 -58t-13.5 -63.5t-5.5 -60.5q0 -19 3.5 -37.5t12 -32.5t23.5 -23t38 -9q36 0 65 20t51.5 52t39.5 73t28.5 83t19 82t12.5 69l137 -25l-4 -23t-9 -56.5
t-9.5 -71t-4.5 -66.5q0 -27 4 -50.5t13 -42t23.5 -30t35.5 -14.5q33 -4 54.5 1t34.5 13.5t19 17.5t9 13h-1q10 16 14 36t4 43q0 40 -11 87.5t-26.5 93t-32 84t-28.5 61.5l125 66q6 -11 24.5 -50t38.5 -94t36 -120t16 -126t-17 -111t-51.5 -85t-86.5 -54t-121 -18
q-55 1 -107 32t-83 77q-43 -51 -97.5 -80t-114.5 -29q-26 0 -54.5 7t-54 20.5t-46.5 33.5t-33 46q-42 -45 -96.5 -71t-130.5 -28h-11q-28 2 -47 21.5t-19 48.5z" />
    <glyph glyph-name="uFEB4" unicode="&#x633;" horiz-adv-x="1313" arabic-form="medial" 
d="M-78 70q0 28 21.5 48.5t49.5 22.5h7q30 0 57 16t50.5 41t43.5 55.5t35 59.5q15 28 27 56.5t21 53t15.5 44t9.5 31.5l3 12t1 5l137 -38l-5 -17t-11.5 -48.5t-11.5 -69.5q-8 -62 -3.5 -109t19.5 -71q10 -18 31 -21q5 -1 8.5 -1.5t7.5 -0.5q26 0 52 18q32 24 63 76.5
t55 127.5q12 35 19.5 66.5l12.5 53.5q3 18 5.5 28.5t2.5 11.5l139 -26q-1 -1 -2.5 -11.5t-5.5 -28.5q-3 -19 -6 -45.5t-4 -56.5q-3 -66 6 -113.5t29 -71.5q8 -10 21.5 -18t39.5 -8q37 0 60 26q24 26 38.5 77.5t19.5 121.5q2 32 1.5 59.5t-1.5 47.5q-2 18 -2.5 29t-0.5 12
l140 11q1 -1 1.5 -11.5t1.5 -28.5q4 -29 11.5 -75.5t23.5 -96.5q56 -173 158 -173h8h6q29 0 49.5 -21t20.5 -50t-20.5 -49.5t-49.5 -20.5h-6h-8q-58 0 -108.5 24t-90.5 70q-21 24 -39 54q-19 -43 -47 -74q-66 -74 -166 -74q-53 0 -96.5 20.5t-74.5 58.5q-10 13 -18.5 27
t-15.5 31q-40 -59 -87 -94q-63 -45 -135 -45q-20 0 -39 3q-84 15 -129 86q-13 23 -24 53q-23 -30 -48 -54q-89 -86 -195 -86h-7q-29 0 -50 20.5t-21 49.5z" />
    <glyph glyph-name="uFEB6" unicode="&#x634;" horiz-adv-x="2096" arabic-form="final" 
d="M1474 772l116 116l117 -117l-116 -116zM1221 773l116 116l117 -117l-116 -116zM1341 969l116 116l117 -117l-116 -116zM2106 141q29 0 50 -21t21 -50t-21 -49.5t-50 -20.5h-6h-8q-118 0 -199 95q-21 22 -39 54q-10 -23 -21.5 -41t-25.5 -34q-32 -35 -73.5 -54.5
t-91.5 -19.5q-20 0 -42.5 6.5t-45 18.5t-43 29.5t-35.5 40.5q-43 -51 -97 -71.5t-114 -23.5q-34 -2 -60 5t-44 15q-21 10 -38 23q2 -62 -7 -121.5t-31 -113.5t-59 -100.5t-91 -82.5q-130 -88 -336 -97q-7 0 -14 -0.5t-14 -0.5q-189 0 -310 107q-54 48 -89.5 115.5
t-46.5 146.5q-7 44 -6.5 87.5t5.5 84t13.5 76.5t17.5 65q22 73 47.5 125t43.5 77l114 -84q-14 -19 -34 -62.5t-36.5 -100.5t-25 -122t0.5 -126q4 -28 18 -70t47.5 -81.5t91 -67.5t147.5 -28h24q304 14 369 213q19 58 23.5 121t-1 123t-19 114t-31.5 96q-17 38 -21.5 49
t-4.5 12l119 77l7 -19l7.5 -21.5t11.5 -28.5q18 -45 34 -92t38 -85t54 -62t81 -24q55 0 84.5 30t43.5 77t17 104t5 111l145 -11q-1 -11 -1 -22q-1 -9 -1 -19.5t-1 -19.5q-1 -18 -2 -43.5t1 -54t7 -56.5t15.5 -50t28 -36t43.5 -14q20 0 32 8t24 22q24 26 38.5 78t19.5 122
q2 32 1.5 59.5t-1.5 47.5q-2 18 -2.5 29t-0.5 12l140 10q1 0 1.5 -11t1.5 -29q4 -29 11.5 -75t23.5 -97q56 -173 158 -173h14z" />
    <glyph glyph-name="uFEB7" unicode="&#x634;" horiz-adv-x="1148" arabic-form="initial" 
d="M681 792l116 116l117 -117l-116 -116zM428 793l116 116l117 -117l-116 -116zM548 989l116 116l117 -117l-116 -116zM-76 70q0 28 19 48.5t47 22.5q42 0 76 16.5t60 44t46 63t34.5 74.5t24 78.5t16.5 74.5l141 -30l-13.5 -44t-16.5 -58t-13.5 -63.5t-5.5 -60.5
q0 -19 3.5 -37.5t12 -32.5t23.5 -23t38 -9q36 0 65 20t51.5 52t39.5 73t28.5 83t19 82t12.5 69l137 -25l-4 -23t-9 -56.5t-9.5 -71t-4.5 -66.5q0 -27 4 -50.5t13 -42t23.5 -30t35.5 -14.5q33 -4 54.5 1t34.5 13.5t19 17.5t9 13h-1q10 16 14 36t4 43q0 40 -11 87.5t-26.5 93
t-32 84t-28.5 61.5l125 66q6 -11 24.5 -50t38.5 -94t36 -120t16 -126t-17 -111t-51.5 -85t-86.5 -54t-121 -18q-55 1 -107 32t-83 77q-43 -51 -97.5 -80t-114.5 -29q-26 0 -54.5 7t-54 20.5t-46.5 33.5t-33 46q-42 -45 -96.5 -71t-130.5 -28h-11q-28 2 -47 21.5t-19 48.5z
" />
    <glyph glyph-name="uFEB8" unicode="&#x634;" horiz-adv-x="1313" arabic-form="medial" 
d="M711 784l116 116l117 -117l-116 -116zM458 785l116 116l117 -117l-116 -116zM578 981l116 116l117 -117l-116 -116zM-78 70q0 28 21.5 48.5t49.5 22.5h7q30 0 57 16t50.5 41t43.5 55.5t35 59.5q15 28 27 56.5t21 53t15.5 44t9.5 31.5l3 12t1 5l137 -38l-5 -17
t-11.5 -48.5t-11.5 -69.5q-8 -62 -3.5 -109t19.5 -71q10 -18 31 -21q5 -1 8.5 -1.5t7.5 -0.5q26 0 52 18q32 24 63 76.5t55 127.5q12 35 19.5 66.5l12.5 53.5q3 18 5.5 28.5t2.5 11.5l139 -26q-1 -1 -2.5 -11.5t-5.5 -28.5q-3 -19 -6 -45.5t-4 -56.5q-3 -66 6 -113.5
t29 -71.5q8 -10 21.5 -18t39.5 -8q37 0 60 26q24 26 38.5 77.5t19.5 121.5q2 32 1.5 59.5t-1.5 47.5q-2 18 -2.5 29t-0.5 12l140 11q1 -1 1.5 -11.5t1.5 -28.5q4 -29 11.5 -75.5t23.5 -96.5q56 -173 158 -173h8h6q29 0 49.5 -21t20.5 -50t-20.5 -49.5t-49.5 -20.5h-6h-8
q-58 0 -108.5 24t-90.5 70q-21 24 -39 54q-19 -43 -47 -74q-66 -74 -166 -74q-53 0 -96.5 20.5t-74.5 58.5q-10 13 -18.5 27t-15.5 31q-40 -59 -87 -94q-63 -45 -135 -45q-20 0 -39 3q-84 15 -129 86q-13 23 -24 53q-23 -30 -48 -54q-89 -86 -195 -86h-7q-29 0 -50 20.5
t-21 49.5z" />
    <glyph glyph-name="uFEBA" unicode="&#x635;" horiz-adv-x="1957" arabic-form="final" 
d="M1201 149q47 -16 111 -25.5t132 -7.5t134 17.5t117 48.5q83 53 89 146q2 32 -12 55t-26 35q-20 21 -43.5 32t-47 15.5t-46.5 4t-41 -3.5q-57 -10 -113.5 -40.5t-104.5 -76.5q-54 -51 -90.5 -106t-58.5 -94zM1959 0q-34 0 -61.5 6t-49 16t-37.5 21.5t-27 22.5l-3 3l-9 -6
q-39 -25 -81.5 -41.5t-85 -26t-82.5 -14t-74 -5.5q-82 -3 -161.5 8.5t-142.5 35.5q-74 26 -133 69q2 -26 2.5 -51.5t-1.5 -51.5q-7 -98 -44 -182q-41 -93 -116 -157q-131 -111 -338 -111q-35 0 -72 3q-70 7 -128 23.5t-106 45.5q-91 53 -134 144q-43 85 -41 200q1 88 27 190
q11 43 24.5 82t27 70t24.5 53t17 32l119 -77q-5 -8 -18 -35.5t-28 -68t-28.5 -89.5t-20 -100.5t-2 -102t25.5 -92.5q29 -60 91 -92.5t162 -41.5q100 -8 176 10t131 64q30 26 50.5 57t33 63t18.5 63.5t8 58.5q5 60 -5 125.5t-25 124t-31 103t-23 62.5q-2 4 -3 7t-2 5l130 54
q28 -64 57 -114.5t55 -89.5q9 -14 22 -28.5t30 -27.5q13 24 30 52t39 59t48.5 62.5t58.5 61.5q63 61 138.5 100.5t151.5 53.5q91 16 169 -6.5t135 -82.5q42 -43 62 -93.5t16 -104.5q-6 -80 -47 -149q8 -10 25 -19t50 -10h6q29 0 50 -21t21 -50t-21 -49.5t-50 -20.5z" />
    <glyph glyph-name="uFEBB" unicode="&#x635;" horiz-adv-x="1342" arabic-form="initial" 
d="M555 134q57 -6 130.5 -7t148 7.5t142 29t113.5 58.5q58 48 64 122q1 31 -13 55t-26 36q-20 21 -43 32.5t-46.5 16t-46.5 3.5t-42 -4q-57 -11 -113 -41t-104 -76q-33 -31 -59.5 -64.5t-46.5 -64.5t-34.5 -58zM-71 70q0 29 21 50t50 21q43 0 73.5 6.5t51 16.5t33 21.5
t20.5 22.5q25 33 37.5 80t23.5 101q6 31 12.5 59.5t15.5 56.5l135 -41q-5 -14 -8.5 -28.5t-7.5 -29.5h1q-3 -15 -6 -42t-1.5 -58.5t10.5 -64.5t30 -59q9 21 26 53t42 70.5t58 80.5t75 82q63 60 139 100t152 53q91 17 169 -5.5t135 -82.5q42 -43 62 -93.5t16 -104.5
q-9 -137 -115 -222q-48 -39 -108 -64t-124 -39t-128.5 -19t-121.5 -5q-66 0 -115 4t-70 7q-59 6 -107 27q-30 14 -57 35.5t-59 62.5q-45 -63 -115 -92t-168 -30h-6q-29 0 -50 20.5t-21 49.5z" />
    <glyph glyph-name="uFEBC" unicode="&#x635;" horiz-adv-x="1340" arabic-form="medial" 
d="M-75 70q0 29 20.5 50t49.5 21h6q84 1 115 17q32 16 58 50q25 32 40 79.5t29 110.5l12 54.5t14 53.5l135 -42q-5 -13 -8.5 -27.5l-7.5 -30.5h1q-3 -15 -5.5 -41.5t-1 -57.5t9.5 -62t27 -54l4 -8q9 21 26.5 53t42.5 70.5t58 80.5t74 82q63 61 138 100t153 53
q91 16 169 -6.5t135 -82.5q42 -42 61.5 -92.5t16.5 -104.5q-9 -118 -86 -195h141q29 0 50 -21t21 -50t-21 -49.5t-50 -20.5h-156q-79 0 -126 4.5t-76 17.5q-75 -20 -151 -27.5t-143 -7.5q-64 0 -112 4.5t-72 6.5q-62 6 -108 27q-59 26 -101 79q-11 9 -17 22
q-46 -60 -115 -92q-73 -34 -180 -34q-29 0 -49.5 20.5t-20.5 49.5zM557 135q57 -6 130.5 -7t148 8t142 29.5t114.5 58.5q60 49 64 121q2 32 -12 55.5t-26 34.5q-21 21 -44 32.5t-46.5 16t-46 3.5t-41.5 -4q-57 -9 -113.5 -39t-105.5 -77q-33 -31 -59 -64t-46.5 -64.5
t-35 -58.5z" />
    <glyph glyph-name="uFEBE" unicode="&#x636;" horiz-adv-x="1948" arabic-form="final" 
d="M1694 905l-116 -116l-117 117l116 116zM1201 149q47 -16 111 -25.5t132 -7.5t134 17.5t117 48.5q83 53 89 146q2 32 -12 55t-26 35q-20 21 -43.5 32t-47 15.5t-46.5 4t-41 -3.5q-57 -10 -113.5 -40.5t-104.5 -76.5q-54 -51 -90.5 -106t-58.5 -94zM1959 0q-34 0 -61.5 6
t-49 16t-37.5 21.5t-27 22.5l-3 3l-9 -6q-39 -25 -81.5 -41.5t-85 -26t-82.5 -14t-74 -5.5q-82 -3 -161.5 8.5t-142.5 35.5q-74 26 -133 69q2 -26 2.5 -51.5t-1.5 -51.5q-7 -98 -44 -182q-41 -93 -116 -157q-131 -111 -338 -111q-35 0 -72 3q-70 7 -128 23.5t-106 45.5
q-91 53 -134 144q-43 85 -41 200q1 88 27 190q11 43 24.5 82t27 70t24.5 53t17 32l119 -77q-5 -8 -18 -35.5t-28 -68t-28.5 -89.5t-20 -100.5t-2 -102t25.5 -92.5q29 -60 91 -92.5t162 -41.5q100 -8 176 10t131 64q30 26 50.5 57t33 63t18.5 63.5t8 58.5q5 60 -5 125.5
t-25 124t-31 103t-23 62.5q-2 4 -3 7t-2 5l130 54q28 -64 57 -114.5t55 -89.5q9 -14 22 -28.5t30 -27.5q13 24 30 52t39 59t48.5 62.5t58.5 61.5q63 61 138.5 100.5t151.5 53.5q91 16 169 -6.5t135 -82.5q42 -43 62 -93.5t16 -104.5q-6 -80 -47 -149q8 -10 25 -19t50 -10h6
q29 0 50 -21t21 -50t-21 -49.5t-50 -20.5z" />
    <glyph glyph-name="uFEBF" unicode="&#x636;" horiz-adv-x="1358" arabic-form="initial" 
d="M1072 960l-116 -116l-117 117l116 116zM555 134q57 -6 130.5 -7t148 7.5t142 29t113.5 58.5q58 48 64 122q1 31 -13 55t-26 36q-20 21 -43 32.5t-46.5 16t-46.5 3.5t-42 -4q-57 -11 -113 -41t-104 -76q-33 -31 -59.5 -64.5t-46.5 -64.5t-34.5 -58zM-71 70q0 29 21 50
t50 21q43 0 73.5 6.5t51 16.5t33 21.5t20.5 22.5q25 33 37.5 80t23.5 101q6 31 12.5 59.5t15.5 56.5l135 -41q-5 -14 -8.5 -28.5t-7.5 -29.5h1q-3 -15 -6 -42t-1.5 -58.5t10.5 -64.5t30 -59q9 21 26 53t42 70.5t58 80.5t75 82q63 60 139 100t152 53q91 17 169 -5.5
t135 -82.5q42 -43 62 -93.5t16 -104.5q-9 -137 -115 -222q-48 -39 -108 -64t-124 -39t-128.5 -19t-121.5 -5q-66 0 -115 4t-70 7q-59 6 -107 27q-30 14 -57 35.5t-59 62.5q-45 -63 -115 -92t-168 -30h-6q-29 0 -50 20.5t-21 49.5z" />
    <glyph glyph-name="uFEC0" unicode="&#x636;" horiz-adv-x="1337" arabic-form="medial" 
d="M1081 918l-116 -116l-117 117l116 116zM-75 70q0 29 20.5 50t49.5 21h6q84 1 115 17q32 16 58 50q25 32 40 79.5t29 110.5l12 54.5t14 53.5l135 -42q-5 -13 -8.5 -27.5l-7.5 -30.5h1q-3 -15 -5.5 -41.5t-1 -57.5t9.5 -62t27 -54l4 -8q9 21 26.5 53t42.5 70.5t58 80.5
t74 82q63 61 138 100t153 53q91 16 169 -6.5t135 -82.5q42 -42 61.5 -92.5t16.5 -104.5q-9 -118 -86 -195h141q29 0 50 -21t21 -50t-21 -49.5t-50 -20.5h-156q-79 0 -126 4.5t-76 17.5q-75 -20 -151 -27.5t-143 -7.5q-64 0 -112 4.5t-72 6.5q-62 6 -108 27q-59 26 -101 79
q-11 9 -17 22q-46 -60 -115 -92q-73 -34 -180 -34q-29 0 -49.5 20.5t-20.5 49.5zM557 135q57 -6 130.5 -7t148 8t142 29.5t114.5 58.5q60 49 64 121q2 32 -12 55.5t-26 34.5q-21 21 -44 32.5t-46.5 16t-46 3.5t-41.5 -4q-57 -9 -113.5 -39t-105.5 -77q-33 -31 -59 -64
t-46.5 -64.5t-35 -58.5z" />
    <glyph glyph-name="uFEC2" unicode="&#x637;" horiz-adv-x="1161" arabic-form="final" 
d="M538 141q43 2 88 8.5t90.5 22t91 41t89.5 64.5q26 28 45 70t17 82q-5 30 -23 49.5t-42.5 30.5t-52.5 14t-53 -1q-72 -11 -158.5 -71.5t-182.5 -166.5l-64 -75l-44 -61zM1208 0h-657q-15 -1 -29.5 -1h-28.5q-17 0 -36 0.5t-54 2.5h-4q-112 5 -223 29.5t-230 70.5l52 132
q48 -19 93.5 -33.5t90.5 -25.5l37.5 52.5l51.5 67.5l5 7q9 61 13.5 109.5t5 96.5t-2.5 101t-8 124q-6 77 -12.5 143t-12 114.5t-9.5 76l-4 27.5l140 26l2 -18.5l5.5 -48.5l8 -68.5t8.5 -78.5l8 -79t6 -69q3 -40 5 -64t3 -40.5t1.5 -29.5t1 -31t1 -45.5t1.5 -72.5
q172 163 329 187q141 22 257 -71q72 -58 76 -154q3 -39 -5 -77t-23.5 -71.5t-35 -62t-38.5 -48.5l-1 -2l-1 -1l-20 -17.5l-20 -16.5h247h6q29 0 49.5 -21t20.5 -50t-20.5 -49.5t-49.5 -20.5z" />
    <glyph glyph-name="uFEC3" unicode="&#x637;" horiz-adv-x="1030" arabic-form="initial" 
d="M238 141q17 -1 34.5 -0.5t34.5 0.5h114.5t124 11t128 38.5t126.5 83.5q25 28 44 70t17 82q-1 23 -9 35t-16 18q-63 53 -146 41q-73 -11 -159 -72t-182 -167l-33 -38.5t-30 -36.5zM-104 70q0 29 21 50t50 21h6h101q10 15 33.5 56.5t67.5 95.5l5 7q15 92 16 270.5
t-15.5 344t-16.5 166.5l144 26q40 -297 32 -634q173 161 329 187q145 23 258 -71q70 -58 76 -153q3 -39 -5.5 -77t-23.5 -72t-34 -62.5t-38 -48.5l-4 -4q-63 -57 -129.5 -91t-131.5 -52t-126 -23.5t-115 -5.5h-423h-6q-29 0 -50 20.5t-21 49.5z" />
    <glyph glyph-name="uFEC4" unicode="&#x637;" horiz-adv-x="1127" arabic-form="medial" 
d="M288 141q81 0 154 -1t141.5 9.5t134 38t131.5 85.5q13 13 25 31t20.5 38.5t13 42t3.5 41.5q-2 23 -9.5 34.5t-15.5 17.5q-66 54 -146 42q-72 -13 -158 -73t-183 -166l-33 -39t-30 -37zM-90 70q0 29 20.5 50t49.5 21h6h128l37.5 55.5t72.5 94.5l5 7q9 11 12.5 62t3 123.5
t-4 158.5t-9 168.5t-12.5 153t-13 111.5l139 26q23 -146 34.5 -300t9.5 -330q175 163 329 187q143 23 258 -70q70 -60 76 -154q3 -40 -5.5 -78t-23.5 -71.5t-34.5 -62t-38.5 -48.5l-1 -2l-2 -2q-10 -9 -20 -14.5t-20 -14.5h239q29 0 49.5 -20.5t20.5 -49.5t-20.5 -49.5
t-49.5 -20.5h-1v-1q-54 0 -94.5 -0.5t-81.5 -0.5q-63 0 -135 5t-138 26q-69 -20 -132.5 -25t-120.5 -5h-463q-29 0 -49.5 20.5t-20.5 49.5z" />
    <glyph glyph-name="uFEC6" unicode="&#x638;" horiz-adv-x="1164" arabic-form="final" 
d="M910 915l-116 -116l-117 117l116 116zM538 141q43 2 88 8.5t90.5 22t91 41t89.5 64.5q26 28 45 70t17 82q-5 30 -23 49.5t-42.5 30.5t-52.5 14t-53 -1q-72 -11 -158.5 -71.5t-182.5 -166.5l-64 -75l-44 -61zM1208 0h-657q-15 -1 -29.5 -1h-28.5q-17 0 -36 0.5t-54 2.5h-4
q-112 5 -223 29.5t-230 70.5l52 132q48 -19 93.5 -33.5t90.5 -25.5l37.5 52.5l51.5 67.5l5 7q9 61 13.5 109.5t5 96.5t-2.5 101t-8 124q-6 77 -12.5 143t-12 114.5t-9.5 76l-4 27.5l140 26l2 -18.5l5.5 -48.5l8 -68.5t8.5 -78.5l8 -79t6 -69q3 -40 5 -64t3 -40.5t1.5 -29.5
t1 -31t1 -45.5t1.5 -72.5q172 163 329 187q141 22 257 -71q72 -58 76 -154q3 -39 -5 -77t-23.5 -71.5t-35 -62t-38.5 -48.5l-1 -2l-1 -1l-20 -17.5l-20 -16.5h247h6q29 0 49.5 -21t20.5 -50t-20.5 -49.5t-49.5 -20.5zM910 915l-116 -116l-117 117l116 116z" />
    <glyph glyph-name="uFEC7" unicode="&#x638;" horiz-adv-x="1037" arabic-form="initial" 
d="M772 897l-116 -116l-117 117l116 116zM238 141q17 -1 34.5 -0.5t34.5 0.5h114.5t124 11t128 38.5t126.5 83.5q25 28 44 70t17 82q-1 23 -9 35t-16 18q-63 53 -146 41q-73 -11 -159 -72t-182 -167l-33 -38.5t-30 -36.5zM-104 70q0 29 21 50t50 21h6h101q10 15 33.5 56.5
t67.5 95.5l5 7q15 92 16 270.5t-15.5 344t-16.5 166.5l144 26q40 -297 32 -634q173 161 329 187q145 23 258 -71q70 -58 76 -153q3 -39 -5.5 -77t-23.5 -72t-34 -62.5t-38 -48.5l-4 -4q-63 -57 -129.5 -91t-131.5 -52t-126 -23.5t-115 -5.5h-423h-6q-29 0 -50 20.5t-21 49.5
z" />
    <glyph glyph-name="uFEC8" unicode="&#x638;" horiz-adv-x="1139" arabic-form="medial" 
d="M882 918l-116 -116l-117 117l116 116zM288 141q81 0 154 -1t141.5 9.5t134 38t131.5 85.5q13 13 25 31t20.5 38.5t13 42t3.5 41.5q-2 23 -9.5 34.5t-15.5 17.5q-66 54 -146 42q-72 -13 -158 -73t-183 -166l-33 -39t-30 -37zM-90 70q0 29 20.5 50t49.5 21h6h128l37.5 55.5
t72.5 94.5l5 7q9 11 12.5 62t3 123.5t-4 158.5t-9 168.5t-12.5 153t-13 111.5l139 26q23 -146 34.5 -300t9.5 -330q175 163 329 187q143 23 258 -70q70 -60 76 -154q3 -40 -5.5 -78t-23.5 -71.5t-34.5 -62t-38.5 -48.5l-1 -2l-2 -2q-10 -9 -20 -14.5t-20 -14.5h239
q29 0 49.5 -20.5t20.5 -49.5t-20.5 -49.5t-49.5 -20.5h-1v-1q-54 0 -94.5 -0.5t-81.5 -0.5q-63 0 -135 5t-138 26q-69 -20 -132.5 -25t-120.5 -5h-463q-29 0 -49.5 20.5t-20.5 49.5z" />
    <glyph glyph-name="uFECA" unicode="&#x639;" horiz-adv-x="985" arabic-form="final" 
d="M494 -388q43 -5 96.5 -6.5t114.5 7.5t128.5 31t138.5 65l73 -122q-73 -43 -149 -71t-156 -41q-34 -5 -68.5 -7.5t-70.5 -2.5q-30 0 -60.5 1.5t-62.5 5.5q-60 7 -126.5 35t-120.5 71q-66 51 -103 115q-45 75 -45 161q0 102 45 185q20 37 47.5 69t65.5 62q39 32 83.5 57
t90.5 46q-54 48 -96.5 93l-72.5 78l-19 21l-8 87q23 35 55.5 60.5t68 43.5t69.5 29t60 17q79 18 157.5 17.5t139.5 -20.5q75 -23 114 -69.5t37 -109.5q-3 -123 -111 -209q-53 -41 -119 -72q69 -43 142.5 -70.5t151.5 -27.5q29 -1 49 -21.5t20 -49.5t-20 -49t-49 -21
q-59 0 -115.5 12.5t-112 35.5t-110 55t-109.5 70q-57 -25 -111 -52t-97 -62q-105 -83 -105 -205q0 -29 8.5 -53.5t22 -45t30.5 -37t33 -29.5q45 -35 93.5 -53.5t82.5 -23.5zM376 512l80.5 -83t102.5 -94q106 44 162 86.5t58 102.5q0 15 -17 25t-35 16q-40 12 -88 13.5
t-96 -6t-92 -23.5t-75 -37z" />
    <glyph glyph-name="uFECB" unicode="&#x639;" horiz-adv-x="706" arabic-form="initial" 
d="M544 430q-25 27 -57 48q-27 18 -65.5 33.5t-86.5 15.5q-42 0 -73.5 -14t-52.5 -37.5t-31.5 -54t-10.5 -63.5q0 -45 20 -81.5t53 -62t76.5 -38.5t91.5 -10q42 2 81 7.5t69 10.5q35 6 66 13l17 -136q-40 -11 -91 -21.5t-119 -19.5t-156 -14.5t-201 -5.5h-96q-29 0 -50 21
t-21 50t21 49.5t50 20.5h143q-52 48 -73 101t-21 116t23 119t64.5 98t98 67t122.5 25t121 -20.5t94 -44.5q46 -28 82 -64z" />
    <glyph glyph-name="uFECC" unicode="&#x639;" horiz-adv-x="754" arabic-form="medial" 
d="M753 142q29 0 50 -21t21 -50t-21 -50t-50 -21q-113 0 -200.5 21.5t-165.5 67.5q-91 -43 -186 -66.5t-201 -22.5q-29 0 -50 21t-21 50t21 50t50 21q73 0 137 12t117 33q-56 51 -114 121.5l-118 139.5l7 99q37 33 76.5 55t78 36t75 21.5t66.5 10.5q72 8 141.5 -1.5
t126.5 -33.5q38 -17 61.5 -37t36.5 -39.5t17.5 -37.5t4.5 -30q4 -33 -12 -75.5t-44 -85.5t-64 -83t-73 -68q48 -19 104.5 -28t128.5 -9zM388 257q30 16 62.5 46.5t59.5 64.5t44.5 65.5t17.5 49.5q-37 24 -86 37t-101.5 13t-106 -12.5t-99.5 -39.5l109 -127t100 -97z" />
    <glyph glyph-name="uFECE" unicode="&#x63a;" horiz-adv-x="984" arabic-form="final" 
d="M712 997l-116 -116l-117 117l116 116zM494 -388q43 -5 96.5 -6.5t114.5 7.5t128.5 31t138.5 65l73 -122q-73 -43 -149 -71t-156 -41q-34 -5 -68.5 -7.5t-70.5 -2.5q-30 0 -60.5 1.5t-62.5 5.5q-60 7 -126.5 35t-120.5 71q-66 51 -103 115q-45 75 -45 161q0 102 45 185
q20 37 47.5 69t65.5 62q39 32 83.5 57t90.5 46q-54 48 -96.5 93l-72.5 78l-19 21l-8 87q23 35 55.5 60.5t68 43.5t69.5 29t60 17q79 18 157.5 17.5t139.5 -20.5q75 -23 114 -69.5t37 -109.5q-3 -123 -111 -209q-53 -41 -119 -72q69 -43 142.5 -70.5t151.5 -27.5
q29 -1 49 -21.5t20 -49.5t-20 -49t-49 -21q-59 0 -115.5 12.5t-112 35.5t-110 55t-109.5 70q-57 -25 -111 -52t-97 -62q-105 -83 -105 -205q0 -29 8.5 -53.5t22 -45t30.5 -37t33 -29.5q45 -35 93.5 -53.5t82.5 -23.5zM376 512l80.5 -83t102.5 -94q106 44 162 86.5t58 102.5
q0 15 -17 25t-35 16q-40 12 -88 13.5t-96 -6t-92 -23.5t-75 -37z" />
    <glyph glyph-name="uFECF" unicode="&#x63a;" horiz-adv-x="706" arabic-form="initial" 
d="M357 906l-104 105l104 104l104 -105zM566 430q-25 27 -57 48q-27 18 -65.5 33.5t-86.5 15.5q-42 0 -73.5 -14t-52.5 -37.5t-31.5 -54t-10.5 -63.5q0 -45 20 -81.5t53 -62t76.5 -38.5t91.5 -10q42 2 81 7.5t69 10.5q35 6 66 13l17 -136q-40 -11 -91 -21.5t-119 -19.5
t-156 -14.5t-201 -5.5h-96q-29 0 -50 21t-21 50t21 49.5t50 20.5h143q-52 48 -73 101t-21 116t23 119t64.5 98t98 67t122.5 25t121 -20.5t94 -44.5q46 -28 82 -64z" />
    <glyph glyph-name="uFED0" unicode="&#x63a;" horiz-adv-x="752" arabic-form="medial" 
d="M753 142q29 0 50 -21t21 -50t-21 -50t-50 -21q-113 0 -200.5 21.5t-165.5 67.5q-91 -43 -186 -66.5t-201 -22.5q-29 0 -50 21t-21 50t21 50t50 21q73 0 137 12t117 33q-56 51 -114 121.5l-118 139.5l7 99q37 33 76.5 55t78 36t75 21.5t66.5 10.5q72 8 141.5 -1.5
t126.5 -33.5q38 -17 61.5 -37t36.5 -39.5t17.5 -37.5t4.5 -30q4 -33 -12 -75.5t-44 -85.5t-64 -83t-73 -68q48 -19 104.5 -28t128.5 -9zM388 257q30 16 62.5 46.5t59.5 64.5t44.5 65.5t17.5 49.5q-37 24 -86 37t-101.5 13t-106 -12.5t-99.5 -39.5l109 -127t100 -97zM357 906
l-104 105l104 104l104 -105zM357 906l-104 105l104 104l104 -105z" />
    <glyph glyph-name="uFED2" unicode="&#x641;" horiz-adv-x="1509" arabic-form="final" 
d="M1234 958l-104 -104l-105 105l104 104zM1344 173q-5 -4 -7.5 -8t-6.5 -8q44 -8 88 -12t91 -4q29 0 50 -21t21 -50t-21 -49.5t-50 -20.5q-92 0 -177 13t-159 38l-21 -7.5t-21 -6.5q-35 -13 -84 -23t-107 -16.5t-122 -10t-128 -3.5q-218 1 -362.5 55t-208.5 163
q-29 48 -39 97.5t-8.5 96.5t11 89t21 74t21 51.5t10.5 22.5l124 -68q0 -1 -6.5 -14t-14.5 -35.5t-15.5 -52t-9.5 -61.5t4 -65.5t24 -63.5q21 -36 55 -63t83.5 -45.5t116.5 -28.5t154 -12q66 -2 117 -1t91.5 4.5t72.5 8t60 10.5q-98 81 -98 189q0 66 20.5 126t58.5 108
t87.5 74.5t103.5 26.5q48 0 91 -18t75 -53q13 -14 26.5 -33t24.5 -45.5t18 -60.5t7 -77q0 -125 -61 -210zM1167 204q31 18 50 38.5t29 43.5t13.5 47.5t3.5 49.5q0 51 -12.5 80t-29 43.5t-33 18t-25.5 3.5q-20 0 -42.5 -13.5t-41.5 -38.5t-31.5 -61t-12.5 -80q0 -33 31.5 -66
t91.5 -60z" />
    <glyph glyph-name="uFED3" unicode="&#x641;" horiz-adv-x="610" arabic-form="initial" 
d="M263 958l-105 105l104 104l104 -105zM256 662q-10 0 -23.5 -10t-26.5 -29t-24.5 -47t-17.5 -64q-9 -54 12 -80q30 -36 108 -41q75 -3 124 0q-5 69 -27 131t-58 102q-11 13 -29 25.5t-38 12.5zM-70 70q0 29 21 50t50 21q79 0 138 7.5t102 19t71 25.5t46 28q9 8 15 14.5
t11 12.5h-72q-77 0 -143.5 24.5t-103.5 72.5q-10 13 -20 31t-16.5 42t-8 53.5t4.5 65.5q19 109 76 181q32 42 72 63.5t83 21.5q95 0 172 -83q33 -36 58 -84t41 -103t21.5 -113.5t-0.5 -115.5h-1q-5 -31 -12 -58q-2 -9 -6.5 -23.5t-14.5 -32.5t-26.5 -38.5t-42.5 -40.5
q-138 -110 -433 -111h-12q-29 0 -49.5 20.5t-20.5 49.5z" />
    <glyph glyph-name="uFED4" unicode="&#x641;" horiz-adv-x="686" arabic-form="medial" 
d="M474 956l-116 -116l-117 117l116 116zM346 529q-20 0 -42 -13.5t-41.5 -39t-32 -61.5t-12.5 -80q0 -33 31.5 -65.5t91.5 -60.5l11 -5q36 21 55.5 44.5t28.5 47.5t10.5 46.5t1.5 40.5q0 51 -12.5 80t-29.5 43.5t-34 18.5t-26 4zM-70 70q0 30 20.5 50.5t49.5 20.5
q51 0 93 2.5t78 7.5q-93 81 -93 184q0 66 20.5 126.5t58.5 108.5q39 48 88.5 74t101.5 26q48 0 91 -18t76 -53q13 -14 26.5 -33.5t24.5 -45.5t18 -60t7 -77q0 -138 -74 -226q42 -8 86.5 -12t92.5 -4q30 0 50.5 -20.5t20.5 -50.5q0 -29 -20.5 -49.5t-50.5 -20.5h-6
q-45 0 -87.5 3t-84.5 10q-43 7 -82.5 16t-77.5 22q-134 -51 -351 -51h-6q-29 0 -49.5 20.5t-20.5 49.5z" />
    <glyph glyph-name="uFED6" unicode="&#x642;" horiz-adv-x="1106" arabic-form="final" 
d="M735 861l-116 -116l-117 117l116 116zM978 860l-116 -116l-117 117l116 116zM737 463q-26 0 -56 -38q-20 -25 -33.5 -59.5t-21.5 -76.5q-11 -65 15 -97q11 -14 27 -23t34 -14.5t35.5 -8t30.5 -3.5q90 -4 148 -3q-4 91 -32.5 163t-65.5 115q-14 15 -35 30t-46 15zM887 -2
q-27 0 -59.5 1t-68.5 3q-156 11 -229 102q-65 85 -43 209q10 60 31 110.5t52 88.5q72 92 167 92q103 0 186 -92q61 -67 95.5 -164t38.5 -206q14 -1 23 -1h31q29 0 50 -21t21 -50t-21 -49.5t-50 -20.5h-6h-57q-6 -36 -20.5 -87.5t-42.5 -106.5q-59 -113 -153 -179
q-119 -82 -284 -82q-140 0 -249 55q-110 55 -172 158q-36 60 -52 132.5t-10 153.5q12 163 110 349l125 -67q-79 -148 -92.5 -276t40.5 -219q42 -70 118.5 -107t181.5 -37q214 0 309 180q19 35 30 69.5t17 61.5h-17z" />
    <glyph glyph-name="uFED7" unicode="&#x642;" horiz-adv-x="615" arabic-form="initial" 
d="M278 1029l-116 -116l-117 117l116 116zM521 1028l-116 -116l-117 117l116 116zM256 662q-10 0 -23.5 -10t-26.5 -29t-24.5 -47t-17.5 -64q-9 -54 12 -80q30 -36 108 -41q75 -3 124 0q-5 69 -27 131t-58 102q-11 13 -29 25.5t-38 12.5zM-70 70q0 29 21 50t50 21
q79 0 138 7.5t102 19t71 25.5t46 28q9 8 15 14.5t11 12.5h-72q-77 0 -143.5 24.5t-103.5 72.5q-10 13 -20 31t-16.5 42t-8 53.5t4.5 65.5q19 109 76 181q32 42 72 63.5t83 21.5q95 0 172 -83q33 -36 58 -84t41 -103t21.5 -113.5t-0.5 -115.5h-1q-5 -31 -12 -58
q-2 -9 -6.5 -23.5t-14.5 -32.5t-26.5 -38.5t-42.5 -40.5q-138 -110 -433 -111h-12q-29 0 -49.5 20.5t-20.5 49.5z" />
    <glyph glyph-name="uFED8" unicode="&#x642;" horiz-adv-x="688" arabic-form="medial" 
d="M364 934l-116 -116l-117 117l116 116zM607 933l-116 -116l-117 117l116 116zM346 529q-20 0 -42 -13.5t-41.5 -39t-32 -61.5t-12.5 -80q0 -33 31.5 -65.5t91.5 -60.5l11 -5q36 21 55.5 44.5t28.5 47.5t10.5 46.5t1.5 40.5q0 51 -12.5 80t-29.5 43.5t-34 18.5t-26 4z
M-70 70q0 30 20.5 50.5t49.5 20.5q51 0 93 2.5t78 7.5q-93 81 -93 184q0 66 20.5 126.5t58.5 108.5q39 48 88.5 74t101.5 26q48 0 91 -18t76 -53q13 -14 26.5 -33.5t24.5 -45.5t18 -60t7 -77q0 -138 -74 -226q42 -8 86.5 -12t92.5 -4q30 0 50.5 -20.5t20.5 -50.5
q0 -29 -20.5 -49.5t-50.5 -20.5h-6q-45 0 -87.5 3t-84.5 10q-43 7 -82.5 16t-77.5 22q-134 -51 -351 -51h-6q-29 0 -49.5 20.5t-20.5 49.5z" />
    <glyph glyph-name="uFEDA" unicode="&#x643;" horiz-adv-x="1675" arabic-form="final" 
d="M1677 141q29 0 49.5 -21t20.5 -50t-20.5 -49.5t-49.5 -20.5q-118 0 -216 45t-161 133q-23 -39 -61 -65.5t-78 -45.5q-149 -67 -392 -67h-66q-76 0 -143 6q-54 4 -104.5 11.5t-99.5 21.5q-9 2 -25 7.5l-33.5 12l-32 12t-20.5 8.5q-41 21 -76 49q-46 35 -77 95q-1 1 -1 3
q-24 52 -29 119.5t28 144.5q22 51 41.5 83.5l22.5 37.5l113 -84q-11 -18 -20 -35q-8 -14 -15.5 -29.5t-10.5 -25.5q-33 -92 -3 -150q28 -55 111 -90t216 -49q48 -4 90.5 -5t74.5 -1q145 -6 237 10.5t139 36.5q49 20 68 36.5t20 18.5q34 45 34.5 89t-16.5 87v1
q-43 107 -186 238q-53 48 -99 82.5l-69 50.5l-15 11l11 124l682 286l54 -130l-566 -238l46.5 -37.5t50.5 -44.5q84 -75 138 -146.5t82 -140.5q7 -14 12.5 -29l11.5 -32q12 -34 26 -69.5t35 -68t50.5 -61t73.5 -49.5q28 -13 63 -19t78 -7h6z" />
    <glyph glyph-name="uFEDB" unicode="&#x643;" horiz-adv-x="718" arabic-form="initial" 
d="M-71 70q0 29 21 50t50 21h10h52q35 0 71 -0.5t72 1t67.5 9t57.5 24t42 45.5q43 74 9 169q-30 88 -121 188q-40 44 -82 81t-76 64t-56 42l-22 15l11 125l682 285l55 -130l-567 -238l76.5 -66.5t82.5 -82.5q81 -90 120.5 -168t49 -144t-3.5 -120t-35 -94
q-64 -113 -215 -141q-29 -5 -62 -5h-212h-6q-29 0 -50 20.5t-21 49.5z" />
    <glyph glyph-name="uFEDC" unicode="&#x643;" horiz-adv-x="817" arabic-form="medial" 
d="M-71 70q0 29 21 50t50 21h6h235q46 0 80 28q24 20 39.5 48.5t21.5 59.5q7 36 0 71.5t-22 69.5q-30 68 -79.5 125t-103.5 108q-38 35 -77.5 66.5t-81.5 60.5q-1 1 -2.5 1.5t-2.5 2.5h-1v1l11 122l682 287l55 -130l-567 -238q60 -49 114.5 -102t101.5 -114q20 -27 38 -55.5
t33 -59.5q7 -13 12.5 -25.5t10.5 -26.5q3 -9 5.5 -18.5t6.5 -17.5q12 -30 25 -58.5t30 -55.5q18 -31 39.5 -59.5t51.5 -48.5q12 -8 24.5 -14.5t26.5 -11.5q40 -14 87 -16h30q29 0 49.5 -21t20.5 -50t-20.5 -49.5t-49.5 -20.5h-6q-26 0 -53 1t-53 8q-15 4 -30 7.5t-30 8.5
q-52 21 -97 57q-23 16 -42 39l-13 15q-5 5 -8.5 10.5t-8.5 10.5q-25 -47 -61 -80q-22 -20 -47 -33.5t-52 -23.5q-14 -5 -29 -9.5t-30 -6.5q-15 -3 -30.5 -3t-31.5 -1h-207q-29 0 -50 20.5t-21 49.5z" />
    <glyph glyph-name="uFEDE" unicode="&#x644;" horiz-adv-x="1040" arabic-form="final" 
d="M232 243q-21 -28 -38 -71q-14 -37 -25.5 -93.5t-11.5 -136.5q0 -71 29 -122t70.5 -83.5t87 -48t77.5 -15.5q33 0 72 4.5t77.5 16.5t74.5 32.5t63.5 53t44 77.5t16.5 105q0 56 -1.5 134.5t-4.5 168l-6.5 185t-6.5 187.5l-19 450l140 6q6 -128 11 -264q2 -58 4.5 -123
t5.5 -133.5t5.5 -138t4.5 -135.5q3 -45 20 -79q7 -15 18 -29t26 -25.5t35.5 -18t46.5 -6.5q29 0 50 -21t21 -50t-21 -49.5t-50 -20.5q-50 0 -81.5 9t-58.5 24q1 -20 1 -37.5v-33.5q0 -90 -22.5 -157t-60.5 -114.5t-87.5 -78t-103.5 -48t-109.5 -24.5t-104.5 -7
q-73 0 -145 23.5t-129.5 73.5t-93.5 127t-36 185q0 99 17 172t37 122q24 57 55 97z" />
    <glyph glyph-name="uFEDF" unicode="&#x644;" horiz-adv-x="383" arabic-form="initial" 
d="M-82 70q0 29 20.5 50t49.5 21h6h34q82 0 115 33q37 39 36 147v19q0 32 -3.5 117.5l-8.5 213.5q-3 79 -7 147t-7.5 119.5t-6.5 83.5t-4 38l140 15q1 -11 4.5 -45t7.5 -86.5t8 -120t7 -146.5q5 -129 8 -215.5t3 -119.5q0 -13 1 -18q0 -27 -2 -59t-9.5 -65t-23 -65
t-42.5 -59q-75 -75 -216 -75h-34h-6q-29 0 -49.5 20.5t-20.5 49.5z" />
    <glyph glyph-name="uFEE0" unicode="&#x644;" horiz-adv-x="472" arabic-form="medial" 
d="M-70 70q0 29 20.5 50t49.5 21h6h62q42 2 61 5.5t30 12.5q21 16 28.5 50.5t9.5 71.5q0 2 1 49t2 121t1.5 164.5t-0.5 179.5t-3.5 166t-7.5 124l139 18q5 -37 8 -90t4.5 -116t2 -131t0 -134.5l-1 -127.5t-1.5 -109t-1.5 -79t-0.5 -38q0 -16 4 -40t18 -47q14 -22 38.5 -36
t73.5 -14q29 0 50 -21t21 -50t-21 -49.5t-50 -20.5q-72 -1 -121 21t-78 53q-15 -17 -27 -26q-40 -32 -83 -40t-80 -8h-78h-6q-29 0 -49.5 20.5t-20.5 49.5z" />
    <glyph glyph-name="uFEE2" unicode="&#x645;" horiz-adv-x="1047" arabic-form="final" 
d="M863 340l2 -15q3 -14 10 -36.5t20 -46.5t33.5 -47t50.5 -38q29 -15 66 -16h6q30 0 50.5 -21t20.5 -50t-20.5 -49.5t-50.5 -20.5h-8q-140 7 -222 112q-43 -78 -113 -90q-39 -6 -99 14t-162 62q-42 16 -80.5 32.5t-74.5 27.5q-12 4 -21 4q0 -2 -0.5 -4.5t-0.5 -4.5v-8
l26 -661l-142 -6l-27 661q0 4 1 20t6 36t17 42t35 39q20 15 53 24.5t84 -4.5l20.5 50.5t26.5 56.5q22 41 44 73t46 56q73 70 157 69q58 -2 105 -26t80 -69q26 -33 41 -75.5t20 -90.5zM456 246l22 -8l23 -9l64 -26.5l58 -22.5q28 -10 42 -13t19 -5q5 5 14.5 19t16.5 44
q4 17 6.5 35t2.5 38v2q0 30 -8 59q-8 37 -22.5 57t-30 29.5t-29.5 11.5t-21 2q-26 1 -56.5 -30t-59.5 -88q-14 -25 -23 -49.5t-18 -45.5z" />
    <glyph glyph-name="uFEE3" unicode="&#x645;" horiz-adv-x="810" arabic-form="initial" 
d="M-70 70q0 29 20 49.5t49 21.5h1q60 0 101.5 19.5t72 51.5t53.5 74l45 86l37.5 73.5t42.5 64.5q64 78 156 78q108 0 179 -86q57 -69 69 -172q7 -49 2 -96.5t-21 -89.5q-20 -51 -54.5 -84.5t-79.5 -45.5q-81 -21 -181 19q-69 28 -145 83q-5 -5 -7 -6q-107 -110 -270 -110
h-1q-29 0 -49 20.5t-20 49.5zM359 232q66 -48 119.5 -69.5t88.5 -11.5q12 3 22.5 16.5t18 35t10 49.5t-1.5 60q-1 8 -6 30t-17 45.5t-32.5 41.5t-52.5 18q-29 0 -52 -33.5t-58 -103.5z" />
    <glyph glyph-name="uFEE4" unicode="&#x645;" horiz-adv-x="979" arabic-form="medial" 
d="M361 232q58 -43 107.5 -65t84.5 -20l15 3h2l3 2q23 11 37.5 55t6.5 104q-1 8 -6 30t-17 45.5t-32.5 41.5t-52.5 18q-21 0 -39 -18q-16 -17 -32.5 -45.5t-37.5 -73.5l-18.5 -38t-20.5 -39zM-71 70q0 29 20.5 50t49.5 21h1q51 0 89 14t66.5 38.5t50 56.5t40.5 68l27 54
q0 1 2 3q17 38 36 71.5t42 62.5q34 40 75 60q39 19 82 19q108 0 179 -87q44 -56 62 -135q24 -57 48.5 -96.5t48 -65t46 -39.5t41.5 -19q13 -3 24 -4t23 -1q29 0 50 -21t21 -50t-21 -49.5t-50 -20.5q-46 0 -84.5 12.5t-70 31.5t-55.5 42t-40 44l-3 -6q-19 -43 -52 -71
q-11 -11 -23 -18.5t-26 -13.5l-3 -1l-15 -6q-2 0 -3 -0.5t-2 -0.5l-12 -3q-75 -15 -170 23q-35 14 -70.5 34.5t-73.5 48.5l-3 -3l-3 -4q-106 -107 -265 -109h-9q-29 0 -49.5 20.5t-20.5 49.5z" />
    <glyph glyph-name="uFEE6" unicode="&#x646;" horiz-adv-x="1255" arabic-form="final" 
d="M702 653l-116 -116l-117 117l116 116zM1256 -1q-48 0 -90.5 11.5t-80.5 33.5q3 -54 -3 -110t-24 -114q-21 -66 -61.5 -120.5t-100.5 -93.5q-66 -45 -149 -68.5t-186 -28.5h-29q-94 0 -171.5 27t-137.5 79q-55 49 -90.5 116.5t-46.5 145.5q-6 44 -5.5 87.5t5.5 84t13 77
t17 65.5q23 73 48 124t43 77l114 -83q-14 -19 -34 -62.5t-36.5 -100.5t-25 -122.5t0.5 -126.5q3 -19 10 -44.5t20.5 -53t35.5 -54.5t55 -48.5t78.5 -34.5t105.5 -13h11q9 0 13 1q151 8 244 61t124 152q19 62 20.5 123.5t-8 117.5t-26 104.5t-32.5 86.5q-8 14 -14.5 29
t-14.5 31q-6 11 -10 17t-4 7l119 76q2 -3 16.5 -28.5t34.5 -68.5q39 -75 74 -118t66 -65t59 -28t53 -6q29 0 50 -21t21 -50t-21 -50t-50 -21z" />
    <glyph glyph-name="uFEE7" unicode="&#x646;" horiz-adv-x="462" arabic-form="initial" 
d="M391 857l-116 -116l-117 117l116 116zM-73 70q0 29 20.5 50t49.5 21h30q39 0 73.5 1.5t64 10t52 25t36.5 46.5q14 31 8 88t-29 132q-8 23 -18.5 50t-20.5 50l-23 53l127 63q0 -1 6.5 -15l17 -37.5t22.5 -54.5t23 -66q66 -205 16 -320q-51 -115 -180 -151
q-38 -11 -75 -13.5t-69 -2.5h-55h-6q-29 0 -49.5 20.5t-20.5 49.5z" />
    <glyph glyph-name="uFEE8" unicode="&#x646;" horiz-adv-x="500" arabic-form="medial" 
d="M373 778l-116 -116l-117 117l116 116zM-70 70q0 29 20.5 50t49.5 21h12q120 0 174.5 42.5t54.5 128.5q0 41 -8.5 99t-24.5 113l134 38q19 -66 29 -133.5t10 -116.5v-4q0 -26 5 -55.5t18 -54.5t36 -41t60 -16q29 0 50 -21t21 -50t-20.5 -49.5t-49.5 -20.5q-72 0 -119 25
t-77 64q-45 -45 -117 -67t-176 -22h-12q-29 0 -49.5 20.5t-20.5 49.5z" />
    <glyph glyph-name="uFEEA" unicode="&#x647;" horiz-adv-x="714" arabic-form="final" 
d="M393 501q-26 -11 -57 -27.5t-61.5 -39.5t-57.5 -52t-45 -65q-1 -5 -2 -17t8 -23q5 -6 21 -15.5t51 -15.5q35 -5 79.5 -5t101.5 7q-8 42 -17.5 102t-20.5 151zM323 100q-184 0 -256 89q-20 24 -28.5 50.5t-9.5 51t3 45.5t10 35l1 4q29 60 73.5 106t92.5 79t93 54t75 32
q-5 54 -8 79.5t-3 26.5l140 29v1q1 1 11 -105q5 -54 9.5 -93l7.5 -65q11 -92 20 -151t16 -93.5t12 -49.5t7 -19q17 -39 45.5 -52t78.5 -13q29 0 50 -21t21 -50t-21 -49.5t-50 -20.5q-27 0 -64.5 4.5t-74.5 21.5q-57 28 -94 87q-45 -7 -83.5 -10t-73.5 -3z" />
    <glyph glyph-name="uFEEB" unicode="&#x647;" horiz-adv-x="949" arabic-form="initial" 
d="M499 144q18 -2 35 -3.5t33 -1.5q57 0 101 22.5t66 64.5q18 36 14 76t-30 77q-40 60 -142 122q14 -47 14 -107q0 -79 -23 -141q-23 -61 -68 -109zM348 540q-16 0 -40 -11t-47 -37q-7 -8 -15.5 -21t-15.5 -30t-10.5 -38.5t-0.5 -47.5q7 -54 39 -92.5t77 -64.5q14 7 25 14
t21 15q35 29 51.5 69.5t16.5 97.5q0 51 -12.5 80t-29 44t-33.5 18.5t-26 3.5zM-70 70q0 29 20.5 50t49.5 21h6q22 0 42 0.5t40 1.5l41 4l39 4q-16 16 -24 28q-54 69 -65 159q-9 69 11 133t66 115q36 42 85 67q-33 13 -39 13l41 135q2 0 21.5 -6t52 -18l74.5 -28.5t89 -37.5
q262 -118 354 -251q49 -70 55.5 -148.5t-30.5 -150.5q-41 -75 -116 -118q-38 -23 -83 -34t-93 -11q-61 0 -121.5 11.5t-114.5 34.5q-130 -44 -325 -44h-6q-29 0 -49.5 20.5t-20.5 49.5z" />
    <glyph glyph-name="uFEEC" unicode="&#x647;" horiz-adv-x="618" arabic-form="medial" 
d="M316 504q-11 -9 -28 -25.5t-36 -41.5q-21 -29 -44.5 -77t-34.5 -112q-8 -50 -3 -99l22 4t22 5q110 30 142 117q21 56 16.5 99.5t-15.5 69.5q-10 21 -21 36.5t-20 23.5zM-71 70q0 29 20.5 50t49.5 21h30q-5 57 2.5 112t24.5 109q24 72 57.5 122t60.5 80q11 12 26.5 27
t34 28.5t39 23t41.5 10.5q24 1 45.5 -9.5t39.5 -25t30.5 -29.5t18.5 -23q46 -64 60 -143q16 -94 -20 -197q-31 -84 -101 -139q-60 -45 -137 -65q-12 -4 -24.5 -6.5t-24.5 -4.5q33 -84 98 -170q9 50 33 98q40 87 120 144q79 58 167 58q29 0 50 -21t21 -50t-21 -49.5
t-50 -20.5h-6q-50 -2 -79 -26q-32 -26 -47 -48.5t-28 -48.5q-8 -17 -15.5 -41t-8 -53t9.5 -62t37 -66l-1 -1l18 -15l-89 -109q-135 109 -222.5 221.5t-126.5 230.5l-6 18h-57q-29 0 -49.5 20.5t-20.5 49.5z" />
    <glyph glyph-name="uFEEE" unicode="&#x648;" horiz-adv-x="678" arabic-form="final" 
d="M296 466q-27 0 -56 -38q-20 -25 -33.5 -59.5t-21.5 -77.5q-11 -65 15 -96q11 -15 27.5 -24.5t34 -16t34.5 -10t31 -4.5h148q-3 94 -32 166.5t-66 113.5q-14 17 -35 31.5t-46 14.5zM132 -489l-69 123q71 40 133.5 85.5t112.5 93t87 95t57 92.5q-28 1 -62 1.5t-73 4.5
q-157 9 -229 102q-65 83 -43 208q11 60 31.5 110t51.5 89q35 45 78 68.5t89 23.5q103 0 186 -92q61 -67 95.5 -166.5t38.5 -208.5h62q29 0 50 -20.5t21 -50.5q0 -29 -21 -49t-50 -20h-75q-16 -57 -52 -116t-90 -120q-64 -69 -147 -134t-182 -119z" />
    <glyph glyph-name="uFEF0" unicode="&#x649;" horiz-adv-x="1127" arabic-form="final" 
d="M533 -466q-35 0 -82 2.5t-99 15.5q-160 40 -237 155q-77 113 -68 293q9 194 121 466l131 -53q-91 -223 -108 -382t41 -246q29 -42 71.5 -64.5t88.5 -33t89 -11.5t73 -1h15q23 0 53.5 3.5t65 10t70.5 16.5t69 24q16 6 40 17.5t46.5 27.5t38.5 35t16 41q0 17 -33 45.5
t-114 58.5q-33 12 -65.5 21t-57.5 15t-41 9l-16 3l11 139h480q29 0 50 -21t21 -50t-21 -49.5t-50 -20.5h-101q24 -20 39 -40.5t24 -40t12 -37t3 -32.5q0 -27 -9 -59.5t-34.5 -66t-70.5 -66t-116 -60.5q-41 -17 -84.5 -29t-84.5 -19.5t-77.5 -11.5t-63.5 -4h-36z" />
    <glyph glyph-name="uFEF2" unicode="&#x64a;" horiz-adv-x="1137" arabic-form="final" 
d="M540 -466q-35 0 -82 2.5t-99 15.5q-160 40 -237 155q-77 113 -68 293q9 194 121 466l131 -53q-91 -223 -108 -382t41 -246q29 -42 71.5 -64.5t88.5 -33t89 -11.5t73 -1h15q23 0 53.5 3.5t65 10t70.5 16.5t69 24q16 6 40 17.5t46.5 27.5t38.5 35t16 41q0 17 -33 45.5
t-114 58.5q-33 12 -65.5 21t-57.5 15t-41 9l-16 3l11 139h486q29 0 50 -21t21 -50t-21 -49.5t-50 -20.5h-107q24 -20 39 -40.5t24 -40t12 -37t3 -32.5q0 -27 -9 -59.5t-34.5 -66t-70.5 -66t-116 -60.5q-41 -17 -84.5 -29t-84.5 -19.5t-77.5 -11.5t-63.5 -4h-36z" />
    <glyph glyph-name="uFEF3" unicode="&#x64a;" horiz-adv-x="523" arabic-form="initial" 
d="M234 -285l-116 -116l-117 117l116 116zM477 -286l-116 -116l-117 117l116 116zM-70 70q0 29 20.5 50t49.5 21h88q38 -1 73 0.5t64.5 10t52 25.5t36.5 47q14 31 8 88t-29 132q-8 23 -18.5 50t-20.5 50l-23 53l127 63q0 -1 6.5 -15l17 -37.5t22.5 -54.5t23 -66
q66 -205 16 -320q-51 -115 -180 -151q-38 -11 -75 -13.5t-69 -2.5h-113h-6q-29 0 -49.5 20.5t-20.5 49.5z" />
    <glyph glyph-name="uFEF4" unicode="&#x64a;" horiz-adv-x="528" arabic-form="medial" 
d="M268 -277l-116 -116l-117 117l116 116zM511 -278l-116 -116l-117 117l116 116zM-72 70q0 29 20.5 50t49.5 21h32q120 0 174.5 42.5t54.5 128.5q0 41 -8.5 99t-24.5 113l134 38q19 -66 29 -133.5t10 -116.5v-4q0 -26 5 -55.5t18 -54.5t36.5 -41t60.5 -16h16q29 0 50 -21
t21 -50t-21 -49.5t-50 -20.5h-16q-72 0 -119 25t-77 64q-45 -45 -117 -67t-176 -22h-26h-6q-29 0 -49.5 20.5t-20.5 49.5z" />
    <glyph glyph-name=".notdef" horiz-adv-x="1024" 
d="M128 0v1343h768v-1343h-768zM256 128h512v1087h-512v-1087z" />
    <glyph glyph-name=".null" 
 />
    <glyph glyph-name="nonmarkingreturn" horiz-adv-x="2048" 
 />
    <glyph glyph-name="controlBS" 
 />
    <glyph glyph-name="controlHT" unicode="&#x9;" horiz-adv-x="278" 
 />
    <glyph glyph-name="uni000D" unicode="&#xd;" horiz-adv-x="500" 
 />
    <glyph glyph-name="controlGS" 
 />
    <glyph glyph-name="space" unicode=" " horiz-adv-x="500" 
 />
    <glyph glyph-name="exclam" unicode="!" horiz-adv-x="363" 
d="M121 222l-52 715v294h204v-294l-50 -715h-102zM182 -140l-127 127l126 125l126 -126z" />
    <glyph glyph-name="quotedbl" unicode="&#x22;" horiz-adv-x="621" 
d="M282 833v-496h131v496h-131zM13 833v-496h131v496h-131z" />
    <glyph glyph-name="numbersign" unicode="#" horiz-adv-x="810" 
d="M188 493h238l-40 -288h-239zM-4 75l-56 -396h133l55 396h238l-55 -396h132l56 396h194v130h-175l40 288h188v131h-170l55 394h-132l-56 -394h-238l56 394h-133l-55 -394h-214v-131h196l-40 -288h-205v-130h186z" />
    <glyph glyph-name="dollar" unicode="$" horiz-adv-x="813" 
d="M-42 97h-163q15 -202 128.5 -316t305.5 -133v-158h106v158q92 7 168.5 38t132.5 83.5t87.5 125.5t31.5 167q0 89 -33.5 152.5t-81.5 105.5t-100 66t-90 34l-115 30v473q176 -33 215 -223h163q-39 169 -131 265t-247 115v129h-106v-127q-83 -6 -155 -36.5t-124.5 -83.5
t-83.5 -125t-31 -158q0 -85 23 -144.5t72 -100.5t123 -71t176 -55v-509q-115 20 -191 94.5t-80 203.5zM335 -201v482q51 -15 97.5 -33t79 -45t51.5 -64.5t19 -93.5q0 -61 -18 -106t-51.5 -75t-79 -45.5t-98.5 -19.5zM229 928v-449q-48 14 -88.5 31t-70 41t-46 59.5
t-16.5 85.5q0 110 64.5 166.5t156.5 65.5z" />
    <glyph glyph-name="percent" unicode="%" horiz-adv-x="917" 
d="M-24 -156l779 1368h111l-776 -1368h-114zM840 -15l-139 -139l-141 141l139 139zM259 1074l-139 -139l-141 140l140 139z" />
    <glyph glyph-name="ampersand" unicode="&#x26;" horiz-adv-x="897" 
d="M216 520l-46 57t-42 58.5t-31.5 60.5t-12.5 62q0 74 49.5 110t107.5 36q73 0 115.5 -43.5t42.5 -102.5q0 -45 -17.5 -80.5t-44.5 -64t-59.5 -51.5zM567 -152l146 -171h214l-267 309l36 81.5t26 72t17.5 79.5t12.5 105h-156q-5 -106 -44 -213l-248 301q50 29 96.5 64.5
t82.5 79.5t57.5 97t21.5 114q0 69 -28 122t-74 88.5t-106.5 53t-123.5 17.5q-75 0 -133 -23.5t-97 -62.5t-59.5 -90t-20.5 -107q0 -52 12.5 -93t35 -78.5t49 -74l55.5 -76.5q-65 -35 -123.5 -74.5t-102 -88t-69.5 -110t-26 -142.5q0 -42 14.5 -105.5t60.5 -123t130.5 -101.5
t223.5 -42q113 0 219.5 48t167.5 144zM162 339l315 -378q-50 -75 -124 -119t-168 -44q-50 0 -97 17t-83.5 47t-58.5 73t-22 95q0 61 19.5 106.5t52 82t75.5 65t91 55.5z" />
    <glyph glyph-name="quotesingle" unicode="'" horiz-adv-x="405" 
d="M74 833v-496h130v496h-130z" />
    <glyph glyph-name="parenleft" unicode="(" horiz-adv-x="617" 
d="M569 1148l53 -65l-15 -14l-39.5 -38.5t-56 -60.5t-63.5 -82q-29 -40 -59.5 -92.5t-55.5 -113.5t-42.5 -131.5t-18.5 -145.5q-6 -186 86 -365.5t282 -352.5l-114 -126q-438 401 -425 850q6 167 72 329q25 64 60.5 127t80.5 125q37 51 73 92t63.5 69t45.5 43.5t19 17.5z
" />
    <glyph glyph-name="parenright" unicode=")" horiz-adv-x="619" 
d="M213 1218q1 -2 19 -17.5t46 -44t64 -69t74 -91.5q44 -62 79 -125t61 -127q67 -166 71 -329q6 -226 -99.5 -437.5t-324.5 -412.5l-115 125q380 349 370 720q-3 98 -30 186t-66 163t-83.5 135.5t-82.5 102.5t-63.5 65.5t-26.5 23.5z" />
    <glyph glyph-name="asterisk" unicode="*" horiz-adv-x="1145" 
d="M18 433l74 225q126 -45 217 -83t149 -70l-23 242.5t-9 150.5h230q-2 -76 -12 -174.5t-25 -217.5q81 42 174 80t199 72l73 -225q-102 -33 -199.5 -55t-195.5 -33q50 -42 117 -117l156 -183l-190 -134q-47 62 -101 147.5t-116 193.5q-116 -222 -204 -341l-187 134
q186 229 261 300l-199 42.5t-189 45.5z" />
    <glyph glyph-name="plus" unicode="+" horiz-adv-x="924" 
d="M331 37v372h-369v155h369v370h157v-370h368v-155h-368v-372h-157z" />
    <glyph glyph-name="comma" unicode="," horiz-adv-x="537" 
d="M127 123q0 39 37 83.5t107 45.5q79 2 125 -56q42 -54 43 -136q4 -201 -151 -306l-79 60q114 77 111 201q-39 -13 -73 -15q-118 -1 -120 123z" />
    <glyph glyph-name="hyphen" unicode="-" horiz-adv-x="845" 
d="M58 255v167h635v-167h-635z" />
    <glyph glyph-name="period" unicode="." horiz-adv-x="411" 
d="M351 91q0 -43 -32 -74.5t-75 -31.5t-75 31.5t-32 74.5t32 75t75 32t75 -32t32 -75z" />
    <glyph glyph-name="slash" unicode="/" horiz-adv-x="669" 
d="M-46 -170l567 1473h138l-568 -1473h-137z" />
    <glyph glyph-name="zero" unicode="0" horiz-adv-x="925" 
d="M238 553q0 40 0.5 88.5t7.5 96.5t20 94.5t38.5 81t64 56t93.5 21.5t93.5 -21.5t64 -56t38.5 -81t20 -94.5t7.5 -96.5t0.5 -88.5q0 -61 -3.5 -137.5t-24.5 -143t-67 -112.5t-129 -46t-129 46t-67 112.5t-24.5 143t-3.5 137.5zM100 551q0 -59 3 -123.5t15 -126t35 -116
t63 -96t101 -65.5t145 -24q86 0 146 24t100 65.5t63 96t35 116t15 126t3 123.5q0 60 -3 124.5t-15 126t-35 117t-63 97t-101 66t-145 24.5t-145 -24.5t-101 -66t-63 -97t-35 -117t-15 -126t-3 -124.5z" />
    <glyph glyph-name="zero" unicode="&#x660;" horiz-adv-x="925" 
d="M238 553q0 40 0.5 88.5t7.5 96.5t20 94.5t38.5 81t64 56t93.5 21.5t93.5 -21.5t64 -56t38.5 -81t20 -94.5t7.5 -96.5t0.5 -88.5q0 -61 -3.5 -137.5t-24.5 -143t-67 -112.5t-129 -46t-129 46t-67 112.5t-24.5 143t-3.5 137.5zM100 551q0 -59 3 -123.5t15 -126t35 -116
t63 -96t101 -65.5t145 -24q86 0 146 24t100 65.5t63 96t35 116t15 126t3 123.5q0 60 -3 124.5t-15 126t-35 117t-63 97t-101 66t-145 24.5t-145 -24.5t-101 -66t-63 -97t-35 -117t-15 -126t-3 -124.5z" />
    <glyph glyph-name="one" unicode="1" horiz-adv-x="614" 
d="M513 1v1089h-100q-11 -61 -40 -101t-71 -63t-94.5 -31.5t-107.5 -8.5v-105h283v-780h130z" />
    <glyph glyph-name="one" unicode="&#x661;" horiz-adv-x="614" 
d="M513 1v1089h-100q-11 -61 -40 -101t-71 -63t-94.5 -31.5t-107.5 -8.5v-105h283v-780h130z" />
    <glyph glyph-name="two" unicode="2" horiz-adv-x="922" 
d="M130 704h130q-1 50 10.5 98t37.5 86.5t66.5 62.5t97.5 24q43 0 81.5 -14t67 -40t45.5 -62t17 -81q0 -57 -18 -100t-52.5 -79.5t-86.5 -73t-121 -79.5q-57 -33 -109.5 -71.5t-94 -89.5t-68 -119t-34.5 -165h711v115h-559q9 51 39 90t72.5 73t93 64l101.5 60q50 33 98 68
t84.5 79t59 99t22.5 128q0 76 -27 134.5t-73 98t-108 60t-133 20.5q-86 0 -153.5 -29t-113 -80.5t-67 -122.5t-16.5 -154z" />
    <glyph glyph-name="two" unicode="&#x662;" horiz-adv-x="922" 
d="M130 704h130q-1 50 10.5 98t37.5 86.5t66.5 62.5t97.5 24q43 0 81.5 -14t67 -40t45.5 -62t17 -81q0 -57 -18 -100t-52.5 -79.5t-86.5 -73t-121 -79.5q-57 -33 -109.5 -71.5t-94 -89.5t-68 -119t-34.5 -165h711v115h-559q9 51 39 90t72.5 73t93 64l101.5 60q50 33 98 68
t84.5 79t59 99t22.5 128q0 76 -27 134.5t-73 98t-108 60t-133 20.5q-86 0 -153.5 -29t-113 -80.5t-67 -122.5t-16.5 -154z" />
    <glyph glyph-name="three" unicode="3" horiz-adv-x="938" 
d="M389 639v-111q37 5 78 5q50 0 92 -13t73 -40t49 -66t18 -90q0 -49 -19 -88t-51 -66t-75.5 -41.5t-90.5 -14.5q-112 0 -170.5 66.5t-61.5 172.5h-131q-1 -84 24.5 -150t73 -111.5t115 -68.5t150.5 -23q77 0 145 21t119 62t81 103.5t30 143.5q0 99 -48.5 171t-148.5 93v4
q65 29 108 85.5t43 130.5q0 75 -25.5 130.5t-70 91t-105.5 53t-131 17.5q-82 0 -144 -26t-103.5 -72t-64 -110.5t-25.5 -143.5h131q0 48 12.5 91t37.5 75t64.5 51.5t91.5 19.5q83 0 138 -44t55 -131q0 -43 -16.5 -77t-45 -56t-66.5 -34t-79 -12h-28h-15q-6 0 -14 2z" />
    <glyph glyph-name="three" unicode="&#x663;" horiz-adv-x="938" 
d="M389 639v-111q37 5 78 5q50 0 92 -13t73 -40t49 -66t18 -90q0 -49 -19 -88t-51 -66t-75.5 -41.5t-90.5 -14.5q-112 0 -170.5 66.5t-61.5 172.5h-131q-1 -84 24.5 -150t73 -111.5t115 -68.5t150.5 -23q77 0 145 21t119 62t81 103.5t30 143.5q0 99 -48.5 171t-148.5 93v4
q65 29 108 85.5t43 130.5q0 75 -25.5 130.5t-70 91t-105.5 53t-131 17.5q-82 0 -144 -26t-103.5 -72t-64 -110.5t-25.5 -143.5h131q0 48 12.5 91t37.5 75t64.5 51.5t91.5 19.5q83 0 138 -44t55 -131q0 -43 -16.5 -77t-45 -56t-66.5 -34t-79 -12h-28h-15q-6 0 -14 2z" />
    <glyph glyph-name="four" unicode="4" horiz-adv-x="949" 
d="M577 371h-365l362 533h3v-533zM700 371v719h-104l-497 -708v-126h478v-255h123v255h148v115h-148z" />
    <glyph glyph-name="four" unicode="&#x664;" horiz-adv-x="949" 
d="M577 371h-365l362 533h3v-533zM700 371v719h-104l-497 -708v-126h478v-255h123v255h148v115h-148z" />
    <glyph glyph-name="five" unicode="5" horiz-adv-x="929" 
d="M768 972v115h-537l-102 -566l112 -6q39 46 89 74.5t114 28.5q55 0 100.5 -18.5t77.5 -51.5t50 -78t18 -99q0 -65 -18.5 -113t-50 -80.5t-74 -48.5t-88.5 -16q-49 0 -89.5 14.5t-70.5 41.5t-47.5 63t-20.5 78h-131q2 -74 29.5 -132.5t75 -97.5t109.5 -60t133 -21
q95 0 166.5 30t119 81t71.5 116t24 134q0 94 -27.5 164t-75 116.5t-112.5 69.5t-137 23q-55 0 -111 -19t-91 -59l-4 3l59 314h439z" />
    <glyph glyph-name="five" unicode="&#x665;" horiz-adv-x="929" 
d="M768 972v115h-537l-102 -566l112 -6q39 46 89 74.5t114 28.5q55 0 100.5 -18.5t77.5 -51.5t50 -78t18 -99q0 -65 -18.5 -113t-50 -80.5t-74 -48.5t-88.5 -16q-49 0 -89.5 14.5t-70.5 41.5t-47.5 63t-20.5 78h-131q2 -74 29.5 -132.5t75 -97.5t109.5 -60t133 -21
q95 0 166.5 30t119 81t71.5 116t24 134q0 94 -27.5 164t-75 116.5t-112.5 69.5t-137 23q-55 0 -111 -19t-91 -59l-4 3l59 314h439z" />
    <glyph glyph-name="six" unicode="6" horiz-adv-x="940" 
d="M677 828h130q-12 135 -92 206.5t-215 71.5q-117 0 -193.5 -49t-123 -130.5t-65.5 -187t-19 -217.5q0 -86 13 -178t53 -169t114 -126t195 -49q103 0 173 34.5t112 87.5t60.5 117.5t18.5 124.5q0 75 -23 139.5t-65.5 112.5t-104.5 74.5t-140 26.5q-89 0 -157.5 -33.5
t-114.5 -108.5l-3 3q1 63 12 135t39.5 134t79 103t133.5 41q78 0 125.5 -44.5t57.5 -118.5zM480 602q55 0 96.5 -20t69.5 -53t41 -78t13 -96q0 -48 -15 -91.5t-42.5 -77.5t-68 -53t-94.5 -19t-96 19t-70.5 51.5t-44 77t-15.5 94.5q0 51 14.5 96.5t44 78.5t71 52t96.5 19z
" />
    <glyph glyph-name="six" unicode="&#x666;" horiz-adv-x="940" 
d="M677 828h130q-12 135 -92 206.5t-215 71.5q-117 0 -193.5 -49t-123 -130.5t-65.5 -187t-19 -217.5q0 -86 13 -178t53 -169t114 -126t195 -49q103 0 173 34.5t112 87.5t60.5 117.5t18.5 124.5q0 75 -23 139.5t-65.5 112.5t-104.5 74.5t-140 26.5q-89 0 -157.5 -33.5
t-114.5 -108.5l-3 3q1 63 12 135t39.5 134t79 103t133.5 41q78 0 125.5 -44.5t57.5 -118.5zM480 602q55 0 96.5 -20t69.5 -53t41 -78t13 -96q0 -48 -15 -91.5t-42.5 -77.5t-68 -53t-94.5 -19t-96 19t-70.5 51.5t-44 77t-15.5 94.5q0 51 14.5 96.5t44 78.5t71 52t96.5 19z
" />
    <glyph glyph-name="seven" unicode="7" horiz-adv-x="905" 
d="M804 959v112h-705v-123h571q-86 -91 -160.5 -198.5t-131 -228t-92.5 -252t-46 -269.5h146q8 128 43.5 263t91.5 262.5t128 239.5t155 194z" />
    <glyph glyph-name="seven" unicode="&#x667;" horiz-adv-x="905" 
d="M804 959v112h-705v-123h571q-86 -91 -160.5 -198.5t-131 -228t-92.5 -252t-46 -269.5h146q8 128 43.5 263t91.5 262.5t128 239.5t155 194z" />
    <glyph glyph-name="eight" unicode="8" horiz-adv-x="931" 
d="M278 823q0 42 15.5 72.5t40.5 52t60.5 32.5t74.5 11q79 0 130.5 -42.5t51.5 -125.5t-50.5 -129t-128.5 -46q-40 0 -75.5 11t-61.5 32.5t-41.5 54.5t-15.5 77zM140 828q0 -74 41.5 -136t110.5 -90q-92 -32 -141.5 -103.5t-49.5 -168.5q0 -83 28.5 -145t78.5 -103.5
t117.5 -61.5t146.5 -20q75 0 141 21.5t114.5 64t77 103.5t28.5 141q0 102 -48 171.5t-146 100.5q69 31 110 91.5t41 134.5q0 52 -18.5 102t-58 89t-102.5 63t-152 24q-63 0 -120.5 -18.5t-102 -54t-70.5 -86.5t-26 -119zM240 324q0 48 17.5 86.5t49 66t73.5 42t90 14.5
q46 0 87 -16t71.5 -44t48 -65.5t17.5 -81.5q0 -46 -16 -84.5t-46 -67t-70.5 -44.5t-89.5 -16q-102 0 -167 56t-65 154z" />
    <glyph glyph-name="eight" unicode="&#x668;" horiz-adv-x="931" 
d="M278 823q0 42 15.5 72.5t40.5 52t60.5 32.5t74.5 11q79 0 130.5 -42.5t51.5 -125.5t-50.5 -129t-128.5 -46q-40 0 -75.5 11t-61.5 32.5t-41.5 54.5t-15.5 77zM140 828q0 -74 41.5 -136t110.5 -90q-92 -32 -141.5 -103.5t-49.5 -168.5q0 -83 28.5 -145t78.5 -103.5
t117.5 -61.5t146.5 -20q75 0 141 21.5t114.5 64t77 103.5t28.5 141q0 102 -48 171.5t-146 100.5q69 31 110 91.5t41 134.5q0 52 -18.5 102t-58 89t-102.5 63t-152 24q-63 0 -120.5 -18.5t-102 -54t-70.5 -86.5t-26 -119zM240 324q0 48 17.5 86.5t49 66t73.5 42t90 14.5
q46 0 87 -16t71.5 -44t48 -65.5t17.5 -81.5q0 -46 -16 -84.5t-46 -67t-70.5 -44.5t-89.5 -16q-102 0 -167 56t-65 154z" />
    <glyph glyph-name="nine" unicode="9" horiz-adv-x="930" 
d="M252 280h-131q13 -142 103.5 -211t227.5 -69q198 0 288 151.5t90 433.5q0 155 -30 256t-81 159t-118.5 82t-144.5 24q-78 0 -144 -26t-113.5 -73t-74 -112.5t-26.5 -143.5q0 -80 22.5 -147.5t66.5 -115t108.5 -74.5t146.5 -27q80 0 148 41t104 110l3 -3
q-6 -214 -65.5 -317.5t-179.5 -103.5q-79 0 -135.5 43t-64.5 123zM674 742q0 -48 -15 -91.5t-44.5 -76.5t-71 -52.5t-91.5 -19.5q-48 0 -87 19.5t-67.5 51.5t-44.5 73.5t-16 86.5q0 50 11.5 96.5t36.5 82.5t66 57.5t99 21.5q55 0 96.5 -20t70 -54.5t43 -79t14.5 -95.5z" />
    <glyph glyph-name="nine" unicode="&#x669;" horiz-adv-x="930" 
d="M252 280h-131q13 -142 103.5 -211t227.5 -69q198 0 288 151.5t90 433.5q0 155 -30 256t-81 159t-118.5 82t-144.5 24q-78 0 -144 -26t-113.5 -73t-74 -112.5t-26.5 -143.5q0 -80 22.5 -147.5t66.5 -115t108.5 -74.5t146.5 -27q80 0 148 41t104 110l3 -3
q-6 -214 -65.5 -317.5t-179.5 -103.5q-79 0 -135.5 43t-64.5 123zM674 742q0 -48 -15 -91.5t-44.5 -76.5t-71 -52.5t-91.5 -19.5q-48 0 -87 19.5t-67.5 51.5t-44.5 73.5t-16 86.5q0 50 11.5 96.5t36.5 82.5t66 57.5t99 21.5q55 0 96.5 -20t70 -54.5t43 -79t14.5 -95.5z" />
    <glyph glyph-name="colon" unicode=":" horiz-adv-x="316" 
d="M315 479q0 -29 -21 -49.5t-50 -20.5t-50 20.5t-21 49.5q0 30 20.5 50.5t50.5 20.5t50.5 -20.5t20.5 -50.5zM315 134q0 -29 -21 -49.5t-50 -20.5t-50 20.5t-21 49.5t21 50t50 21t50 -21t21 -50z" />
    <glyph glyph-name="semicolon" unicode=";" horiz-adv-x="316" 
d="M210 468v142h-143v-142h143zM67 90v-142h76q1 -15 -2 -33t-12 -35.5t-24 -32t-36 -22.5v-64q74 22 108 74.5t33 125.5v129h-143z" />
    <glyph glyph-name="less" unicode="&#x3c;" horiz-adv-x="684" 
d="M625 650v87l-650 -294v-80l650 -293v86l-544 247z" />
    <glyph glyph-name="equal" unicode="=" horiz-adv-x="804" 
d="M700 574h-596v103h596v-103zM700 299h-596v103h596v-103z" />
    <glyph glyph-name="greater" unicode="&#x3e;" horiz-adv-x="684" 
d="M-25 106v-86l650 293v80l-650 294v-87l544 -247z" />
    <glyph glyph-name="question" unicode="?" horiz-adv-x="635" 
d="M203 40v-142h142v142h-142zM-6 526h109q0 45 10 83.5t32.5 66.5t56 44.5t79.5 16.5q69 0 109.5 -39.5t45.5 -109.5q2 -48 -12 -81t-37.5 -60.5t-51 -52.5t-52.5 -54.5t-42.5 -67.5t-19.5 -91v-61h108v50q0 34 10 60t26 48.5t35.5 42.5t40.5 39l40 42t35.5 47.5t25 57
t9.5 70.5q0 62 -20 109.5t-55.5 80t-85 49.5t-109.5 17q-67 0 -120.5 -23t-90.5 -64.5t-57 -98t-19 -121.5z" />
    <glyph glyph-name="at" unicode="@" horiz-adv-x="912" 
d="M572 286l108 363h-81l-29 -81q-22 58 -60.5 81.5t-83.5 23.5q-68 0 -123.5 -32t-94.5 -83t-60.5 -116.5t-21.5 -131.5q0 -42 13 -79.5t37 -64t58 -42.5t75 -16q47 0 88 26t70 59h4q3 -42 26 -62.5t56 -20.5q45 0 97.5 27t97 75.5t75 117t30.5 151.5q0 87 -35 159.5
t-94.5 124.5t-138.5 81.5t-168 29.5q-97 0 -183.5 -37.5t-151 -102t-102.5 -151t-38 -184.5q0 -103 37.5 -190.5t102 -152t152 -102t188.5 -37.5q62 0 121 15t110.5 43.5t95 70.5t74.5 95h-81q-55 -70 -140 -112t-177 -42q-81 0 -152.5 31t-126 85.5t-85.5 129t-31 159.5
t30 159t82.5 130.5t123.5 89t153 32.5q67 0 129.5 -23t111 -66t77.5 -104.5t29 -136.5q0 -51 -17 -103.5t-42.5 -95t-57 -69t-60.5 -26.5q-31 0 -31 39q0 14 4.5 31.5t9.5 34.5zM426 586q21 0 39.5 -10t33 -26t23 -38t8.5 -45q0 -39 -15.5 -86.5t-42 -89t-62.5 -69
t-78 -27.5q-49 0 -79.5 35t-30.5 89q0 42 15 88.5t42 86.5t65 66t82 26z" />
    <glyph glyph-name="A" unicode="A" horiz-adv-x="1214" 
d="M416 454l185 511h3l183 -511h-371zM525 1097l-427 -1096h149l122 330h464l120 -330h161l-428 1096h-161z" />
    <glyph glyph-name="B" unicode="B" horiz-adv-x="1063" 
d="M246 626v348h292q48 0 90 -5t74.5 -23.5t51 -52.5t18.5 -92q0 -88 -54.5 -131.5t-179.5 -43.5h-292zM100 1097v-1096h530q82 0 144 26.5t104.5 70.5t64 101t21.5 117q0 101 -54 171.5t-155 92.5v3q78 31 120.5 94.5t42.5 151.5q0 82 -38 139t-91 89q-25 16 -59.5 23.5
t-74.5 11.5t-80.5 4.5t-76.5 0.5h-398zM246 124v379h334q46 0 89 -8.5t76 -29t53 -56t20 -89.5q0 -92 -54.5 -144t-151.5 -52h-366z" />
    <glyph glyph-name="C" unicode="C" horiz-adv-x="1182" 
d="M925 792h145q-12 87 -52 154t-99.5 111.5t-136.5 67.5t-163 23q-126 0 -223.5 -45t-163 -123.5t-99 -184t-33.5 -224.5q0 -120 31.5 -224.5t94.5 -181.5t158 -120.5t223 -43.5q210 0 331.5 115t142.5 323h-146q-4 -68 -27 -126.5t-64 -100.5t-97 -66t-128 -24
q-98 0 -169 37t-116 99t-66.5 146t-21.5 177q0 86 21.5 166t66.5 142.5t115 99t168 36.5q116 0 199.5 -58t108.5 -175z" />
    <glyph glyph-name="D" unicode="D" horiz-adv-x="1105" 
d="M246 124v850h246q101 0 170.5 -28t113 -82.5t63 -132.5t19.5 -176q0 -101 -21 -172.5t-53 -119t-73 -75.5t-82.5 -42.5t-78 -18t-61.5 -3.5h-243zM100 1097v-1096h377q136 0 236 38t164.5 111t95.5 180t31 245q0 264 -137 393t-390 129h-377z" />
    <glyph glyph-name="E" unicode="E" horiz-adv-x="958" 
d="M100 1097v-1096h762v123h-616v379h570v123h-570v348h611v123h-757z" />
    <glyph glyph-name="F" unicode="F" horiz-adv-x="919" 
d="M98 1097v-1096h146v502h504v123h-504v348h575v123h-721z" />
    <glyph glyph-name="G" unicode="G" horiz-adv-x="1204" 
d="M974 162l38 -137h92v578h-480v-123h350q3 -75 -20 -140.5t-68.5 -114t-111.5 -76t-152 -27.5q-92 0 -162 36t-117.5 97t-72 140t-24.5 165q0 87 21.5 171t66.5 149t116.5 105t171.5 40q61 0 115.5 -14.5t97.5 -43.5t72.5 -74.5t40.5 -108.5h146q-16 97 -58 165.5
t-104.5 113t-141.5 65t-168 20.5q-131 0 -228.5 -48.5t-162.5 -129.5t-98 -189.5t-33 -228.5q0 -107 35 -207t103 -177t164.5 -122t219.5 -45q97 0 192 37.5t160 123.5z" />
    <glyph glyph-name="H" unicode="H" horiz-adv-x="1070" 
d="M99 1097v-1096h146v502h578v-502h146v1096h-146v-471h-578v471h-146z" />
    <glyph glyph-name="I" unicode="I" horiz-adv-x="346" 
d="M100 1097v-1096h145v1096h-145z" />
    <glyph glyph-name="J" unicode="J" horiz-adv-x="843" 
d="M743 298v824h-146v-802q0 -91 -37.5 -144.5t-137.5 -53.5q-53 0 -88 16t-54 45t-26.5 69t-7.5 88v46h-146v-68q0 -156 83 -237t236 -81q92 0 154.5 25.5t100 68t53.5 96t16 108.5z" />
    <glyph glyph-name="K" unicode="K" horiz-adv-x="1110" 
d="M100 1097v-1096h146v384l183 170l396 -554h185l-481 654l462 442h-189l-556 -546v546h-146z" />
    <glyph glyph-name="L" unicode="L" horiz-adv-x="926" 
d="M98 1097v-1096h727v123h-581v973h-146z" />
    <glyph glyph-name="M" unicode="M" horiz-adv-x="1291" 
d="M99 1097v-1096h139v912h3l342 -912h125l342 912h3v-912h139v1096h-200l-347 -921l-346 921h-200z" />
    <glyph glyph-name="N" unicode="N" horiz-adv-x="1074" 
d="M100 1097v-1096h138v880h3l573 -880h159v1096h-138v-889h-3l-577 889h-155z" />
    <glyph glyph-name="O" unicode="O" horiz-adv-x="1250" 
d="M246 574q0 83 21.5 163.5t67.5 145t118 103.5t172 39t172 -39t118 -103.5t67.5 -145t21.5 -163.5t-21.5 -163.5t-67.5 -145.5t-118 -104t-172 -39t-172 39t-118 104t-67.5 145.5t-21.5 163.5zM100 574q0 -112 33 -216t99 -184t164 -126.5t229 -46.5t229 46.5t164 126.5
t99 184t33 216t-33 215.5t-99 183.5t-164 127.5t-229 47.5t-229 -47.5t-164 -127.5t-99 -183.5t-33 -215.5z" />
    <glyph glyph-name="P" unicode="P" horiz-adv-x="1018" 
d="M246 572v402h286q124 0 182 -51t58 -150q0 -98 -58 -150t-182 -51h-286zM100 1097v-1096h146v448h335q166 -1 251.5 85t85.5 239q0 154 -85.5 239t-251.5 85h-481z" />
    <glyph glyph-name="Q" unicode="Q" horiz-adv-x="1250" 
d="M733 339l-77 -89l121 -97q-74 -31 -152 -31q-100 0 -172 39.5t-118 104t-67.5 145t-21.5 163.5t21.5 163.5t67.5 145t118 103.5t172 39t172 -39t118 -103.5t67.5 -145t21.5 -163.5q0 -102 -30.5 -194.5t-95.5 -157.5zM1055 -68l74 92l-145 114q83 83 124.5 196.5
t41.5 239.5q0 112 -33 215.5t-99 183.5t-164 127.5t-229 47.5t-229 -47.5t-164 -127.5t-99 -183.5t-33 -215.5t33 -216t99 -183.5t164 -126.5t229 -47q152 0 263 64z" />
    <glyph glyph-name="R" unicode="R" horiz-adv-x="1086" 
d="M99 1097v-1096h146v468h356q54 0 86.5 -16t52.5 -43t29 -63t15 -76q8 -40 9.5 -81.5t3 -77.5t7 -65t20.5 -46h163q-23 27 -34.5 63t-17.5 76t-8 81.5t-5 81.5q-4 40 -12.5 77t-26 67t-47.5 51.5t-78 30.5v3q100 28 145.5 103t45.5 175q0 134 -88.5 210.5t-245.5 76.5
h-516zM549 592h-304v382h363q102 0 148.5 -52t46.5 -135q0 -60 -21 -97.5t-55.5 -60t-80.5 -30t-97 -7.5z" />
    <glyph glyph-name="S" unicode="S" horiz-adv-x="1082" 
d="M797 801h138q-3 91 -34.5 156t-86 108t-127 63t-156.5 20q-75 0 -146.5 -19t-127.5 -58.5t-90 -100t-34 -143.5q0 -75 30 -125t80 -81.5t113 -50.5t128 -33.5l128 -28.5t113 -36.5t80 -57.5t30 -92q0 -60 -24.5 -98.5t-64.5 -60.5t-90 -31.5t-99 -9.5q-62 0 -120 15.5
t-102 47.5t-71 82t-27 119h-138q0 -100 36 -172.5t98.5 -119.5t144.5 -70t174 -23q76 0 152 17.5t137 56.5t100.5 101.5t39.5 149.5q0 82 -30 135.5t-80 89t-113 56t-128 36t-128 28.5t-113 33t-80 51.5t-30 82.5q0 54 20.5 90t55 57.5t79.5 30.5t91 9q113 0 186 -53
t86 -171z" />
    <glyph glyph-name="T" unicode="T" horiz-adv-x="1078" 
d="M466 974v-973h145v973h366v123h-877v-123h366z" />
    <glyph glyph-name="U" unicode="U" horiz-adv-x="1082" 
d="M981 420v701h-146v-701q0 -147 -73 -223t-213 -76q-147 0 -225.5 76t-78.5 223v701h-146v-701q0 -219 119 -320t331 -101q208 0 320 105.5t112 315.5z" />
    <glyph glyph-name="V" unicode="V" horiz-adv-x="1142" 
d="M651 1l390 1096h-152l-316 -950h-3l-314 950h-156l385 -1096h166z" />
    <glyph glyph-name="W" unicode="W" horiz-adv-x="1586" 
d="M1192 1l294 1096h-146l-223 -912h-3l-243 912h-158l-246 -912h-3l-215 912h-149l281 -1096h152l254 921h3l250 -921h152z" />
    <glyph glyph-name="X" unicode="X" horiz-adv-x="1122" 
d="M463 564l-381 -563h163l304 453l295 -453h178l-386 563l363 533h-163l-286 -428l-273 428h-175z" />
    <glyph glyph-name="Y" unicode="Y" horiz-adv-x="1188" 
d="M669 449l420 648h-166l-321 -522l-329 522h-174l424 -648v-448h146v448z" />
    <glyph glyph-name="Z" unicode="Z" horiz-adv-x="1033" 
d="M100 124v-123h872v123h-699l681 850v123h-802v-123h630z" />
    <glyph glyph-name="bracketleft" unicode="[" horiz-adv-x="640" 
d="M539 -363h-325v1645h325v-141h-182v-1381h182v-123z" />
    <glyph glyph-name="backslash" unicode="\" horiz-adv-x="432" 
d="M461 -240l-473 1195h-115l472 -1195h116z" />
    <glyph glyph-name="bracketright" unicode="]" horiz-adv-x="640" 
d="M104 1373h325v-1645h-325v141h182v1381h-182v123z" />
    <glyph glyph-name="asciicircum" unicode="^" horiz-adv-x="780" 
d="M249 827l-349 -693h114l284 576l290 -576h112l-349 693h-102z" />
    <glyph glyph-name="underscore" unicode="_" horiz-adv-x="650" 
d="M-150 -59v-80h800v80h-800z" />
    <glyph glyph-name="grave" unicode="`" horiz-adv-x="310" 
d="M-80 774l208 -229h102l-137 229h-173z" />
    <glyph glyph-name="a" unicode="a" horiz-adv-x="1030" 
d="M929 21v113q-26 -8 -45 -8q-34 0 -40 24t-6 75v455q0 77 -29 125t-77 74.5t-107 35t-119 8.5q-73 0 -140 -15.5t-118 -50.5t-82 -91.5t-34 -138.5h145q5 97 66.5 132.5t154.5 35.5q34 0 69 -5.5t63 -20.5t46 -44.5t18 -77.5q0 -41 -24 -62t-65 -32.5t-94.5 -17.5
t-113.5 -18q-57 -10 -111 -25.5t-95.5 -45t-67.5 -77.5t-26 -124q0 -66 23 -113t63.5 -77t93.5 -43t113 -13q92 0 171.5 31.5t139.5 103.5q0 -72 33.5 -103.5t89.5 -31.5q67 0 105 22zM693 475v-149q0 -31 -15.5 -66t-48 -65t-84 -49.5t-123.5 -19.5q-32 0 -63.5 6.5t-55 22
t-38 40.5t-14.5 61q0 54 25 86t64.5 49t89 24.5t98 13.5t93 15.5t72.5 30.5z" />
    <glyph glyph-name="b" unicode="b" horiz-adv-x="1038" 
d="M100 1241v-1222h145v118h4q24 -39 59 -65.5t74 -42t79.5 -22.5t72.5 -7q101 0 177.5 36t127 98.5t75 146.5t24.5 178t-25.5 178t-76 148t-126.5 101.5t-179 37.5q-92 0 -169 -33.5t-113 -106.5h-4v457h-145zM784 469q0 -65 -13.5 -126.5t-44.5 -109.5t-81.5 -77
t-125.5 -29t-128 28t-86.5 74.5t-49 107t-15.5 125.5q0 62 14.5 122t47 107t84 76t124.5 29q71 0 123 -27.5t85.5 -73.5t49.5 -105t16 -121z" />
    <glyph glyph-name="c" unicode="c" horiz-adv-x="1005" 
d="M748 618h151q-9 79 -41.5 136.5t-83 95t-116 55.5t-141.5 18q-104 0 -182.5 -37t-131 -101t-78 -150.5t-25.5 -185.5t26.5 -182t78.5 -143t130 -92.5t179 -32.5q169 0 267.5 89t122.5 253h-149q-13 -102 -74 -158.5t-169 -56.5q-68 0 -117.5 27t-80.5 72.5t-45.5 103.5
t-14.5 120q0 67 13.5 129.5t45.5 110t85 77t131 29.5q93 0 147.5 -46.5t71.5 -130.5z" />
    <glyph glyph-name="d" unicode="d" horiz-adv-x="1040" 
d="M254 454q0 65 13.5 126.5t44.5 109.5t82 77t125 29q75 0 128 -28.5t86.5 -74.5t49 -106.5t15.5 -125.5q0 -62 -14.5 -122t-47 -107t-84 -76t-124.5 -29q-71 0 -123 27.5t-85.5 73.5t-49.5 105t-16 121zM938 19v1222h-145v-455h-4q-24 39 -59 65.5t-74 42.5t-78.5 23
t-73.5 7q-101 0 -177.5 -36.5t-127 -99t-75 -146.5t-24.5 -178t25.5 -178t76 -147t126.5 -101t179 -38q92 0 169 32.5t113 106.5h4v-120h145z" />
    <glyph glyph-name="e" unicode="e" horiz-adv-x="1016" 
d="M761 545h-508q4 51 22.5 96.5t51 79.5t78 54t102.5 20q54 0 99.5 -20t79 -53t53 -79.5t22.5 -97.5zM902 298h-144q-19 -87 -78 -129.5t-151 -42.5q-72 0 -125 24t-87.5 64t-49.5 92t-14 111h662q4 80 -14 169t-65 164t-125 124t-196 49q-91 0 -167 -34.5t-131.5 -96
t-86.5 -145t-31 -184.5q4 -101 30.5 -186.5t79.5 -147t131 -96t184 -34.5q150 0 249.5 75.5t128.5 223.5z" />
    <glyph glyph-name="f" unicode="f" horiz-adv-x="689" 
d="M248 759v-757h145v757h171v128h-171v123q0 58 29 78.5t82 20.5q19 0 41 -2.5t41 -9.5v127q-20 7 -46.5 10.5t-47.5 3.5q-120 0 -182 -56t-62 -163v-132h-149v-128h149z" />
    <glyph glyph-name="g" unicode="g" horiz-adv-x="1012" 
d="M910 85v809h-136v-127h-2q-39 74 -109.5 110.5t-154.5 36.5q-114 0 -193 -43.5t-126.5 -111t-68 -150.5t-20.5 -162q0 -90 24.5 -171.5t74 -142t123.5 -96.5t173 -36q85 0 161.5 38.5t113.5 120.5h4v-58q0 -74 -15 -135.5t-47.5 -105t-82 -68.5t-121.5 -25q-36 0 -75 7.5
t-72.5 25t-56.5 44.5t-25 67h-145q3 -72 37.5 -121.5t86.5 -80.5t116 -44.5t126 -13.5q212 0 311 107.5t99 325.5zM503 127q-72 0 -119.5 30t-77 79t-41 108.5t-11.5 119.5q0 64 14.5 122t46 102.5t81 71t119.5 26.5q69 0 116.5 -27.5t77.5 -72.5t44 -101.5t14 -115.5
q0 -61 -14.5 -122.5t-45.5 -110.5t-81.5 -79t-122.5 -30z" />
    <glyph glyph-name="h" unicode="h" horiz-adv-x="933" 
d="M100 1222v-1222h145v500q0 60 16.5 110.5t49 88t81 58t115.5 20.5q84 0 132 -48t48 -130v-599h145v582q0 72 -14.5 131t-50.5 101.5t-94 66.5t-145 24q-40 0 -82 -8.5t-80.5 -26.5t-69 -46t-47.5 -69h-4v467h-145z" />
    <glyph glyph-name="i" unicode="i" horiz-adv-x="346" 
d="M245 1044v178h-145v-178h145zM100 885v-885h145v885h-145z" />
    <glyph glyph-name="j" unicode="j" horiz-adv-x="486" 
d="M385 970v178h-145v-178h145zM385 -185v996h-145v-972q0 -68 -17 -94.5t-65 -26.5h-31q-7 0 -13 0.5t-14 2.5v-125q34 -7 73 -7q98 0 155 54t57 172z" />
    <glyph glyph-name="k" unicode="k" horiz-adv-x="970" 
d="M100 1222v-1222h146v336l136 126l303 -462h185l-376 563l350 322h-195l-403 -387v724h-146z" />
    <glyph glyph-name="l" unicode="l" horiz-adv-x="346" 
d="M100 1222v-1222h145v1222h-145z" />
    <glyph glyph-name="m" unicode="m" horiz-adv-x="1439" 
d="M98 884v-884h146v551q0 26 12.5 64.5t41 74t74 61.5t108.5 26q49 0 81 -14.5t50.5 -41t26.5 -62.5t8 -79v-580h145v551q0 103 61.5 164.5t169.5 61.5q53 0 86.5 -15.5t52.5 -42t25.5 -62.5t6.5 -77v-580h146v648q0 69 -21.5 117.5t-60 79.5t-92.5 45.5t-121 14.5
q-87 0 -159.5 -39.5t-117.5 -111.5q-27 83 -94 117t-149 34q-186 0 -285 -151h-4v130h-137z" />
    <glyph glyph-name="n" unicode="n" horiz-adv-x="933" 
d="M100 885v-884h145v500q0 59 16.5 109.5t49 88.5t81 58.5t115.5 20.5q84 0 132 -48t48 -130v-599h145v582q0 72 -14.5 131t-50.5 101.5t-94 66.5t-145 24q-197 0 -288 -161h-3v140h-137z" />
    <glyph glyph-name="o" unicode="o" horiz-adv-x="1060" 
d="M254 459q0 81 21 143.5t59 105t88.5 65t106.5 22.5t106.5 -22.5t88.5 -65t59 -105t21 -143.5q0 -80 -21 -142.5t-59 -104.5t-88.5 -64t-106.5 -22t-106.5 22t-88.5 64t-59 104.5t-21 142.5zM100 459q0 -97 27 -181t82 -146.5t135.5 -97.5t184.5 -35q106 0 185.5 35
t134.5 97.5t82 146.5t27 181q0 98 -27 182.5t-82 147t-134.5 98.5t-185.5 36q-104 0 -184.5 -36t-135.5 -98.5t-82 -147t-27 -182.5z" />
    <glyph glyph-name="p" unicode="p" horiz-adv-x="1038" 
d="M100 903v-1221h145v455h4q24 -39 59 -65.5t74 -42t79.5 -22.5t72.5 -7q101 0 177.5 36t127 98.5t75 146.5t24.5 178t-25.5 177.5t-76 148t-126.5 102t-179 37.5q-92 0 -169 -33.5t-113 -106.5h-4v119h-145zM784 469q0 -65 -13.5 -126.5t-44.5 -109.5t-81.5 -77
t-125.5 -29t-128 28t-86.5 74.5t-49 107t-15.5 125.5q0 62 14.5 121.5t47 107t84 76.5t124.5 29q71 0 123 -27.5t85.5 -73.5t49.5 -105t16 -121z" />
    <glyph glyph-name="q" unicode="q" horiz-adv-x="1040" 
d="M254 454q0 65 13.5 126.5t44.5 109.5t82 77t125 29q75 0 128 -28.5t86.5 -74.5t49 -107t15.5 -126q0 -61 -14.5 -121t-47 -107t-84 -76t-124.5 -29q-71 0 -123 27.5t-85.5 73.5t-49.5 105t-16 121zM938 -318v1221h-145v-118h-4q-24 40 -59 66.5t-74 42.5t-78.5 23
t-73.5 7q-101 0 -177.5 -37t-127 -99t-75 -146t-24.5 -178t25.5 -178t76 -147.5t126.5 -101t179 -37.5q92 0 169 32.5t113 106.5h4v-457h145z" />
    <glyph glyph-name="r" unicode="r" horiz-adv-x="666" 
d="M99 886v-884h146v393q0 86 17 152t54.5 112t99 70t149.5 24v154q-118 3 -195 -48t-130 -159h-4v186h-137z" />
    <glyph glyph-name="s" unicode="s" horiz-adv-x="950" 
d="M243 298h-145q3 -82 34 -139.5t82.5 -92.5t118 -50.5t140.5 -15.5q66 0 134 13t121.5 45.5t87 85.5t33.5 133q0 64 -25 106.5t-65 71t-92 45.5t-107 29l-102.5 23t-92.5 27t-67.5 41t-26.5 63q0 34 17 55.5t44.5 34t60.5 18t66 5.5q36 0 71 -8t64 -25t48 -45t22 -71h146
q-5 80 -34.5 134t-78 85.5t-112 44.5t-138.5 13q-58 0 -117 -14.5t-106 -44.5t-77 -78t-30 -115q0 -85 42.5 -133t107 -74.5t139.5 -41t139.5 -32.5t107 -47t42.5 -86q0 -41 -20.5 -67.5t-52 -40t-69.5 -18.5t-72 -5q-44 0 -86 8.5t-75.5 28t-54 53t-22.5 81.5z" />
    <glyph glyph-name="t" unicode="t" horiz-adv-x="673" 
d="M395 885v265h-146v-265h-150v-129h150v-562q0 -62 12 -99.5t37 -58t65 -28.5t97 -8h111v129h-67q-34 0 -55.5 2.5t-33.5 11t-16 24t-4 40.5v549h176v129h-176z" />
    <glyph glyph-name="u" unicode="u" horiz-adv-x="933" 
d="M832 19v885h-145v-500q0 -60 -16.5 -110.5t-49 -88t-81 -58t-115.5 -20.5q-84 0 -132 48t-48 130v599h-145v-582q0 -72 14.5 -131t50.5 -101.5t94 -66t145 -23.5q98 0 170 38.5t118 120.5h3v-140h137z" />
    <glyph glyph-name="v" unicode="v" horiz-adv-x="1006" 
d="M583 2l324 885h-153l-241 -738h-3l-248 738h-163l329 -885h155z" />
    <glyph glyph-name="w" unicode="w" horiz-adv-x="1438" 
d="M1055 0l282 885h-150l-199 -724h-3l-185 724h-159l-178 -724h-3l-200 724h-161l284 -885h157l178 703h3l180 -703h154z" />
    <glyph glyph-name="x" unicode="x" horiz-adv-x="1054" 
d="M430 468l-332 -466h177l246 366l246 -366h187l-342 478l304 407h-174l-221 -310l-212 310h-187z" />
    <glyph glyph-name="y" unicode="y" horiz-adv-x="1026" 
d="M542 -121l385 1001h-154l-248 -724h-3l-259 724h-164l351 -879l-60 -149q-21 -40 -48 -60.5t-72 -20.5q-22 0 -43.5 7l-41.5 14v-134q23 -8 49 -11.5t51 -3.5q50 0 86 13t66 41t54.5 72.5t50.5 109.5z" />
    <glyph glyph-name="z" unicode="z" horiz-adv-x="946" 
d="M100 113v-111h746v129h-565l541 656v100h-688v-129h500z" />
    <glyph glyph-name="braceleft" unicode="{" horiz-adv-x="981" 
d="M734 -411q-228 0 -316 123q-50 68 -52 170q-4 101 42 235q48 148 -4 230q-20 31 -48 49.5t-55 29t-47 14l-20 3.5v0l2 140l19 3t46 13t58 28.5t53 49.5q62 86 28 242q-60 266 48 403q42 54 109 82.5t151 28.5v-141q-18 0 -38 -2.5t-40 -8.5t-39 -17.5t-33 -29.5
q-32 -42 -38 -113.5t18 -170.5q48 -219 -52 -358q-20 -26 -42 -45.5t-46 -35.5q24 -17 46 -38t40 -48q90 -139 18 -353q-32 -97 -35 -167.5t25 -109.5q48 -65 202 -65v-141z" />
    <glyph glyph-name="bar" unicode="|" horiz-adv-x="222" 
d="M77 986v-999h68v999h-68z" />
    <glyph glyph-name="braceright" unicode="}" horiz-adv-x="930" 
d="M221 1423q228 0 317 -123q49 -68 52 -170q3 -101 -43 -235q-48 -148 4 -230q19 -31 48 -49.5t56 -29t46.5 -14t20.5 -3.5h-1l-1 -140l-19.5 -3.5t-46.5 -13t-57.5 -28t-53.5 -49.5q-62 -86 -27 -242q60 -266 -48 -403q-43 -54 -110 -82.5t-150 -28.5v141q18 0 38 2.5
t40 8.5t38.5 17.5t32.5 29.5q33 42 38.5 113.5t-17.5 170.5q-49 219 52 358q20 26 42 45.5t45 35.5q-23 17 -45 38t-40 48q-90 139 -19 353q33 97 35.5 167.5t-25.5 109.5q-47 65 -202 65v141z" />
    <glyph glyph-name="asciitilde" unicode="~" horiz-adv-x="600" 
d="M531 269l-36 50l-18 -26.5t-19.5 -24.5t-23 -18t-27.5 -7q-20 0 -47 14t-55 26q-29 13 -57 22.5t-54 9.5q-25 0 -44.5 -7.5t-35 -19.5t-26.5 -27.5t-19 -31.5l36 -50q6 13 13.5 26.5t18 24.5t23.5 18t29 7q35 0 63 -12.5t52 -26.5q25 -14 49.5 -23.5t52.5 -9.5
q23 0 41.5 7.5t33.5 19.5t27 27.5t23 31.5z" />
    <glyph glyph-name="nonbreakingspace" unicode="&#xa0;" horiz-adv-x="278" 
 />
    <glyph glyph-name="exclamdown" unicode="&#xa1;" horiz-adv-x="336" 
d="M218 554v177h-177v-177h177zM54 -61v-350h152v350l-40 498h-72z" />
    <glyph glyph-name="cent" unicode="&#xa2;" horiz-adv-x="720" 
d="M266 -170v-167h63v167q75 0 133.5 27t100 72.5t65.5 103t30 117.5h-136q-12 -82 -59.5 -138t-133.5 -64v626q77 -4 123 -48t62 -117h140q-10 72 -37 125.5t-69.5 88t-98 52t-120.5 19.5v152h-63v-152q-89 -7 -157 -44.5t-113.5 -97.5t-68 -137.5t-22.5 -164.5
q0 -88 24 -164t69.5 -132t112.5 -88.5t155 -35.5zM266 574v-626q-57 5 -98.5 32t-68 68.5t-38.5 94.5t-12 107q0 60 11 115t36 99t66.5 73t103.5 37z" />
    <glyph glyph-name="sterling" unicode="&#xa3;" horiz-adv-x="712" 
d="M-102 381v-72h136q14 -32 27 -72t13 -77q0 -46 -14.5 -88t-39 -78.5t-56.5 -67t-66 -52.5l75 -104q37 24 75.5 39t84.5 15q47 0 87.5 -10.5t80.5 -23.5l80.5 -20.5t78.5 -9.5q62 0 123.5 15t109.5 57l-69 106q-28 -23 -66 -41.5t-76 -18.5q-37 0 -69.5 10l-64.5 19
q-32 8 -69 16t-83 8q-48 0 -87.5 -14.5t-80.5 -31.5l-4 3q36 29 69.5 59.5t59 66.5t41.5 78t16 97q0 33 -9.5 63.5t-22.5 56.5h219v72h-254l-29 56t-26 56t-20 61.5t-8 71.5q0 44 17.5 82.5t48.5 66.5t72.5 44t89.5 16q116 0 173.5 -76t60.5 -217h136q3 207 -98.5 310
t-279.5 103q-73 0 -138.5 -22.5t-116 -64t-80 -101.5t-29.5 -137q0 -76 21.5 -135.5t53.5 -113.5h-93z" />
    <glyph glyph-name="currency" unicode="&#xa4;" horiz-adv-x="722" 
d="M283 628q56 0 103 -22.5t81.5 -60t54.5 -88t20 -106.5q0 -58 -20 -109t-54.5 -88.5t-82.5 -60t-104 -22.5t-104.5 21.5t-84.5 58.5t-57 88t-21 109q0 59 21 110t57 89t84.5 59.5t106.5 21.5zM-48 756l-79 -79l91 -92q-44 -45 -65 -107.5t-21 -129.5t21.5 -126.5
t61.5 -107.5l-88 -93l77 -76l88 92q48 -43 109.5 -64.5t133.5 -21.5q67 0 129 22.5t108 65.5l90 -93l75 75l-88 90q41 50 62 111.5t21 128.5t-21 129.5t-62 107.5l88 88l-80 81l-91 -89q-44 37 -104.5 58.5t-124.5 21.5q-67 0 -131 -21.5t-111 -60.5z" />
    <glyph glyph-name="yen" unicode="&#xa5;" horiz-adv-x="722" 
d="M204 64v-278h152v278h231v96h-231v67l29 53h202v96h-149l285 552h-167l-270 -565l-278 565h-175l293 -552h-147v-96h197l28 -53v-67h-225v-96h225z" />
    <glyph glyph-name="brokenbar" unicode="&#xa6;" horiz-adv-x="288" 
d="M165 486v400h-108v-400h108zM57 86v-399h108v399h-108z" />
    <glyph glyph-name="section" unicode="&#xa7;" horiz-adv-x="724" 
d="M443 713h136q-3 151 -83 223.5t-212 72.5q-54 0 -107.5 -16.5t-95 -50t-67.5 -81.5t-26 -111q0 -51 19.5 -92t54.5 -77q-35 -10 -66.5 -31.5t-54.5 -51t-36.5 -65.5t-13.5 -73q0 -66 24 -115.5t63 -89.5t89.5 -71t101.5 -59l102.5 -55.5t89 -56t63.5 -62.5t24 -74
q0 -33 -14.5 -58t-37 -41.5t-52 -24.5t-58.5 -8q-82 0 -131.5 50t-50.5 132h-136q9 -141 93 -221.5t228 -80.5q66 0 120.5 18t94.5 52t62 81t22 105q0 120 -94 190q72 29 119 92t47 143q0 59 -23 105t-60 82.5t-85 66t-97.5 57l-97.5 53t-85.5 53.5t-60 59t-22.5 70
q0 72 44 104.5t108 32.5q77 0 118.5 -51t43.5 -125zM139 512q54 -37 109.5 -70l111.5 -66l54.5 -34.5t55.5 -41.5t42.5 -51t16.5 -62q0 -54 -34.5 -92t-80.5 -57q-54 37 -110 70t-114 63l-59.5 36t-54.5 40.5t-39 51.5t-15 67q0 51 35 90.5t82 55.5z" />
    <glyph glyph-name="dieresis" unicode="&#xa8;" horiz-adv-x="288" 
d="M-110 727v-166h142v166h-142zM189 727v-166h144v166h-144z" />
    <glyph glyph-name="copyright" unicode="&#xa9;" horiz-adv-x="1040" 
d="M718 242h-102q-11 -72 -62.5 -118t-132.5 -46q-58 0 -103.5 23.5t-77.5 62t-49 89.5t-17 107q0 58 16 107.5t46.5 87t76 58.5t105.5 21q81 0 133 -44t65 -112h101q-19 120 -102.5 182t-198.5 62q-82 0 -147.5 -27.5t-110 -75.5t-68.5 -115t-24 -147q0 -79 24.5 -146
t71 -116t112 -77t147.5 -28q110 0 191 67.5t106 184.5zM-93 360q0 107 37.5 200t104 161t157 107t196.5 39q104 0 193.5 -39t156 -107t104 -161t37.5 -200q0 -110 -37.5 -204t-104 -162.5t-156 -108t-193.5 -39.5q-106 0 -196.5 39.5t-157 108t-104 162.5t-37.5 204z
M-202 360q0 -130 48 -239.5t130.5 -190t192 -125.5t233.5 -45q123 0 231.5 45t190.5 125.5t130 190t48 239.5q0 126 -48 235t-130 189t-190.5 125.5t-231.5 45.5q-124 0 -233.5 -45.5t-192 -125.5t-130.5 -189t-48 -235z" />
    <glyph glyph-name="ordfeminine" unicode="&#xaa;" horiz-adv-x="491" 
d="M135 361q-40 0 -70 12t-30 54q0 41 30 58t73 25q45 8 89.5 14.5t70.5 22.5v-75q0 -18 -9 -38t-28 -36t-50.5 -26.5t-75.5 -10.5zM394 412v256q0 44 -19.5 71t-49 42t-66 21t-73.5 6q-45 0 -87.5 -9t-74.5 -30t-52 -53t-21 -78h96q3 51 39 70.5t93 19.5q23 0 45.5 -2.5
t40 -10.5t28 -23.5t10.5 -42.5q0 -16 -8 -26.5t-28 -17.5t-56 -12t-92 -11q-36 -3 -70 -12.5t-61.5 -28t-44 -47.5t-16.5 -70q0 -37 15 -64.5t40.5 -45t59 -25.5t72.5 -8q118 0 187 74q5 -74 82 -74q20 0 36 3.5t32 9.5v70q-9 -3 -17 -3h-18q-13 0 -17.5 11.5t-4.5 39.5z
" />
    <glyph glyph-name="guillemotleft" unicode="&#xab;" horiz-adv-x="854" 
d="M377 521l247 400h186l-232 -400l226 -393h-185zM75 522l247 400h186l-232 -400l226 -393h-185z" />
    <glyph glyph-name="logicalnot" unicode="&#xac;" horiz-adv-x="780" 
d="M703 25v447h-806v-109h697v-338h109z" />
    <glyph glyph-name="registered" unicode="&#xae;" horiz-adv-x="1040" 
d="M277 397v222h144q27 0 55 -4t49.5 -15t35 -32t13.5 -56q0 -42 -15 -65t-40.5 -34t-58.5 -13.5t-70 -2.5h-113zM168 707v-699h109v301h115l190 -301h117l-200 309q79 8 131.5 52t52.5 138q0 101 -60 150.5t-185 49.5h-270zM-93 360q0 107 37.5 200t104 161t157 107
t196.5 39q104 0 193.5 -39t156 -107t104 -161t37.5 -200q0 -110 -37.5 -204t-104 -162.5t-156 -108t-193.5 -39.5q-106 0 -196.5 39.5t-157 108t-104 162.5t-37.5 204zM-202 360q0 -130 48 -239.5t130.5 -190t192 -125.5t233.5 -45q123 0 231.5 45t190.5 125.5t130 190
t48 239.5q0 126 -48 235t-130 189t-190.5 125.5t-231.5 45.5q-124 0 -233.5 -45.5t-192 -125.5t-130.5 -189t-48 -235z" />
    <glyph glyph-name="macron" unicode="&#xaf;" horiz-adv-x="288" 
d="M-160 692v-88h544v88h-544z" />
    <glyph glyph-name="degree" unicode="&#xb0;" horiz-adv-x="520" 
d="M50 565q0 29 10 55.5t29.5 48t47.5 34t63 12.5t63 -12.5t47.5 -34t29.5 -48t10 -55.5t-10 -55.5t-29.5 -48t-47.5 -34t-63 -12.5t-63 12.5t-47.5 34t-29.5 48t-10 55.5zM-30 565q0 -48 17.5 -90.5t48.5 -73.5t73.5 -48.5t90.5 -17.5t89.5 17.5t73 48.5t49.5 73.5t18 90.5
t-18 89.5t-49.5 73t-73 49.5t-89.5 18t-90.5 -18t-73.5 -49.5t-48.5 -73t-17.5 -89.5z" />
    <glyph glyph-name="plusminus" unicode="&#xb1;" horiz-adv-x="780" 
d="M-103 -43v-109h806v109h-806zM-103 391v-109h349v-267h108v267h349v109h-349v265h-108v-265h-349z" />
    <glyph glyph-name="twosuperior" unicode="&#xb2;" horiz-adv-x="431" 
d="M-66 591h109q0 63 29.5 111t101.5 48q56 0 94.5 -30.5t38.5 -81.5q0 -36 -11.5 -63t-34.5 -50t-58 -45.5t-82 -49.5q-38 -23 -73.5 -47t-62.5 -55t-44 -73.5t-20 -103.5h485v88h-376q6 26 26 46.5t48 40t62.5 38.5t68.5 40q33 19 66 41.5t58 49.5t41 61.5t16 79.5
q0 48 -18.5 85.5t-51.5 63t-76 39.5t-91 14q-112 0 -178.5 -68t-66.5 -179z" />
    <glyph glyph-name="threesuperior" unicode="&#xb3;" horiz-adv-x="433" 
d="M112 549v-80h53q29 0 55.5 -6.5t47 -22t33.5 -38.5t13 -57q0 -54 -45 -84.5t-106 -30.5q-144 0 -147 138h-109q0 -56 20 -98.5t54.5 -70.5t82 -42.5t99.5 -14.5t98 13t82 38.5t58 64.5t22 92q0 61 -34 106t-106 57v4q45 17 77 53t32 83q0 46 -17.5 81t-48.5 58.5
t-73.5 35.5t-92.5 12q-107 0 -168.5 -60t-68.5 -166h109q0 59 30.5 98.5t97.5 39.5q53 0 88 -25.5t35 -73.5q0 -56 -40 -80t-92 -24h-39z" />
    <glyph glyph-name="acute" unicode="&#xb4;" horiz-adv-x="266" 
d="M129 774l-137 -229h102l210 229h-175z" />
    <glyph glyph-name="mu" unicode="&#xb5;" horiz-adv-x="722" 
d="M620 -96v827h-136v-467q0 -56 -15 -103t-45.5 -82.5t-76 -54.5t-107.5 -19q-79 0 -123.5 44.5t-44.5 121.5v560h-136v-1142h136v357h3q21 -32 57.5 -46t87.5 -14q92 0 159 36t110 113h3v-131h128z" />
    <glyph glyph-name="paragraph" unicode="&#xb6;" horiz-adv-x="791" 
d="M655 -414v1388h-382q-170 0 -267.5 -85.5t-97.5 -243.5q0 -63 25 -117t69 -94t105.5 -63.5t134.5 -23.5v-761h109v1300h195v-1300h109z" />
    <glyph glyph-name="periodcentered" unicode="&#xb7;" horiz-adv-x="405" 
d="M326 768q0 -50 -35.5 -85t-85.5 -35q-49 0 -84.5 35.5t-35.5 84.5t34.5 85t83.5 36q51 0 87 -35t36 -86z" />
    <glyph glyph-name="periodcentered" unicode="&#x2d9;" horiz-adv-x="405" 
d="M326 768q0 -50 -35.5 -85t-85.5 -35q-49 0 -84.5 35.5t-35.5 84.5t34.5 85t83.5 36q51 0 87 -35t36 -86z" />
    <glyph glyph-name="cedilla" unicode="&#xb8;" horiz-adv-x="287" 
d="M-31 -171l-29 -70q37 -13 73 -22t74 -9q34 0 69 7.5t64 24t47.5 44t18.5 67.5q0 59 -41.5 88t-93.5 29q-36 0 -52 -12l-4 4l68 83h-68l-97 -123l27 -45q18 6 32 9.5t34 3.5q32 0 53.5 -14t21.5 -36q0 -14 -9.5 -23t-24 -15.5t-32 -9t-33.5 -2.5q-26 0 -52.5 6.5
t-45.5 14.5z" />
    <glyph glyph-name="onesuperior" unicode="&#xb9;" horiz-adv-x="438" 
d="M304 151v687h-80q-16 -66 -75 -90t-138 -24v-80h184v-493h109z" />
    <glyph glyph-name="ordmasculine" unicode="&#xba;" horiz-adv-x="499" 
d="M192 728q26 0 54 -7.5t51 -28t38 -57.5t15 -95q0 -35 -8.5 -67.5t-27 -57.5t-48 -39.5t-72.5 -14.5q-44 0 -74 14.5t-49.5 40t-28 58.5t-8.5 68q0 96 45.5 141t112.5 45zM192 808q-64 0 -114.5 -21t-84 -57t-51 -84t-17.5 -104q0 -58 18.5 -105t52.5 -82t84 -54.5
t114 -19.5q131 0 198 73t67 188q0 56 -17.5 105t-51 85t-83 56t-115.5 20z" />
    <glyph glyph-name="guillemotright" unicode="&#xbb;" horiz-adv-x="854" 
d="M483 529l-247 -400h-186l232 400l-226 393h185zM785 528l-247 -400h-186l232 400l-226 393h185z" />
    <glyph glyph-name="onequarter" unicode="&#xbc;" horiz-adv-x="1088" 
d="M105 239v686h-80q-16 -67 -75.5 -90.5t-137.5 -23.5v-80h184v-492h109zM690 951l-696 -1204h103l696 1204h-103zM572 32l237 309h3v-309h-240zM911 32v445h-81l-336 -440v-93h318v-153h99v153h96v88h-96z" />
    <glyph glyph-name="onehalf" unicode="&#xbd;" horiz-adv-x="1082" 
d="M552 231h108q0 62 30 110t102 48q56 0 94 -30.5t38 -81.5q0 -35 -11 -62.5t-34 -50.5t-58.5 -45.5l-81.5 -49.5q-39 -22 -74 -46t-62 -55.5t-44 -74t-20 -102.5h485v88h-376q6 25 26 46t48 40t62.5 38.5l67.5 39.5q34 20 67 42t57.5 49.5t40.5 62t16 78.5q0 48 -18.5 86
t-51 63.5t-76 39t-91.5 13.5q-112 0 -178 -68t-66 -178zM99 239v686h-80q-16 -67 -75.5 -90.5t-137.5 -23.5v-80h184v-492h109zM660 951l-696 -1204h103l696 1204h-103z" />
    <glyph glyph-name="threequarters" unicode="&#xbe;" horiz-adv-x="1079" 
d="M28 634v-80h53q29 0 55.5 -6.5t47 -21.5t33.5 -38.5t13 -56.5q0 -55 -45 -85.5t-105 -30.5q-144 0 -148 138h-108q0 -56 20 -98.5t54 -70.5t81.5 -42.5t100.5 -14.5q51 0 97.5 13t82.5 38.5t57.5 65t21.5 91.5q0 61 -33.5 106t-105.5 58v3q44 17 76 53t32 83
q0 46 -17.5 81.5t-48.5 58.5t-73.5 35t-92.5 12q-107 0 -168.5 -60t-67.5 -166h108q0 60 30.5 99t97.5 39q53 0 88.5 -25.5t35.5 -73.5q0 -56 -40 -80t-93 -24h-39zM785 951l-696 -1204h103l696 1204h-103zM592 26l236 309h4v-309h-240zM929 32v445h-81l-336 -440v-93h318
v-153h99v153h96v88h-96z" />
    <glyph glyph-name="questiondown" unicode="&#xbf;" horiz-adv-x="718" 
d="M368 557v178h-178v-178h178zM633 -44h-136q0 -55 -12.5 -103t-40.5 -83t-69.5 -56t-99.5 -21q-86 0 -136.5 49.5t-57.5 137.5q-3 58 14.5 99.5t47.5 76t64 65.5t65.5 68t53 85t24.5 114v62h-136v-50q0 -40 -12 -73.5t-32 -61.5t-44.5 -52.5l-50.5 -48.5q-27 -26 -52 -53
t-44 -59t-30.5 -71.5t-11.5 -87.5q0 -77 25 -136t70 -100t107 -62.5t136 -21.5q83 0 150.5 29.5t114.5 81t71 121t22 151.5z" />
    <glyph glyph-name="Agrave" unicode="&#xc0;" horiz-adv-x="841" 
d="M109 1180l210 -228h102l-138 228h-174zM127 200l193 532h3l191 -532h-387zM240 870l-445 -1142h156l128 344h483l125 -344h168l-447 1142h-168z" />
    <glyph glyph-name="Aacute" unicode="&#xc1;" horiz-adv-x="841" 
d="M363 1180l-137 -228h102l210 228h-175zM127 200l193 532h3l191 -532h-387zM240 870l-445 -1142h156l128 344h483l125 -344h168l-447 1142h-168z" />
    <glyph glyph-name="Acircumflex" unicode="&#xc2;" horiz-adv-x="841" 
d="M248 1180l-165 -228h124l112 153l110 -153h134l-166 228h-149zM127 200l193 532h3l191 -532h-387zM240 870l-445 -1142h156l128 344h483l125 -344h168l-447 1142h-168z" />
    <glyph glyph-name="Atilde" unicode="&#xc3;" horiz-adv-x="841" 
d="M602 1154h-83q-8 -24 -25 -47t-49 -23q-26 0 -52 10.5l-53.5 22.5t-57 21.5t-61.5 9.5q-38 0 -65.5 -14.5t-46.5 -38.5t-32.5 -56t-23.5 -67h83q-3 30 24 48.5t53 18.5q22 0 50 -9.5t57 -20.5q29 -13 57 -22.5t49 -9.5q46 0 75.5 13.5t50.5 35.5q40 56 50 128zM127 206
l193 532h3l191 -532h-387zM240 876l-445 -1142h156l128 344h483l125 -344h168l-447 1142h-168z" />
    <glyph glyph-name="Adieresis" unicode="&#xc4;" horiz-adv-x="841" 
d="M101 1135v-167h144v167h-144zM402 1135v-167h144v167h-144zM127 210l193 533h3l191 -533h-387zM240 880l-445 -1142h156l128 344h483l125 -344h168l-447 1142h-168z" />
    <glyph glyph-name="Aring" unicode="&#xc5;" horiz-adv-x="841" 
d="M143 1057q0 -37 14 -70t39 -57.5t58 -39t69 -14.5q37 0 70 14.5t57.5 39t39 57.5t14.5 70t-14.5 69.5t-39 57.5t-57.5 39.5t-70 14.5q-36 0 -69 -14.5t-58 -39.5t-39 -57.5t-14 -69.5zM215 1057q0 46 31 77.5t77 31.5q47 0 78 -31.5t31 -77.5q0 -47 -31 -78t-78 -31
q-46 0 -77 31t-31 78zM127 186l193 533h3l191 -533h-387zM240 857l-445 -1143h156l128 344h483l125 -344h168l-447 1143h-168z" />
    <glyph glyph-name="AE" unicode="&#xc6;" horiz-adv-x="1214" 
d="M384 800h66v-553h-334zM300 928l-576 -1142h169l163 333h394v-333h715v128h-571v395h528v128h-528v363h562v128h-856z" />
    <glyph glyph-name="Ccedilla" unicode="&#xc7;" horiz-adv-x="937" 
d="M710 642h152q-12 91 -54 160.5t-104 116t-142 70.5t-170 24q-131 0 -232.5 -47t-169.5 -129t-103.5 -191.5t-35.5 -234.5q0 -120 29.5 -223t88 -181.5t148 -127t209.5 -58.5l-78 -101l27 -45q18 7 32.5 10t33.5 3q32 0 53.5 -13.5t21.5 -35.5q0 -15 -9.5 -23.5t-24 -15
t-32 -9t-33.5 -2.5q-26 0 -52.5 6.5t-45.5 14.5l-29 -71q37 -12 73 -21t75 -9q33 0 68.5 7t64 24t47 44t18.5 67q0 60 -41.5 88.5t-92.5 28.5q-37 0 -53 -11l-3 3l46 59q211 4 335 124t147 331h-152q-5 -71 -29 -131.5t-66.5 -104.5t-101 -69t-133.5 -25q-102 0 -176 38.5
t-121 103.5t-69.5 152t-22.5 185q0 89 22.5 172.5t69.5 148t120 103t175 38.5q120 0 207.5 -61t112.5 -182z" />
    <glyph glyph-name="Egrave" unicode="&#xc8;" horiz-adv-x="782" 
d="M80 1180l209 -228h103l-138 228h-174zM-71 870v-1142h794v128h-642v395h594v128h-594v363h637v128h-789z" />
    <glyph glyph-name="Eacute" unicode="&#xc9;" horiz-adv-x="782" 
d="M334 1180l-138 -228h103l209 228h-174zM-71 870v-1142h794v128h-642v395h594v128h-594v363h637v128h-789z" />
    <glyph glyph-name="Ecircumflex" unicode="&#xca;" horiz-adv-x="782" 
d="M219 1180l-165 -228h123l112 153l111 -153h134l-166 228h-149zM-71 870v-1142h794v128h-642v395h594v128h-594v363h637v128h-789z" />
    <glyph glyph-name="Edieresis" unicode="&#xcb;" horiz-adv-x="782" 
d="M72 1135v-167h144v167h-144zM372 1135v-167h144v167h-144zM-71 880v-1142h794v128h-642v395h594v128h-594v363h637v128h-789z" />
    <glyph glyph-name="Igrave" unicode="&#xcc;" horiz-adv-x="358" 
d="M-61 1180l208 -228h102l-137 228h-173zM75 870v-1142h152v1142h-152z" />
    <glyph glyph-name="Iacute" unicode="&#xcd;" horiz-adv-x="314" 
d="M148 1180l-138 -228h103l209 228h-174zM31 870v-1142h152v1142h-152z" />
    <glyph glyph-name="Icircumflex" unicode="&#xce;" horiz-adv-x="336" 
d="M54 1180l-163 -228h122l112 153l110 -153h135l-167 228h-149zM53 870v-1142h152v1142h-152z" />
    <glyph glyph-name="Idieresis" unicode="&#xcf;" horiz-adv-x="336" 
d="M-91 1135v-167h142v167h-142zM208 1135v-167h144v167h-144zM53 880v-1142h152v1142h-152z" />
    <glyph glyph-name="Eth" unicode="&#xd0;" horiz-adv-x="924" 
d="M75 437v363h256q105 0 177 -29.5t117.5 -86.5t65.5 -137.5t20 -183.5q0 -105 -21.5 -179.5t-55 -124t-76 -78.5t-85.5 -44t-81.5 -19t-64.5 -4h-252v414h342v109h-342zM-77 328v-542h392q142 0 246 40t171 116t99 187t32 255q0 275 -142 409.5t-406 134.5h-392v-491h-112
v-109h112z" />
    <glyph glyph-name="Ntilde" unicode="&#xd1;" horiz-adv-x="938" 
d="M639 1154h-83q-8 -24 -25 -47t-49 -23q-25 0 -51.5 10.5t-53.5 22.5t-57 21.5t-62 9.5q-38 0 -65 -14.5t-46.5 -38.5t-33 -56t-23.5 -67h84q-4 30 23.5 48.5t52.5 18.5q23 0 51 -9.5t57 -20.5q28 -13 56 -22.5t49 -9.5q47 0 76.5 13.5t50.5 35.5q40 56 49 128zM-94 876
v-1142h144v916h4l596 -916h167v1142h-144v-926h-3l-602 926h-162z" />
    <glyph glyph-name="Ograve" unicode="&#xd2;" horiz-adv-x="988" 
d="M166 1185l209 -229h103l-138 229h-174zM-15 304q0 86 22.5 170t70.5 151t123 108t179 41t179 -41t123 -108t70.5 -151t22.5 -170q0 -87 -22.5 -171t-70.5 -151t-123 -108t-179 -41t-179 41t-123 108t-70.5 151t-22.5 171zM-167 304q0 -117 34.5 -225t103 -191.5t171 -132
t238.5 -48.5t238.5 48.5t171 132t103 191.5t34.5 225q0 116 -34.5 224t-103 191.5t-171 133t-238.5 49.5t-238.5 -49.5t-171 -133t-103 -191.5t-34.5 -224z" />
    <glyph glyph-name="Oacute" unicode="&#xd3;" horiz-adv-x="988" 
d="M420 1185l-138 -229h103l209 229h-174zM-15 304q0 86 22.5 170t70.5 151t123 108t179 41t179 -41t123 -108t70.5 -151t22.5 -170q0 -87 -22.5 -171t-70.5 -151t-123 -108t-179 -41t-179 41t-123 108t-70.5 151t-22.5 171zM-167 304q0 -117 34.5 -225t103 -191.5t171 -132
t238.5 -48.5t238.5 48.5t171 132t103 191.5t34.5 225q0 116 -34.5 224t-103 191.5t-171 133t-238.5 49.5t-238.5 -49.5t-171 -133t-103 -191.5t-34.5 -224z" />
    <glyph glyph-name="Ocircumflex" unicode="&#xd4;" horiz-adv-x="988" 
d="M305 1185l-165 -229h123l112 154l111 -154h134l-166 229h-149zM-15 304q0 86 22.5 170t70.5 151t123 108t179 41t179 -41t123 -108t70.5 -151t22.5 -170q0 -87 -22.5 -171t-70.5 -151t-123 -108t-179 -41t-179 41t-123 108t-70.5 151t-22.5 171zM-167 304
q0 -117 34.5 -225t103 -191.5t171 -132t238.5 -48.5t238.5 48.5t171 132t103 191.5t34.5 225q0 116 -34.5 224t-103 191.5t-171 133t-238.5 49.5t-238.5 -49.5t-171 -133t-103 -191.5t-34.5 -224z" />
    <glyph glyph-name="Otilde" unicode="&#xd5;" horiz-adv-x="988" 
d="M658 1159h-83q-8 -24 -24.5 -47t-48.5 -23q-26 0 -52.5 10.5t-53.5 22.5t-56.5 21.5t-61.5 9.5q-39 0 -66 -14.5t-46.5 -38.5t-33 -56t-22.5 -67h83q-3 30 24 48.5t53 18.5q22 0 50 -9.5t57 -20.5q29 -13 57 -22.5t48 -9.5q47 0 76.5 13.5t50.5 35.5q40 56 49 128z
M-15 310q0 86 22.5 170t70.5 151t123 108t179 41t179 -41t123 -108t70.5 -151t22.5 -170q0 -87 -22.5 -171t-70.5 -151t-123 -108t-179 -41t-179 41t-123 108t-70.5 151t-22.5 171zM-167 310q0 -117 34.5 -225t103 -191.5t171 -132t238.5 -48.5t238.5 48.5t171 132
t103 191.5t34.5 225q0 116 -34.5 224t-103 191.5t-171 133t-238.5 49.5t-238.5 -49.5t-171 -133t-103 -191.5t-34.5 -224z" />
    <glyph glyph-name="Odieresis" unicode="&#xd6;" horiz-adv-x="988" 
d="M158 1140v-167h144v167h-144zM458 1140v-167h144v167h-144zM-15 314q0 86 22.5 170t70.5 151.5t123 108t179 40.5t179 -40.5t123 -108t70.5 -151.5t22.5 -170t-22.5 -170t-70.5 -151.5t-123 -108t-179 -40.5t-179 40.5t-123 108t-70.5 151.5t-22.5 170zM-167 314
q0 -117 34.5 -225t103 -191t171 -132t238.5 -49t238.5 49t171 132t103 191t34.5 225t-34.5 225t-103 191t-171 132.5t-238.5 49.5t-238.5 -49.5t-171 -132.5t-103 -191t-34.5 -225z" />
    <glyph glyph-name="multiply" unicode="&#xd7;" horiz-adv-x="981" 
d="M758 -11l-351 350l-347 -347l-146 146l348 347l-349 349l149 148l347 -348l349 347l145 -146l-347 -347l350 -350z" />
    <glyph glyph-name="Oslash" unicode="&#xd8;" horiz-adv-x="988" 
d="M929 906l-51 48l-127 -139q-67 67 -159 104t-212 37q-136 0 -238.5 -49.5t-171 -133t-103 -191.5t-34.5 -224t32.5 -221.5t100.5 -186.5l-135 -148l53 -46l130 141q67 -64 158 -100t208 -36q136 0 238.5 48.5t171 132t103 191.5t34.5 225q0 115 -31 218t-98 186zM108 1
l590 651q40 -62 58.5 -139t18.5 -155q0 -87 -22.5 -171t-70.5 -151t-123 -108t-179 -41q-91 0 -158.5 30.5t-113.5 83.5zM655 710l-590 -652q-42 64 -61 141t-19 159q0 86 22.5 170t70.5 151t123 108t179 41q91 0 160 -32t115 -86z" />
    <glyph glyph-name="Ugrave" unicode="&#xd9;" horiz-adv-x="938" 
d="M147 1185l209 -229h103l-138 229h-174zM820 145v730h-152v-730q0 -153 -76 -232.5t-221 -79.5q-154 0 -235.5 79.5t-81.5 232.5v730h-152v-730q0 -229 124 -333.5t345 -104.5q216 0 332.5 109.5t116.5 328.5z" />
    <glyph glyph-name="Uacute" unicode="&#xda;" horiz-adv-x="938" 
d="M401 1185l-138 -229h103l209 229h-174zM820 145v730h-152v-730q0 -153 -76 -232.5t-221 -79.5q-154 0 -235.5 79.5t-81.5 232.5v730h-152v-730q0 -229 124 -333.5t345 -104.5q216 0 332.5 109.5t116.5 328.5z" />
    <glyph glyph-name="Ucircumflex" unicode="&#xdb;" horiz-adv-x="938" 
d="M286 1185l-165 -229h123l112 154l111 -154h134l-166 229h-149zM820 145v730h-152v-730q0 -153 -76 -232.5t-221 -79.5q-154 0 -235.5 79.5t-81.5 232.5v730h-152v-730q0 -229 124 -333.5t345 -104.5q216 0 332.5 109.5t116.5 328.5z" />
    <glyph glyph-name="Udieresis" unicode="&#xdc;" horiz-adv-x="938" 
d="M139 1140v-167h144v167h-144zM439 1140v-167h144v167h-144zM820 156v729h-152v-729q0 -154 -76 -233t-221 -79q-154 0 -235.5 79t-81.5 233v729h-152v-729q0 -229 124 -334t345 -105q216 0 332.5 109.5t116.5 329.5z" />
    <glyph glyph-name="Yacute" unicode="&#xdd;" horiz-adv-x="842" 
d="M364 1180l-138 -228h103l209 228h-174zM402 195l437 675h-173l-334 -544l-342 544h-181l441 -675v-467h152v467z" />
    <glyph glyph-name="Thorn" unicode="&#xde;" horiz-adv-x="830" 
d="M70 199v419h298q130 0 190 -53t60 -158q0 -103 -60 -156.5t-190 -51.5h-298zM-82 -214h152v285h349q173 -2 262 87t89 249t-89 249.5t-262 89.5h-349v182h-152v-1142z" />
    <glyph glyph-name="germandbls" unicode="&#xdf;" horiz-adv-x="720" 
d="M-67 634v-850h136v826q0 67 14.5 110t39 68t60 35.5t76.5 10.5q39 0 71 -14.5t56 -38.5t37.5 -57t13.5 -71q0 -55 -20 -92.5t-53.5 -59t-77.5 -29.5t-92 -5v-109q67 0 121.5 -8t92.5 -33.5t59 -72.5t21 -126q0 -105 -65 -169t-175 -64q-13 0 -27.5 0.5t-26.5 4.5v-117
q32 -7 68 -7q82 0 150 26.5t117 75.5t76 117t27 151q0 53 -13.5 101.5t-41 87t-68 65t-95.5 32.5v4q92 28 129.5 92t37.5 156q0 70 -29.5 122t-77 87t-106.5 53t-118 18q-72 0 -130.5 -23.5t-100 -66t-64 -100.5t-22.5 -130z" />
    <glyph glyph-name="agrave" unicode="&#xe0;" horiz-adv-x="691" 
d="M49 954l209 -229h103l-138 229h-174zM668 -213v106q-24 -8 -42 -8q-32 0 -37.5 22.5t-5.5 70.5v425q0 72 -27 117t-72 69.5t-100 32.5t-111 8q-69 0 -131.5 -14t-110.5 -47t-77 -86t-32 -129h136q5 91 62.5 123.5t144.5 32.5q32 0 64.5 -4.5t59 -19t43.5 -41.5t17 -72
q0 -39 -22.5 -59t-61 -30t-89 -16t-106.5 -17q-53 -9 -103 -23.5t-89.5 -42.5t-63.5 -73t-24 -115q0 -63 21.5 -107t59.5 -72t87.5 -40t105.5 -12q86 0 160.5 30t130.5 97q0 -67 31 -97t84 -30q63 0 98 21zM447 211v-139q0 -29 -14.5 -61.5t-45 -60.5t-78.5 -46.5
t-115 -18.5q-30 0 -59.5 6.5t-51.5 20.5t-35.5 37.5t-13.5 56.5q0 52 23.5 81.5t60 45.5t83 23t92 12.5t87 14.5t67.5 28z" />
    <glyph glyph-name="aacute" unicode="&#xe1;" horiz-adv-x="691" 
d="M303 954l-138 -229h103l209 229h-174zM668 -213v106q-24 -8 -42 -8q-32 0 -37.5 22.5t-5.5 70.5v425q0 72 -27 117t-72 69.5t-100 32.5t-111 8q-69 0 -131.5 -14t-110.5 -47t-77 -86t-32 -129h136q5 91 62.5 123.5t144.5 32.5q32 0 64.5 -4.5t59 -19t43.5 -41.5t17 -72
q0 -39 -22.5 -59t-61 -30t-89 -16t-106.5 -17q-53 -9 -103 -23.5t-89.5 -42.5t-63.5 -73t-24 -115q0 -63 21.5 -107t59.5 -72t87.5 -40t105.5 -12q86 0 160.5 30t130.5 97q0 -67 31 -97t84 -30q63 0 98 21zM447 211v-139q0 -29 -14.5 -61.5t-45 -60.5t-78.5 -46.5
t-115 -18.5q-30 0 -59.5 6.5t-51.5 20.5t-35.5 37.5t-13.5 56.5q0 52 23.5 81.5t60 45.5t83 23t92 12.5t87 14.5t67.5 28z" />
    <glyph glyph-name="acircumflex" unicode="&#xe2;" horiz-adv-x="691" 
d="M188 954l-165 -229h123l112 153l111 -153h134l-166 229h-149zM668 -213v106q-24 -8 -42 -8q-32 0 -37.5 22.5t-5.5 70.5v425q0 72 -27 117t-72 69.5t-100 32.5t-111 8q-69 0 -131.5 -14t-110.5 -47t-77 -86t-32 -129h136q5 91 62.5 123.5t144.5 32.5q32 0 64.5 -4.5
t59 -19t43.5 -41.5t17 -72q0 -39 -22.5 -59t-61 -30t-89 -16t-106.5 -17q-53 -9 -103 -23.5t-89.5 -42.5t-63.5 -73t-24 -115q0 -63 21.5 -107t59.5 -72t87.5 -40t105.5 -12q86 0 160.5 30t130.5 97q0 -67 31 -97t84 -30q63 0 98 21zM447 211v-139q0 -29 -14.5 -61.5
t-45 -60.5t-78.5 -46.5t-115 -18.5q-30 0 -59.5 6.5t-51.5 20.5t-35.5 37.5t-13.5 56.5q0 52 23.5 81.5t60 45.5t83 23t92 12.5t87 14.5t67.5 28z" />
    <glyph glyph-name="atilde" unicode="&#xe3;" horiz-adv-x="691" 
d="M541 928h-83q-8 -24 -24.5 -47.5t-48.5 -23.5q-26 0 -52.5 10.5t-53.5 22.5t-56.5 21.5t-61.5 9.5q-39 0 -66 -14.5t-46.5 -38.5t-33 -56t-22.5 -67h83q-3 31 24 49t53 18q22 0 50 -9.5t57 -20.5q29 -13 57 -22.5t48 -9.5q47 0 76.5 13.5t50.5 36.5q40 56 49 128z
M668 -207v106q-24 -8 -42 -8q-32 0 -37.5 22.5t-5.5 70.5v425q0 72 -27 117t-72 69.5t-100 32.5t-111 8q-69 0 -131.5 -14t-110.5 -47t-77 -86t-32 -129h136q5 91 62.5 123.5t144.5 32.5q32 0 64.5 -4.5t59 -19t43.5 -41.5t17 -72q0 -39 -22.5 -59t-61 -30t-89 -16
t-106.5 -17q-53 -9 -103 -23.5t-89.5 -42.5t-63.5 -73t-24 -115q0 -63 21.5 -107t59.5 -72t87.5 -40t105.5 -12q86 0 160.5 30t130.5 97q0 -67 31 -97t84 -30q63 0 98 21zM447 217v-139q0 -29 -14.5 -61.5t-45 -60.5t-78.5 -46.5t-115 -18.5q-30 0 -59.5 6.5t-51.5 20.5
t-35.5 37.5t-13.5 56.5q0 52 23.5 81.5t60 45.5t83 23t92 12.5t87 14.5t67.5 28z" />
    <glyph glyph-name="adieresis" unicode="&#xe4;" horiz-adv-x="691" 
d="M41 908v-166h144v166h-144zM341 908v-166h144v166h-144zM668 -202v105q-24 -8 -42 -8q-32 0 -37.5 22.5t-5.5 70.5v426q0 72 -27 116.5t-72 69.5t-100 33t-111 8q-69 0 -131.5 -14.5t-110.5 -47.5t-77 -85.5t-32 -129.5h136q5 91 62.5 124t144.5 33q32 0 64.5 -5
t59 -19.5t43.5 -41.5t17 -72q0 -38 -22.5 -58t-61 -30.5t-89 -16t-106.5 -16.5q-53 -10 -103 -24.5t-89.5 -42.5t-63.5 -72.5t-24 -115.5q0 -62 21.5 -106t59.5 -72t87.5 -40t105.5 -12q86 0 160.5 29.5t130.5 96.5q0 -67 31 -96.5t84 -29.5q63 0 98 21zM447 222v-140
q0 -28 -14.5 -61t-45 -61t-78.5 -46.5t-115 -18.5q-30 0 -59.5 6.5t-51.5 21t-35.5 37.5t-13.5 57q0 51 23.5 80.5t60 45.5t83 23.5t92 13t87 14t67.5 28.5z" />
    <glyph glyph-name="aring" unicode="&#xe5;" horiz-adv-x="691" 
d="M82 830q0 -37 14.5 -69.5t39.5 -57.5t57.5 -39.5t69.5 -14.5t69.5 14.5t57.5 39.5t39.5 57.5t14.5 69.5t-14.5 69.5t-39.5 57.5t-57.5 39.5t-69.5 14.5t-69.5 -14.5t-57.5 -39.5t-39.5 -57.5t-14.5 -69.5zM154 830q0 46 31.5 77.5t77.5 31.5t77.5 -31.5t31.5 -77.5
t-31.5 -77.5t-77.5 -31.5t-77.5 31.5t-31.5 77.5zM668 -226v106q-24 -8 -42 -8q-32 0 -37.5 22t-5.5 70v426q0 72 -27 117t-72 69.5t-100 32.5t-111 8q-69 0 -131.5 -14.5t-110.5 -47t-77 -85.5t-32 -130h136q5 92 62.5 124.5t144.5 32.5q32 0 64.5 -4.5t59 -19t43.5 -42
t17 -71.5q0 -39 -22.5 -59t-61 -30.5t-89 -16t-106.5 -16.5q-53 -10 -103 -24t-89.5 -42t-63.5 -73t-24 -115q0 -63 21.5 -107t59.5 -72t87.5 -40t105.5 -12q86 0 160.5 29.5t130.5 97.5q0 -68 31 -97.5t84 -29.5q63 0 98 21zM447 198v-139q0 -29 -14.5 -62t-45 -61
t-78.5 -46t-115 -18q-30 0 -59.5 6t-51.5 20.5t-35.5 38t-13.5 56.5q0 51 23.5 81t60 46t83 23t92 12.5t87 14.5t67.5 28z" />
    <glyph glyph-name="ae" unicode="&#xe6;" horiz-adv-x="1127" 
d="M483 217h606q0 96 -17.5 182.5t-61 151.5t-114.5 102.5t-180 37.5q-75 0 -148.5 -28t-115.5 -92q-19 38 -51 62t-70.5 37t-78.5 17t-77 4q-68 0 -130.5 -14.5t-110.5 -47t-77 -85.5t-32 -130h136q5 91 62.5 124t143.5 33q34 0 67.5 -4t60 -17.5t43.5 -39t17 -67.5
q0 -37 -16 -57t-50 -32t-87.5 -20t-128.5 -22q-53 -10 -103.5 -24.5t-89.5 -42.5t-63 -72.5t-24 -115.5q0 -62 21.5 -106t59 -72t89 -40t110.5 -12q115 0 208.5 37.5t140.5 122.5q21 -46 52 -76.5t70 -49t84 -26.5t93 -8q141 0 234.5 71t123.5 207h-139q-19 -81 -76 -120.5
t-133 -39.5q-63 0 -110 22t-77.5 59.5t-45.5 87t-15 103.5zM-63 67q0 38 13.5 64t36 42.5t53 26t63.5 16.5q32 6 68 11t70 10.5t63.5 13.5t50.5 21v-139q0 -29 -15.5 -62t-46.5 -61t-80 -46.5t-116 -18.5q-30 0 -60 6.5t-51.5 21t-35 37.5t-13.5 57zM945 337h-462
q0 52 16 94t46 73.5t73.5 49t97.5 17.5q55 0 97 -18.5t71 -49.5t44 -74.5t17 -91.5z" />
    <glyph glyph-name="ccedilla" unicode="&#xe7;" horiz-adv-x="696" 
d="M501 466h141q-8 73 -38.5 126.5t-77.5 89t-108.5 52t-132.5 16.5q-97 0 -170.5 -34t-122.5 -94t-73 -141t-24 -174q0 -88 22.5 -161.5t65.5 -128t108 -88t150 -39.5l-85 -109l27 -45q18 6 32 9.5t34 3.5q32 0 53.5 -13.5t21.5 -36.5q0 -14 -9.5 -23t-24 -15.5t-32 -8.5
t-33.5 -2q-26 0 -52.5 6t-45.5 14l-29 -70q37 -13 73 -21.5t74 -8.5q34 0 69 7t64 24t47.5 44t18.5 67q0 59 -41.5 88t-93.5 29q-36 0 -52 -11l-4 3l53 67q146 6 232.5 89.5t108.5 228.5h-139q-13 -96 -70 -148.5t-157 -52.5q-64 0 -110.5 25.5t-75.5 68t-42.5 97
t-13.5 111.5q0 63 13 121t42.5 103t79 72t123.5 27q86 0 137 -43t67 -121z" />
    <glyph glyph-name="egrave" unicode="&#xe8;" horiz-adv-x="694" 
d="M51 954l210 -229h102l-137 229h-175zM512 277h-475q3 48 20.5 90.5t48 74.5t73 50t95.5 18q51 0 93.5 -18t73.5 -49.5t49.5 -74.5t21.5 -91zM643 46h-134q-18 -81 -73 -121t-142 -40q-67 0 -116.5 22.5t-81.5 60t-46.5 86t-12.5 103.5h619q3 75 -13.5 158t-60.5 153.5
t-117 116t-183 45.5q-85 0 -156.5 -32t-123.5 -89.5t-80.5 -136t-28.5 -172.5q3 -94 28 -174t74.5 -138t122 -90t172.5 -32q140 0 233 70.5t120 209.5z" />
    <glyph glyph-name="eacute" unicode="&#xe9;" horiz-adv-x="694" 
d="M306 954l-138 -229h102l210 229h-174zM512 277h-475q3 48 20.5 90.5t48 74.5t73 50t95.5 18q51 0 93.5 -18t73.5 -49.5t49.5 -74.5t21.5 -91zM643 46h-134q-18 -81 -73 -121t-142 -40q-67 0 -116.5 22.5t-81.5 60t-46.5 86t-12.5 103.5h619q3 75 -13.5 158t-60.5 153.5
t-117 116t-183 45.5q-85 0 -156.5 -32t-123.5 -89.5t-80.5 -136t-28.5 -172.5q3 -94 28 -174t74.5 -138t122 -90t172.5 -32q140 0 233 70.5t120 209.5z" />
    <glyph glyph-name="ecircumflex" unicode="&#xea;" horiz-adv-x="694" 
d="M190 954l-164 -229h123l112 153l110 -153h135l-167 229h-149zM512 277h-475q3 48 20.5 90.5t48 74.5t73 50t95.5 18q51 0 93.5 -18t73.5 -49.5t49.5 -74.5t21.5 -91zM643 46h-134q-18 -81 -73 -121t-142 -40q-67 0 -116.5 22.5t-81.5 60t-46.5 86t-12.5 103.5h619
q3 75 -13.5 158t-60.5 153.5t-117 116t-183 45.5q-85 0 -156.5 -32t-123.5 -89.5t-80.5 -136t-28.5 -172.5q3 -94 28 -174t74.5 -138t122 -90t172.5 -32q140 0 233 70.5t120 209.5z" />
    <glyph glyph-name="edieresis" unicode="&#xeb;" horiz-adv-x="694" 
d="M43 908v-166h144v166h-144zM344 908v-166h144v166h-144zM512 287h-475q3 48 20.5 90.5t48 74.5t73 50.5t95.5 18.5q51 0 93.5 -18.5t73.5 -49.5t49.5 -74.5t21.5 -91.5zM643 57h-134q-18 -82 -73 -122t-142 -40q-67 0 -116.5 22.5t-81.5 60t-46.5 86.5t-12.5 103h619
q3 75 -13.5 158.5t-60.5 154t-117 116t-183 45.5q-85 0 -156.5 -32t-123.5 -89.5t-80.5 -136t-28.5 -173.5q3 -94 28 -174t74.5 -137.5t122 -89.5t172.5 -32q140 0 233 70.5t120 209.5z" />
    <glyph glyph-name="igrave" unicode="&#xec;" horiz-adv-x="310" 
d="M-80 950l208 -228h102l-137 228h-173zM65 -219h136v827h-136v-827z" />
    <glyph glyph-name="iacute" unicode="&#xed;" horiz-adv-x="266" 
d="M129 950l-137 -228h102l210 228h-175zM22 -219h136v827h-136v-827z" />
    <glyph glyph-name="icircumflex" unicode="&#xee;" horiz-adv-x="288" 
d="M36 950l-164 -228h122l112 153l110 -153h135l-167 228h-148zM44 -219h136v827h-136v-827z" />
    <glyph glyph-name="idieresis" unicode="&#xef;" horiz-adv-x="288" 
d="M-110 905v-167h142v167h-142zM189 905v-167h144v167h-144zM44 -209h136v827h-136v-827z" />
    <glyph glyph-name="eth" unicode="&#xf0;" horiz-adv-x="746" 
d="M279 474q70 0 120.5 -22.5t82.5 -61t47.5 -88t15.5 -105.5q0 -75 -20 -133.5t-55.5 -98t-82.5 -60t-100 -20.5t-100 20.5t-82.5 60t-55.5 98t-20 133.5q0 123 63.5 200t186.5 77zM263 594q-91 0 -161.5 -33t-118.5 -88t-73 -126.5t-25 -149.5q0 -91 26 -169.5t77 -137
t126 -91.5t173 -33q99 0 173.5 33t125.5 91.5t77 137t26 169.5q0 184 -66.5 338.5t-212.5 274.5l184 84l-56 60l-192 -90q-32 26 -66.5 50l-56.5 40l-112 -72q22 -13 54 -34t58 -43l-174 -82l60 -64l184 87q20 -13 45.5 -37t52.5 -56t52.5 -69.5t45.5 -79.5h-4
q-43 50 -100.5 70t-121.5 20z" />
    <glyph glyph-name="ntilde" unicode="&#xf1;" horiz-adv-x="722" 
d="M556 924h-83q-8 -24 -24.5 -47t-48.5 -23q-26 0 -52.5 10.5t-53.5 22.5t-56.5 21.5t-61.5 9.5q-39 0 -66 -14.5t-46.5 -38.5t-33 -56t-22.5 -67h83q-3 30 24 48.5t53 18.5q22 0 50 -9.5t57 -20.5q29 -13 57 -22.5t48 -9.5q47 0 76.5 13.5t50.5 35.5q40 56 49 128z
M-64 614v-827h136v467q0 56 15 103t45.5 82.5t76 54.5t107.5 19q79 0 123.5 -44.5t44.5 -121.5v-560h136v544q0 67 -13.5 122t-47 95t-88 62.5t-135.5 22.5q-184 0 -269 -150h-3v131h-128z" />
    <glyph glyph-name="ograve" unicode="&#xf2;" horiz-adv-x="746" 
d="M73 954l209 -229h103l-138 229h-174zM29 197q0 75 20 133.5t55.5 98.5t82.5 60.5t100 20.5t100 -20.5t82.5 -60.5t55.5 -98.5t20 -133.5t-20 -133.5t-55.5 -98t-82.5 -60t-100 -20.5t-100 20.5t-82.5 60t-55.5 98t-20 133.5zM-115 197q0 -91 26 -169.5t77 -137t126 -91.5
t173 -33q99 0 173.5 33t125.5 91.5t77 137t26 169.5t-26 170t-77 137.5t-125.5 92t-173.5 33.5q-98 0 -173 -33.5t-126 -92t-77 -137.5t-26 -170z" />
    <glyph glyph-name="oacute" unicode="&#xf3;" horiz-adv-x="746" 
d="M327 954l-138 -229h103l209 229h-174zM29 197q0 75 20 133.5t55.5 98.5t82.5 60.5t100 20.5t100 -20.5t82.5 -60.5t55.5 -98.5t20 -133.5t-20 -133.5t-55.5 -98t-82.5 -60t-100 -20.5t-100 20.5t-82.5 60t-55.5 98t-20 133.5zM-115 197q0 -91 26 -169.5t77 -137
t126 -91.5t173 -33q99 0 173.5 33t125.5 91.5t77 137t26 169.5t-26 170t-77 137.5t-125.5 92t-173.5 33.5q-98 0 -173 -33.5t-126 -92t-77 -137.5t-26 -170z" />
    <glyph glyph-name="ocircumflex" unicode="&#xf4;" horiz-adv-x="746" 
d="M212 954l-165 -229h123l112 153l111 -153h134l-166 229h-149zM29 197q0 75 20 133.5t55.5 98.5t82.5 60.5t100 20.5t100 -20.5t82.5 -60.5t55.5 -98.5t20 -133.5t-20 -133.5t-55.5 -98t-82.5 -60t-100 -20.5t-100 20.5t-82.5 60t-55.5 98t-20 133.5zM-115 197
q0 -91 26 -169.5t77 -137t126 -91.5t173 -33q99 0 173.5 33t125.5 91.5t77 137t26 169.5t-26 170t-77 137.5t-125.5 92t-173.5 33.5q-98 0 -173 -33.5t-126 -92t-77 -137.5t-26 -170z" />
    <glyph glyph-name="otilde" unicode="&#xf5;" horiz-adv-x="746" 
d="M565 928h-83q-8 -24 -24.5 -47.5t-48.5 -23.5q-26 0 -52.5 10.5t-53.5 22.5t-56.5 21.5t-61.5 9.5q-39 0 -66 -14.5t-46.5 -38.5t-33 -56t-22.5 -67h83q-3 31 24 49t53 18q22 0 50 -9.5t57 -20.5q29 -13 57 -22.5t48 -9.5q47 0 76.5 13.5t50.5 36.5q40 56 49 128zM29 203
q0 75 20 133.5t55.5 98.5t82.5 60.5t100 20.5t100 -20.5t82.5 -60.5t55.5 -98.5t20 -133.5t-20 -133.5t-55.5 -98t-82.5 -60t-100 -20.5t-100 20.5t-82.5 60t-55.5 98t-20 133.5zM-115 203q0 -91 26 -169.5t77 -137t126 -91.5t173 -33q99 0 173.5 33t125.5 91.5t77 137
t26 169.5t-26 170t-77 137.5t-125.5 92t-173.5 33.5q-98 0 -173 -33.5t-126 -92t-77 -137.5t-26 -170z" />
    <glyph glyph-name="odieresis" unicode="&#xf6;" horiz-adv-x="746" 
d="M65 908v-166h144v166h-144zM365 908v-166h144v166h-144zM29 207q0 75 20 133.5t55.5 98.5t82.5 61t100 21t100 -21t82.5 -61t55.5 -98.5t20 -133.5t-20 -133.5t-55.5 -97.5t-82.5 -60t-100 -21t-100 21t-82.5 60t-55.5 97.5t-20 133.5zM-115 207q0 -91 26 -169.5t77 -137
t126 -91t173 -32.5q99 0 173.5 32.5t125.5 91t77 137t26 169.5t-26 170.5t-77 138t-125.5 92t-173.5 33.5q-98 0 -173 -33.5t-126 -92t-77 -138t-26 -170.5z" />
    <glyph glyph-name="divide" unicode="&#xf7;" horiz-adv-x="1231" 
d="M596 940q0 -58 -37.5 -98.5t-94.5 -40.5q-56 0 -97 41.5t-41 97.5q0 58 40 95.5t98 37.5q56 0 94 -38.5t38 -94.5zM1054 361h-1168v206h1168v-206zM596 49q0 -58 -37.5 -98t-94.5 -40q-56 0 -97 41t-41 97q0 57 40 96.5t98 39.5q132 0 132 -136z" />
    <glyph glyph-name="oslash" unicode="&#xf8;" horiz-adv-x="746" 
d="M596 555l96 105l-43 42l-93 -104q-51 46 -117 70t-152 24q-98 0 -173 -33.5t-126 -92t-77 -137.5t-26 -170q0 -88 24 -164t72 -136l-99 -110l45 -37l96 106q50 -43 115.5 -66.5t148.5 -23.5q99 0 173.5 33t125.5 91.5t77 136.5t26 170q0 88 -23.5 164t-69.5 132zM113 19
l387 430q21 -37 33 -84t12 -106q0 -76 -20 -134t-55.5 -97.5t-82.5 -60t-100 -20.5q-102 0 -174 72zM465 497l-388 -432q-22 40 -35 88t-13 106q0 75 20 133.5t55.5 98.5t82.5 60.5t100 20.5q107 0 178 -75z" />
    <glyph glyph-name="ugrave" unicode="&#xf9;" horiz-adv-x="722" 
d="M64 954l209 -229h103l-138 229h-174zM620 -216v827h-136v-467q0 -56 -15 -103t-45.5 -82.5t-76 -54.5t-107.5 -19q-79 0 -123.5 44.5t-44.5 121.5v560h-136v-544q0 -67 13.5 -122t47 -95t88 -62t135.5 -22q92 0 159 36t110 113h3v-131h128z" />
    <glyph glyph-name="uacute" unicode="&#xfa;" horiz-adv-x="722" 
d="M318 954l-138 -229h103l209 229h-174zM620 -216v827h-136v-467q0 -56 -15 -103t-45.5 -82.5t-76 -54.5t-107.5 -19q-79 0 -123.5 44.5t-44.5 121.5v560h-136v-544q0 -67 13.5 -122t47 -95t88 -62t135.5 -22q92 0 159 36t110 113h3v-131h128z" />
    <glyph glyph-name="ucircumflex" unicode="&#xfb;" horiz-adv-x="722" 
d="M203 954l-165 -229h123l112 153l111 -153h134l-166 229h-149zM620 -216v827h-136v-467q0 -56 -15 -103t-45.5 -82.5t-76 -54.5t-107.5 -19q-79 0 -123.5 44.5t-44.5 121.5v560h-136v-544q0 -67 13.5 -122t47 -95t88 -62t135.5 -22q92 0 159 36t110 113h3v-131h128z" />
    <glyph glyph-name="udieresis" unicode="&#xfc;" horiz-adv-x="722" 
d="M56 908v-166h144v166h-144zM356 908v-166h144v166h-144zM620 -206v828h-136v-468q0 -56 -15 -103t-45.5 -82t-76 -54.5t-107.5 -19.5q-79 0 -123.5 45t-44.5 122v560h-136v-544q0 -68 13.5 -123t47 -95t88 -61.5t135.5 -21.5q92 0 159 36t110 113h3v-132h128z" />
    <glyph glyph-name="yacute" unicode="&#xfd;" horiz-adv-x="650" 
d="M290 1012l-138 -229h103l209 229h-174zM277 -266l360 936h-144l-232 -677h-3l-242 677h-153l328 -823l-56 -139q-19 -37 -45 -56t-67 -19q-21 0 -41 6.5l-39 12.5v-125q22 -8 46 -11t48 -3q47 0 80.5 12t61.5 38.5t51 68t47 102.5z" />
    <glyph glyph-name="thorn" unicode="&#xfe;" horiz-adv-x="761" 
d="M56 560v427h-136v-1457h136v425h3q23 -37 55.5 -61.5t69.5 -39t74.5 -21t67.5 -6.5q95 0 166 33.5t118.5 92t70.5 137t23 166.5t-24 166.5t-71 138.5t-118.5 95t-167.5 35q-86 0 -158 -31t-106 -100h-3zM560 266q0 -61 -13 -118.5t-41.5 -102.5t-76 -72t-117.5 -27
t-120 26t-81 69.5t-45.5 100t-14.5 117.5q0 58 13.5 114t44 100t78.5 71t117 27q66 0 114.5 -25.5t80 -68.5t46.5 -98.5t15 -112.5z" />
    <glyph glyph-name="ydieresis" unicode="&#xff;" horiz-adv-x="650" 
d="M28 967v-167h144v167h-144zM328 967v-167h144v167h-144zM277 -256l360 936h-144l-232 -677h-3l-242 677h-153l328 -822l-56 -139q-19 -37 -45 -56.5t-67 -19.5q-21 0 -41 6.5t-39 13.5v-125q22 -8 46 -11.5t48 -3.5q47 0 80.5 12t61.5 38.5t51 68t47 102.5z" />
    <glyph glyph-name="Aogonek" unicode="&#x104;" horiz-adv-x="841" 
d="M682 -486q-15 0 -39.5 2.5t-48.5 15t-41.5 39t-17.5 74.5q0 11 5.5 31t23 46.5t52.5 58.5t93 67h-22l-125 344h-483l-128 -344h-156l445 1143h168l447 -1143h-80q-40 -33 -66 -59.5t-40 -49.5t-20 -42.5t-6 -35.5q0 -25 14.5 -46t46.5 -21q37 0 59.5 13t39.5 35l52 -29
q-32 -56 -78 -77.5t-95 -21.5zM514 320l-191 533h-3l-193 -533h387z" />
    <glyph glyph-name="aogonek" unicode="&#x105;" horiz-adv-x="691" 
d="M495 -430q-14 0 -39 2t-49 15t-41.5 39.5t-17.5 74.5q0 11 5.5 30t22.5 45t49 57t86 65q-56 25 -56 115q-56 -67 -130.5 -97t-160.5 -30q-56 0 -105.5 12t-87.5 40t-59.5 72t-21.5 107q0 70 24 115t63.5 73t89.5 42.5t103 23.5q56 11 106.5 17t89 16t61 30t22.5 59
q0 45 -17 72t-43.5 41.5t-59 19t-64.5 4.5q-87 0 -144.5 -32.5t-62.5 -123.5h-136q3 76 32 129t77 86t109.5 47t132.5 14q56 0 111 -8t100 -32.5t72 -69.5t27 -117v-425q0 -48 5.5 -70.5t37.5 -22.5q15 0 42 8v-106q-35 -21 -98 -21h-3q-66 -57 -88 -98t-22 -71
q0 -26 14 -46.5t46 -20.5q37 0 59.5 12.5t40.5 35.5l51 -29q-32 -56 -77.5 -77.5t-95.5 -21.5zM194 5q67 0 115 18.5t78.5 46.5t45 60.5t14.5 61.5v139q-26 -21 -67.5 -29t-87 -14l-92 -12.5t-83 -22.5t-60 -45.5t-23.5 -81.5q0 -33 13.5 -56.5t35.5 -37.5t50.5 -20.5
t60.5 -6.5z" />
    <glyph glyph-name="Cacute" unicode="&#x106;" horiz-adv-x="937" 
d="M710 531q-25 121 -112.5 182t-207.5 61q-102 0 -175 -38.5t-120 -103t-69.5 -148t-22.5 -172.5q0 -98 22.5 -185t69.5 -152t121 -103.5t176 -38.5q75 0 133.5 25t101 69t66.5 104.5t29 131.5h152q-23 -216 -149.5 -336t-345.5 -120q-133 0 -232 45.5t-164.5 125.5
t-98.5 189t-33 233q0 125 35.5 234.5t103.5 191.5t169.5 129t232.5 47q90 0 170 -24t142 -70.5t104 -116t54 -160.5h-152v0zM579 1185l-209 -229h-103l138 229h174z" />
    <glyph glyph-name="cacute" unicode="&#x107;" horiz-adv-x="696" 
d="M501 346q-16 78 -67 121t-137 43q-74 0 -123.5 -27t-79 -72t-42.5 -103t-13 -121q0 -57 13.5 -111.5t42.5 -97t75.5 -68t110.5 -25.5q100 0 157 52.5t70 148.5h139q-22 -153 -114 -236.5t-251 -83.5q-94 0 -167 30.5t-121.5 86.5t-73.5 133.5t-25 170.5t24 174t73 141
t122.5 94t170.5 34q71 0 132.5 -16.5t108.5 -52t77.5 -89t38.5 -126.5h-141v0zM487 954l-210 -229h-102l138 229h174z" />
    <glyph glyph-name="Eogonek" unicode="&#x118;" horiz-adv-x="782" 
d="M550 -486q-14 0 -39 2.5t-49 15t-41.5 39t-17.5 74.5q0 11 5.5 31t23 46.5t53 58.5t92.5 67h-648v1143h789v-128h-637v-363h594v-128h-594v-396h642v-128h-80q-40 -33 -65.5 -59.5t-40 -49.5t-20 -42.5t-5.5 -35.5q0 -25 14 -46t46 -21q37 0 59.5 13t40.5 35l51 -29
q-32 -56 -77.5 -77.5t-95.5 -21.5z" />
    <glyph glyph-name="eogonek" unicode="&#x119;" horiz-adv-x="694" 
d="M235 -430q-14 0 -39 2t-49 15t-41.5 39.5t-17.5 74.5q0 9 5 28.5t20 44t44.5 54.5t79.5 62q-85 8 -149 43t-106.5 92t-65 132t-23.5 163q0 93 28.5 172t80.5 136.5t123.5 89.5t156.5 32q110 0 183 -45.5t117 -116t60.5 -153.5t13.5 -158h-619q-2 -55 12.5 -103.5
t46.5 -86t81.5 -60t116.5 -22.5q87 0 142 40t73 121h134q-27 -136 -114 -205.5t-220 -74.5q-67 -57 -89.5 -97t-22.5 -72q0 -26 14.5 -46.5t46.5 -20.5q36 0 58.5 12.5t40.5 35.5l51 -29q-32 -56 -77.5 -77.5t-95.5 -21.5zM512 397q-3 48 -21.5 91t-49.5 74.5t-73.5 49.5
t-93.5 18q-53 0 -95.5 -18t-73 -50t-48 -74.5t-20.5 -90.5h475z" />
    <glyph glyph-name="dotlessi" unicode="&#x131;" horiz-adv-x="222" 
d="M69 0h85v517h-85v-517z" />
    <glyph glyph-name="Lslash" unicode="&#x141;" horiz-adv-x="724" 
d="M-40 170v-384h756v128h-604v365l364 256v121l-364 -256v528h-152v-637l-125 -89v-122z" />
    <glyph glyph-name="lslash" unicode="&#x142;" horiz-adv-x="288" 
d="M43 299v-513h136v622l112 90v113l-112 -89v406h-136v-513l-110 -90v-114z" />
    <glyph glyph-name="Nacute" unicode="&#x143;" horiz-adv-x="938" 
d="M68 870l602 -926h3v926h144v-1142h-167l-596 916h-4v-916h-144v1142h162zM596 1180l-210 -228h-102l138 228h174z" />
    <glyph glyph-name="nacute" unicode="&#x144;" horiz-adv-x="722" 
d="M64 608v-131h3q85 150 269 150q81 0 135.5 -22.5t88 -62.5t47 -95t13.5 -122v-544h-136v560q0 77 -44.5 121.5t-123.5 44.5q-62 0 -107.5 -19t-76 -54.5t-45.5 -82.5t-15 -103v-467h-136v827h128zM497 950l-209 -228h-103l138 228h174z" />
    <glyph glyph-name="OE" unicode="&#x152;" horiz-adv-x="1396" 
d="M560 -104v-110h773v128h-621v395h560v128h-560v363h611v128h-763v-94h-3q-18 32 -49 54t-69.5 37.5t-81 22.5t-82.5 7q-126 0 -226 -45.5t-169 -126.5t-105 -190.5t-36 -238.5q0 -127 34.5 -235t101 -188t164 -125.5t223.5 -45.5q44 0 88 9t83 25.5t71 42t53 59.5h3z
M274 -114q-93 0 -165 36t-120 98.5t-73 146.5t-25 180t24 183.5t72 153.5t120 104.5t170 38.5q91 0 159 -36.5t100 -86.5q18 -27 21 -56t3 -54v-482q0 -50 -22.5 -91.5t-61 -71t-90.5 -46.5t-112 -17z" />
    <glyph glyph-name="oe" unicode="&#x153;" horiz-adv-x="1155" 
d="M394 261q0 -56 -10.5 -112t-37 -102t-70.5 -74t-113 -28q-62 0 -107 26.5t-72 69t-40 95.5t-13 105q0 61 12 120.5t39.5 105.5t72 75t108.5 29q71 0 115.5 -27t70.5 -71t35.5 -99.5t9.5 -112.5zM968 337h-456q-1 103 61 168.5t170 65.5q107 0 166 -64t59 -170zM512 217
h600q5 98 -13.5 184.5t-63 150.5t-116.5 101.5t-176 37.5q-88 0 -169 -36t-124 -110q-42 87 -116.5 116.5t-170.5 29.5t-166 -33.5t-117.5 -92t-70 -137t-22.5 -169.5q0 -90 22.5 -168t68 -137.5t117 -93t168.5 -33.5q93 0 170.5 36t116.5 126q38 -90 117.5 -126t183.5 -36
q272 0 353 280h-129q-24 -77 -83.5 -119.5t-140.5 -42.5q-61 0 -106.5 22.5t-75.5 60t-44 86.5t-13 103z" />
    <glyph glyph-name="Sacute" unicode="&#x15a;" horiz-adv-x="842" 
d="M591 540q-13 124 -89 179t-194 55q-48 0 -94.5 -9.5t-82.5 -32t-57.5 -60t-21.5 -93.5q0 -53 31 -86t83 -53.5t118 -34t134 -29.5t133.5 -38t117.5 -58.5t83 -92.5t31 -141q0 -91 -40.5 -156t-104.5 -105.5t-143.5 -59t-157.5 -18.5q-96 0 -181.5 24t-150.5 72.5
t-102.5 124.5t-37.5 180h144q0 -72 28 -124t73.5 -85.5t106.5 -49.5t125 -16q51 0 103 9.5t93.5 33t67 63.5t25.5 102q0 59 -31 96t-83 60t-117.5 37.5l-133.5 30t-134 35.5t-118 52.5t-83 84.5t-31 131q0 86 35 149t93.5 104t133 61t152.5 20q88 0 163.5 -21t132 -65.5
t89.5 -112.5t36 -163h-144v0zM559 1185l-209 -229h-103l138 229h174z" />
    <glyph glyph-name="sacute" unicode="&#x15b;" horiz-adv-x="649" 
d="M35 45q2 -45 21 -76t50.5 -49.5t70.5 -26.5t81 -8q32 0 67 4.5t64.5 17.5t49 38t19.5 63q0 53 -40 80t-100 44t-130.5 30.5t-130.5 38.5t-100 69.5t-40 124.5q0 63 28 107.5t72 72.5t99 41.5t110 13.5q70 0 129 -12t105 -41.5t73 -80t32 -125.5h-136q-3 40 -21 66.5
t-45 42.5t-60 23t-66 7q-31 0 -62 -4.5t-56.5 -16.5t-41.5 -32t-16 -52q0 -35 24.5 -58.5t63 -38.5t86.5 -25.5l96 -21.5q51 -11 100 -27t86.5 -42.5t61 -66.5t23.5 -99q0 -76 -31.5 -125.5t-82 -80t-113.5 -42.5t-125 -12q-69 0 -131.5 14.5t-110.5 47.5t-77 86.5
t-32 130.5h136v0zM469 954l-210 -229h-102l137 229h175z" />
    <glyph glyph-name="Scaron" unicode="&#x160;" horiz-adv-x="842" 
d="M399 956l165 229h-123l-112 -153l-111 153h-134l166 -229h149zM591 540h144q-3 95 -36 163t-89.5 112.5t-132 65.5t-163.5 21q-78 0 -152.5 -20t-133 -61t-93.5 -104t-35 -149q0 -79 31 -131t83 -84.5t118 -52.5t134 -35.5l133.5 -30t117.5 -37.5t83 -60t31 -96
q0 -62 -25.5 -102t-67 -63.5t-93.5 -33t-103 -9.5q-64 0 -125 16t-106.5 49.5t-73.5 85.5t-28 124h-144q0 -104 37.5 -180t102.5 -124.5t150.5 -72.5t181.5 -24q78 0 157.5 18.5t143.5 59t104.5 105.5t40.5 156q0 85 -31 141t-83 92.5t-117.5 58.5t-133.5 38t-134 29.5
t-118 34t-83 53.5t-31 86q0 56 21.5 93.5t57.5 60t82.5 32t94.5 9.5q118 0 194 -55t89 -179z" />
    <glyph glyph-name="scaron" unicode="&#x161;" horiz-adv-x="649" 
d="M325 725l165 229h-124l-112 -154l-110 154h-134l166 -229h149zM35 45h-136q3 -77 32 -130.5t77 -86.5t110.5 -47.5t131.5 -14.5q62 0 125 12t113.5 42.5t82 80t31.5 125.5q0 59 -23.5 99t-61 66.5t-86.5 42.5t-100 27l-96 21.5t-86.5 25.5t-63 38.5t-24.5 58.5
q0 32 16 52t41.5 32t56.5 16.5t62 4.5q33 0 66 -7t60 -23t45 -42.5t21 -66.5h136q-5 75 -32 125.5t-73 80t-105 41.5t-129 12q-55 0 -110 -13.5t-99 -41.5t-72 -72.5t-28 -107.5q0 -80 40 -124.5t100 -69.5t130.5 -38.5t130.5 -30.5t100 -44t40 -80q0 -38 -19.5 -63t-49 -38
t-64.5 -17.5t-67 -4.5q-42 0 -81 8t-70.5 26.5t-50.5 49.5t-21 76z" />
    <glyph glyph-name="Ydieresis" unicode="&#x178;" horiz-adv-x="842" 
d="M102 1135v-167h144v167h-144zM402 1135v-167h144v167h-144zM402 205l437 675h-173l-334 -544l-342 544h-181l441 -675v-467h152v467z" />
    <glyph glyph-name="Zacute" unicode="&#x179;" horiz-adv-x="794" 
d="M562 742h-656v128h835v-128l-709 -886h728v-128h-908v128zM541 1180l-209 -228h-103l138 228h174z" />
    <glyph glyph-name="zacute" unicode="&#x17a;" horiz-adv-x="624" 
d="M390 488h-467v120h643v-93l-505 -614h528v-120h-698v104zM459 950l-209 -228h-103l138 228h174z" />
    <glyph glyph-name="Zdotaccent" unicode="&#x17b;" horiz-adv-x="794" 
d="M562 752h-656v128h835v-128l-709 -886h728v-128h-908v128zM232 968v167h144v-167h-144z" />
    <glyph glyph-name="zdotaccent" unicode="&#x17c;" horiz-adv-x="624" 
d="M390 498h-467v120h643v-92l-505 -615h528v-120h-698v104zM168 738v167h144v-167h-144z" />
    <glyph glyph-name="Zcaron" unicode="&#x17d;" horiz-adv-x="794" 
d="M381 952l165 228h-123l-112 -153l-111 153h-134l166 -228h149zM-148 -144v-128h908v128h-728l709 886v128h-835v-128h656z" />
    <glyph glyph-name="zcaron" unicode="&#x17e;" horiz-adv-x="624" 
d="M315 722l165 228h-123l-112 -153l-111 153h-134l166 -228h149zM-109 -115v-104h698v120h-528l505 614v93h-643v-120h467z" />
    <glyph glyph-name="uni018F" unicode="&#x18f;" horiz-adv-x="965" 
d="M369 -240q-141 0 -241.5 49t-164.5 132t-94.5 190t-30.5 226v31t3 31h909q-10 82 -39.5 157t-78 131t-117.5 89.5t-157 33.5q-62 0 -118 -16.5t-102 -48t-79.5 -73.5t-50.5 -94h-151q16 87 65 153.5t117 112t150.5 68.5t165.5 23q134 0 237.5 -48t173 -129.5t104.5 -191
t35 -231.5q0 -141 -41.5 -251t-113.5 -187t-169.5 -117t-211.5 -40zM363 -117q88 0 158.5 31.5t121.5 85.5t80 129.5t33 163.5h-764q4 -72 26 -145t66.5 -132t112.5 -96t166 -37z" />
    <glyph glyph-name="florin" unicode="&#x192;" horiz-adv-x="741" 
d="M616 857l23 120h-119q-102 0 -165 -57.5t-81 -148.5l-42 -218h-145l-21 -108h147l-112 -591q-9 -54 -22 -86t-36 -49t-62.5 -21.5t-101.5 -4.5l-23 -120h106q67 0 115 17.5t84 60.5t61 115t44 181l88 498h160l22 108h-163l50 221q9 42 32.5 62.5t66.5 20.5h94z" />
    <glyph glyph-name="uni01A2" unicode="&#x1a2;" horiz-adv-x="803" 
d="M630 634h-75v-606q-30 -17 -75 -30.5t-100 -13.5q-85 0 -149 30.5t-107 82.5t-64.5 119t-21.5 141q0 73 21.5 140.5t64.5 119.5t107 83t149 31q65 0 115 -17h230v-911h-95v831zM380 63q8 0 19 1t22 2.5t21.5 4t17.5 4.5v564q-15 4 -33 8t-47 4q-65 0 -112 -25.5
t-77 -67.5t-44 -94.5t-14 -106.5t14 -106.5t44 -94.5t77 -67.5t112 -25.5z" />
    <glyph glyph-name="uni01A3" unicode="&#x1a3;" horiz-adv-x="642" 
d="M493 442h-66v-416q-29 -18 -63.5 -27.5t-76.5 -9.5q-62 0 -108.5 20.5t-78.5 57t-48 85.5t-16 106t16 106.5t48 86t78.5 57.5t108.5 21q46 0 84 -12h207v-714h-85v639zM287 63q27 0 55 10v371q-28 10 -55 10q-33 0 -62.5 -13t-51.5 -38t-34.5 -61.5t-12.5 -83.5
t12.5 -83.5t34.5 -61t51.5 -37.5t62.5 -13z" />
    <glyph glyph-name="uni01B5" unicode="&#x1b5;" horiz-adv-x="611" 
d="M22 80l198 247h-132v80h196l182 227h-410v80h522v-80l-182 -227h146v-80h-210l-197 -247h455v-80h-568v80z" />
    <glyph glyph-name="uni01B6" unicode="&#x1b6;" horiz-adv-x="480" 
d="M22 65l140 170h-82v75h144l110 132h-292v75h402v-58l-123 -149h81v-75h-143l-131 -160h330v-75h-436v65z" />
    <glyph glyph-name="uni0259" unicode="&#x259;" horiz-adv-x="547" 
d="M268 -11q-69 0 -114.5 28.5t-73 72.5t-38 96t-8.5 99h387q1 34 -8 64.5t-29 54t-51 37.5t-73 14q-54 0 -88.5 -25t-45.5 -76h-84q17 88 75 131.5t146 43.5q62 0 108.5 -20t77.5 -56t46.5 -86t15.5 -109t-18 -108t-50.5 -85t-77 -56t-97.5 -20zM273 64q33 0 59.5 11.5
t45.5 31.5t30 46.5t13 56.5h-297q2 -30 13.5 -57t31 -46.5t46 -31t58.5 -11.5z" />
    <glyph glyph-name="circumflex" unicode="&#x2c6;" horiz-adv-x="222" 
d="M64 731l-102 -143h76l70 96l69 -96h84l-104 143h-93z" />
    <glyph glyph-name="caron" unicode="&#x2c7;" horiz-adv-x="222" 
d="M158 588l103 143h-77l-70 -96l-69 96h-83l103 -143h93z" />
    <glyph glyph-name="breve" unicode="&#x2d8;" horiz-adv-x="222" 
d="M5 731h-49q10 -67 47 -102.5t106 -35.5q66 0 106.5 37t51.5 101h-51q-15 -38 -35.5 -60.5t-63.5 -22.5q-88 0 -112 83z" />
    <glyph glyph-name="ring" unicode="&#x2da;" horiz-adv-x="222" 
d="M-1 662q0 -23 9 -43.5t24 -36t35.5 -24.5t43.5 -9t43.5 9t36 24.5t24.5 36t9 43.5t-9 43.5t-24.5 36t-36 24.5t-43.5 9t-43.5 -9t-35.5 -24.5t-24 -36t-9 -43.5zM43 662q0 29 19.5 48.5t48.5 19.5t48.5 -19.5t19.5 -48.5t-19.5 -48.5t-48.5 -19.5t-48.5 19.5t-19.5 48.5z
" />
    <glyph glyph-name="ogonek" unicode="&#x2db;" horiz-adv-x="222" 
d="M230 3h-40q-38 -22 -60.5 -42.5t-34.5 -38t-15.5 -30t-3.5 -19.5q0 -30 11 -46.5t26 -24.5t30.5 -9.5t24.5 -1.5q31 0 59.5 13.5t48.5 48.5l-32 18q-11 -14 -25 -22t-37 -8q-20 0 -29 13t-9 29q0 21 17 49t69 71z" />
    <glyph glyph-name="tilde" unicode="&#x2dc;" horiz-adv-x="222" 
d="M285 711h-52q-5 -15 -15.5 -29.5t-30.5 -14.5q-16 0 -32.5 6.5t-33.5 14t-35.5 13.5t-38.5 6q-23 0 -40 -9t-29 -24t-20.5 -35t-14.5 -42h52q-2 19 14 30.5t33 11.5q14 0 31.5 -6t35.5 -13q18 -8 35.5 -14t30.5 -6q29 0 47.5 8.5t31.5 22.5q25 35 31 80z" />
    <glyph glyph-name="hungarumlaut" unicode="&#x2dd;" horiz-adv-x="222" 
d="M189 731l-81 -143h66l120 143h-105zM33 731l-80 -143h65l120 143h-105z" />
    <glyph glyph-name="gravecmb" unicode="&#x300;" 
d="M-300 774l208 -229h102l-137 229h-173z" />
    <glyph glyph-name="acutecmb" unicode="&#x301;" 
d="M-91 774l-137 -229h102l210 229h-175z" />
    <glyph glyph-name="circumflexcmb" unicode="&#x302;" 
d="M-156 731l-102 -143h76l70 96l69 -96h84l-104 143h-93z" />
    <glyph glyph-name="tildecmb" unicode="&#x303;" 
d="M65 711h-52q-5 -15 -15.5 -29.5t-30.5 -14.5q-16 0 -32.5 6.5t-33.5 14t-35.5 13.5t-38.5 6q-23 0 -40 -9t-29 -24t-20.5 -35t-14.5 -42h52q-2 19 14 30.5t33 11.5q14 0 31.5 -6t35.5 -13q18 -8 35.5 -14t30.5 -6q29 0 47.5 8.5t31.5 22.5q25 35 31 80z" />
    <glyph glyph-name="macroncmb" unicode="&#x304;" 
d="M-380 692v-88h544v88h-544z" />
    <glyph glyph-name="brevecmb" unicode="&#x306;" 
d="M-215 731h-49q10 -67 47 -102.5t106 -35.5q66 0 106.5 37t51.5 101h-51q-15 -38 -35.5 -60.5t-63.5 -22.5q-88 0 -112 83z" />
    <glyph glyph-name="dotaccentcmb" unicode="&#x307;" 
d="M106 768q0 -50 -35.5 -85t-85.5 -35q-49 0 -84.5 35.5t-35.5 84.5t34.5 85t83.5 36q51 0 87 -35t36 -86z" />
    <glyph glyph-name="dieresiscmb" unicode="&#x308;" 
d="M-330 727v-166h142v166h-142zM-31 727v-166h144v166h-144z" />
    <glyph glyph-name="ringcmb" unicode="&#x30a;" 
d="M-221 662q0 -23 9 -43.5t24 -36t35.5 -24.5t43.5 -9t43.5 9t36 24.5t24.5 36t9 43.5t-9 43.5t-24.5 36t-36 24.5t-43.5 9t-43.5 -9t-35.5 -24.5t-24 -36t-9 -43.5zM-177 662q0 29 19.5 48.5t48.5 19.5t48.5 -19.5t19.5 -48.5t-19.5 -48.5t-48.5 -19.5t-48.5 19.5
t-19.5 48.5z" />
    <glyph glyph-name="hungarumlautcmb" unicode="&#x30b;" 
d="M-31 731l-81 -143h66l120 143h-105zM-187 731l-80 -143h65l120 143h-105z" />
    <glyph glyph-name="caroncmb" unicode="&#x30c;" 
d="M-62 588l103 143h-77l-70 -96l-69 96h-83l103 -143h93z" />
    <glyph glyph-name="cedillacmb" unicode="&#x327;" 
d="M-251 -171l-29 -70q37 -13 73 -22t74 -9q34 0 69 7.5t64 24t47.5 44t18.5 67.5q0 59 -41.5 88t-93.5 29q-36 0 -52 -12l-4 4l68 83h-68l-97 -123l27 -45q18 6 32 9.5t34 3.5q32 0 53.5 -14t21.5 -36q0 -14 -9.5 -23t-24 -15.5t-32 -9t-33.5 -2.5q-26 0 -52.5 6.5
t-45.5 14.5z" />
    <glyph glyph-name="ogonekcmb" unicode="&#x328;" 
d="M10 3h-40q-38 -22 -60.5 -42.5t-34.5 -38t-15.5 -30t-3.5 -19.5q0 -30 11 -46.5t26 -24.5t30.5 -9.5t24.5 -1.5q31 0 59.5 13.5t48.5 48.5l-32 18q-11 -14 -25 -22t-37 -8q-20 0 -29 13t-9 29q0 21 17 49t69 71z" />
    <glyph glyph-name="soliduslongoverlaycmb" unicode="&#x338;" 
d="M-377 -170l567 1473h138l-568 -1473h-137z" />
    <glyph glyph-name="Omegagreek" unicode="&#x3a9;" horiz-adv-x="740" 
d="M50 80h195v60q-47 13 -83.5 39.5t-61 63t-37.5 80.5t-13 91q0 67 25.5 123.5t69 97t101.5 63.5t124 23q65 0 123.5 -22.5t102 -63t69 -96.5t25.5 -123q0 -48 -13 -92t-37.5 -80.5t-61 -63.5t-83.5 -40v-60h195v-80h-254v206q80 17 120 71t40 136q0 49 -16 90.5t-45 72
t-71.5 48t-94.5 17.5t-93.5 -17.5t-71 -48t-45 -72.5t-15.5 -90q0 -79 39.5 -135.5t120.5 -71.5v-206h-254v80z" />
    <glyph glyph-name="pi" unicode="&#x3c0;" horiz-adv-x="622" 
d="M509 -7q-32 0 -50 10t-27 27t-11.5 39.5t-2.5 48.5v324h-233v-442h-85v442h-70v75h550v-75h-77v-314q0 -11 0.5 -22t4 -20t11 -14.5t22.5 -5.5q11 0 21.5 3t21.5 8v-65q-19 -9 -36.5 -14t-38.5 -5z" />
    <glyph glyph-name="uni0400" unicode="&#x400;" horiz-adv-x="782" 
d="M-71 870h789v-128h-637v-363h594v-128h-594v-395h642v-128h-794v1142zM294 1180l138 -228h-103l-208 228h173z" />
    <glyph glyph-name="afii10023" unicode="&#x401;" horiz-adv-x="782" 
d="M-71 880h789v-128h-637v-363h594v-128h-594v-395h642v-128h-794v1142zM246 1135v-167h-142v167h142zM547 1135v-167h-144v167h144z" />
    <glyph glyph-name="afii10051" unicode="&#x402;" horiz-adv-x="985" 
d="M555 -225q-40 0 -80 5v130q13 -2 23.5 -2h21.5q74 0 122.5 21t77.5 57t41 84t12 102q0 61 -18.5 104t-49.5 71t-73.5 41t-90.5 13q-58 0 -107.5 -21t-85.5 -60t-56 -96.5t-20 -129.5v-306h-152v1015h-331v128h912v-128h-429v-407h3q20 34 51 58t69.5 40.5t81 24.5t83.5 8
q77 0 144 -21.5t116 -66t77 -111t28 -156.5q0 -81 -21.5 -153t-67 -126.5t-115.5 -86t-166 -31.5z" />
    <glyph glyph-name="afii10052" unicode="&#x403;" horiz-adv-x="690" 
d="M-55 870h742v-128h-590v-1014h-152v1142zM534 1180l-210 -228h-102l137 228h175z" />
    <glyph glyph-name="afii10053" unicode="&#x404;" horiz-adv-x="933" 
d="M373 -240q-113 0 -210 40t-167.5 117t-110.5 187t-40 251q0 122 33 231.5t99.5 191t167 129.5t235.5 48q83 0 164 -22.5t148 -67t112.5 -112t56.5 -155.5h-150q-14 53 -44.5 96.5t-74 73.5t-98.5 46t-117 16q-88 0 -154.5 -32.5t-112 -88t-73 -126.5t-36.5 -148h526v-126
h-533q5 -95 33 -173t77 -134t118.5 -87.5t157.5 -31.5q139 0 226 77t113 222h154q-28 -211 -160.5 -316.5t-339.5 -105.5z" />
    <glyph glyph-name="afii10054" unicode="&#x405;" horiz-adv-x="842" 
d="M337 -240q-96 0 -181.5 24t-150.5 73t-102.5 125t-37.5 180h144q0 -72 28 -124t73.5 -86t105.5 -50t126 -16q51 0 103 10t93.5 33t67 63t25.5 102q0 60 -31 96.5t-83 60t-117.5 37.5l-133.5 29.5t-134 35.5t-118 52.5t-83 84.5t-31 131q0 86 35 149.5t93.5 104t133 60.5
t152.5 20q88 0 163.5 -20.5t132 -65.5t89.5 -113t36 -162h-144q-13 123 -89 178t-194 55q-48 0 -94.5 -9.5t-82.5 -32t-57.5 -60t-21.5 -93.5q0 -53 31 -85.5t83 -53.5t118 -34.5t134 -29.5t133.5 -37.5t117.5 -58.5t83 -93t31 -141q0 -91 -40.5 -156t-104.5 -105.5
t-143.5 -59t-157.5 -18.5z" />
    <glyph glyph-name="afii10055" unicode="&#x406;" horiz-adv-x="336" 
d="M54 928h152v-1142h-152v1142z" />
    <glyph glyph-name="afii10056" unicode="&#x407;" horiz-adv-x="336" 
d="M54 880h152v-1142h-152v1142zM50 1135v-167h-142v167h142zM351 1135v-167h-144v167h144z" />
    <glyph glyph-name="afii10057" unicode="&#x408;" horiz-adv-x="691" 
d="M229 -235q-160 0 -246.5 83t-86.5 248v71h152v-48q0 -50 8 -91.5t28 -72t56 -47.5t92 -17q104 0 143.5 56t39.5 151v835h152v-858q0 -57 -17 -113t-56 -100t-104 -70.5t-161 -26.5z" />
    <glyph glyph-name="afii10058" unicode="&#x409;" horiz-adv-x="1450" 
d="M-208 -227q-24 0 -63.5 4.5t-61.5 11.5v128q38 -10 97 -10q39 0 67 16t48.5 57t35 110.5t25.5 175.5q12 107 19 268.5t7 396.5h717v-465h357q169 0 259.5 -87.5t90.5 -252.5q0 -163 -90.5 -250t-259.5 -87h-509v1014h-421q0 -189 -6.5 -324t-15.5 -231
q-13 -115 -34.5 -203t-57 -149t-86 -92t-118.5 -31zM988 -83q250 0 250 209q0 213 -250 213h-305v-422h305z" />
    <glyph glyph-name="afii10059" unicode="&#x40a;" horiz-adv-x="1449" 
d="M-224 928h152v-481h601v481h152v-481h357q170 0 260 -83.5t90 -248.5q0 -163 -90 -246t-260 -83h-509v533h-601v-533h-152v1142zM987 -86q125 0 187 48t62 153q0 108 -62 156.5t-187 48.5h-306v-406h306z" />
    <glyph glyph-name="afii10060" unicode="&#x40b;" horiz-adv-x="989" 
d="M122 800h-331v128h912v-128h-429v-325l115 31.5t139 18.5q132 0 208 -37t115 -89.5t50 -112.5t11 -108v-392h-152v382q0 35 -4 75t-26 74t-68.5 56t-133.5 22q-89 0 -150.5 -17.5l-103.5 -28.5v-563h-152v1014z" />
    <glyph glyph-name="afii10061" unicode="&#x40c;" horiz-adv-x="842" 
d="M-100 870h152v-570l580 570h196l-481 -461l501 -681h-192l-413 577l-191 -177v-400h-152v1142zM561 1180l-209 -228h-103l138 228h174z" />
    <glyph glyph-name="uni040D" unicode="&#x40d;" horiz-adv-x="949" 
d="M-94 870h152v-968l574 968h192v-1142h-152v971l-576 -971h-190v1142zM335 1180l137 -228h-102l-208 228h173z" />
    <glyph glyph-name="afii10062" unicode="&#x40e;" horiz-adv-x="793" 
d="M54 -284q-38 0 -75.5 5.5t-64.5 13.5v125q20 -6 51.5 -11t60.5 -5q36 0 64 13.5t50.5 36t39.5 51.5t31 59l19 40l-412 832h164l330 -685l322 685h161l-438 -898q-72 -147 -145.5 -204.5t-157.5 -57.5zM315 951q-101 0 -165.5 62.5t-77.5 158.5h82q35 -114 160 -114
q121 0 160 114h81q-16 -96 -75 -158.5t-165 -62.5z" />
    <glyph glyph-name="afii10145" unicode="&#x40f;" horiz-adv-x="925" 
d="M282 -161h-371v1142h152v-1014h586v1014h152v-1142h-368v-283h-151v283z" />
    <glyph glyph-name="afii10017" unicode="&#x410;" horiz-adv-x="841" 
d="M240 928h168l447 -1142h-168l-125 344h-483l-128 -344h-156zM514 258l-191 533h-3l-193 -533h387z" />
    <glyph glyph-name="afii10018" unicode="&#x411;" horiz-adv-x="867" 
d="M-88 928h783v-128h-631v-336h381q170 0 260.5 -88t90.5 -253q0 -163 -90.5 -250t-260.5 -87h-533v1142zM396 -86q249 0 249 209q0 213 -249 213h-332v-422h332z" />
    <glyph glyph-name="afii10019" unicode="&#x412;" horiz-adv-x="880" 
d="M-91 928h415q37 0 79 -0.5t84 -4.5t78.5 -12t60.5 -24q56 -34 95.5 -93t39.5 -146q0 -91 -44 -157.5t-126 -98.5v-3q106 -22 162 -96t56 -179q0 -63 -22.5 -122t-66.5 -104.5t-109 -73.5t-150 -28h-552v1142zM442 -86q101 0 158 54.5t57 150.5q0 56 -21 92.5t-55.5 58
t-79 30.5t-92.5 9h-348v-395h381zM365 437q130 0 187 45.5t57 136.5q0 60 -19.5 96t-53 55t-77.5 24.5t-94 5.5h-304v-363h304z" />
    <glyph glyph-name="afii10020" unicode="&#x413;" horiz-adv-x="690" 
d="M-55 928h742v-128h-590v-1014h-152v1142z" />
    <glyph glyph-name="afii10021" unicode="&#x414;" horiz-adv-x="950" 
d="M-202 -33h112q32 57 59.5 143.5t47.5 190t31 219.5t11 234v227h736v-1014h127v-411h-146v283h-832v-283h-146v411zM643 -33v886h-437v-165q0 -105 -10 -211.5t-28.5 -201.5t-42 -175t-48.5 -133h566z" />
    <glyph glyph-name="afii10022" unicode="&#x415;" horiz-adv-x="782" 
d="M-71 928h789v-128h-637v-363h594v-128h-594v-395h642v-128h-794v1142z" />
    <glyph glyph-name="afii10024" unicode="&#x416;" horiz-adv-x="1314" 
d="M198 458l-455 470h189l499 -533v533h149v-533l499 533h189l-454 -470l505 -672h-189l-416 566l-134 -141v-425h-149v425l-134 141l-416 -566h-189z" />
    <glyph glyph-name="afii10025" unicode="&#x417;" horiz-adv-x="852" 
d="M337 -240q-102 0 -188.5 24t-149.5 73.5t-98.5 125t-35.5 179.5h146q2 -77 30 -130.5t73.5 -86.5t106 -47.5t129.5 -14.5q59 0 110.5 17t89 48t59 75t21.5 99q0 62 -24 101t-63 61t-91 30t-110 8q-24 0 -54.5 -1t-47.5 -3v125q19 -3 51 -3h51q55 0 100.5 10.5t78 34.5
t51 63t18.5 97q0 53 -20 88t-54.5 56.5t-78.5 31t-92 9.5q-126 0 -198 -55t-85 -180h-145q3 91 37.5 159t92 112t135 66.5t168.5 22.5q82 0 153 -18.5t124 -56.5t83.5 -96.5t30.5 -138.5q0 -47 -16 -87t-42.5 -72t-61 -55t-69.5 -34v-5q56 -11 99 -37.5t72 -63.5t43.5 -81.5
t14.5 -91.5q0 -52 -24 -114.5t-78 -117t-138 -90.5t-204 -36z" />
    <glyph glyph-name="afii10026" unicode="&#x418;" horiz-adv-x="949" 
d="M-94 928h152v-968l574 968h192v-1142h-152v971l-576 -971h-190v1142z" />
    <glyph glyph-name="afii10027" unicode="&#x419;" horiz-adv-x="949" 
d="M-94 873h152v-968l574 968h192v-1143h-152v972l-576 -972h-190v1143zM365 948q-101 0 -165.5 62.5t-77.5 158.5h81q36 -114 160 -114q122 0 160 114h82q-16 -96 -75 -158.5t-165 -62.5z" />
    <glyph glyph-name="afii10028" unicode="&#x41a;" horiz-adv-x="842" 
d="M-100 928h152v-569l580 569h196l-481 -461l501 -681h-192l-413 577l-191 -177v-400h-152v1142z" />
    <glyph glyph-name="afii10029" unicode="&#x41b;" horiz-adv-x="940" 
d="M-76 -227q-24 0 -63 4.5t-61 11.5v128q38 -10 97 -10q39 0 67 16t48.5 57t35 110.5t25.5 175.5q11 107 18.5 268.5t7.5 396.5h717v-1142h-152v1014h-421q0 -189 -6.5 -324t-16.5 -231q-12 -115 -34 -203t-57 -149t-85.5 -92t-119.5 -31z" />
    <glyph glyph-name="afii10030" unicode="&#x41c;" horiz-adv-x="1132" 
d="M-133 928h208l360 -960l361 960h208v-1142h-144v950h-3l-357 -950h-129l-357 950h-3v-950h-144v1142z" />
    <glyph glyph-name="afii10031" unicode="&#x41d;" horiz-adv-x="938" 
d="M-92 928h152v-491h602v491h152v-1142h-152v523h-602v-523h-152v1142z" />
    <glyph glyph-name="afii10032" unicode="&#x41e;" horiz-adv-x="988" 
d="M380 -240q-136 0 -238.5 49t-171 132t-103 190t-34.5 226q0 117 34.5 225t103 191t171 132.5t238.5 49.5t238.5 -49.5t171 -132.5t103 -191t34.5 -225q0 -119 -34.5 -226t-103 -190t-171 -132t-238.5 -49zM380 -114q104 0 179 41t123 108t70.5 151t22.5 171
q0 86 -22.5 170t-70.5 151.5t-123 108t-179 40.5t-179 -40.5t-123 -108t-70.5 -151.5t-22.5 -170q0 -87 22.5 -171t70.5 -151t123 -108t179 -41z" />
    <glyph glyph-name="afii10033" unicode="&#x41f;" horiz-adv-x="925" 
d="M-89 928h890v-1142h-152v1014h-586v-1014h-152v1142z" />
    <glyph glyph-name="afii10034" unicode="&#x420;" horiz-adv-x="830" 
d="M-82 928h501q175 0 263 -88.5t88 -248.5t-88 -249t-263 -89h-349v-467h-152v1142zM368 381q130 0 190 53.5t60 156.5q0 102 -60 155.5t-190 53.5h-298v-419h298z" />
    <glyph glyph-name="afii10035" unicode="&#x421;" horiz-adv-x="937" 
d="M379 -240q-133 0 -232 45.5t-164.5 125.5t-98.5 189t-33 234q0 124 35.5 234t103.5 191.5t168.5 128.5t233.5 47q90 0 170 -24t142 -70.5t104 -116t54 -160.5h-152q-25 122 -112.5 182.5t-207.5 60.5q-102 0 -175 -38.5t-120 -103t-69.5 -148t-22.5 -172.5
q0 -98 22.5 -185t69.5 -152t121 -103.5t176 -38.5q74 0 133 25t101.5 69t66.5 105t29 131h152q-23 -218 -148.5 -337t-346.5 -119z" />
    <glyph glyph-name="afii10036" unicode="&#x422;" horiz-adv-x="745" 
d="M212 800h-381v128h913v-128h-380v-1014h-152v1014z" />
    <glyph glyph-name="afii10037" unicode="&#x423;" horiz-adv-x="793" 
d="M54 -228q-38 0 -75.5 5.5t-64.5 13.5v125q20 -7 51.5 -11.5t60.5 -4.5q36 0 64 13.5t50.5 36t39.5 51t31 59.5l19 40l-412 832h164l330 -685l322 685h161l-438 -898q-72 -147 -145.5 -204.5t-157.5 -57.5z" />
    <glyph glyph-name="afii10038" unicode="&#x424;" horiz-adv-x="1067" 
d="M334 -102q-121 0 -219.5 31t-168 91t-107 145.5t-37.5 194.5q0 107 37.5 195t107 149t168 94.5t219.5 33.5v123h152v-123q124 0 222 -33t168 -94.5t106.5 -148.5t36.5 -196q0 -112 -37.5 -198.5t-107 -145t-168 -88.5t-220.5 -30v-138h-152v138zM334 709
q-196 -7 -288 -99t-92 -250q0 -160 92 -245t288 -94v688zM486 21q197 9 289 94t92 245q0 158 -92 250t-289 99v-688v0z" />
    <glyph glyph-name="afii10039" unicode="&#x425;" horiz-adv-x="794" 
d="M213 373l-376 555h183l284 -446l298 446h170l-378 -555l402 -587h-186l-307 472l-317 -472h-170z" />
    <glyph glyph-name="afii10040" unicode="&#x426;" horiz-adv-x="918" 
d="M744 -161h-853v1142h152v-1014h571v1014h152v-1014h123v-411h-145v283z" />
    <glyph glyph-name="afii10041" unicode="&#x427;" horiz-adv-x="864" 
d="M588 275q-21 -4 -57.5 -12t-80.5 -15.5t-91.5 -13t-87.5 -5.5q-131 0 -207 34.5t-115 85.5t-50.5 112.5t-11.5 114.5v352h151v-339q0 -38 4 -79t26 -74.5t69.5 -55t133.5 -21.5q107 0 190.5 16t126.5 28v525h152v-1142h-152v489z" />
    <glyph glyph-name="afii10042" unicode="&#x428;" horiz-adv-x="1366" 
d="M-190 928h152v-1014h488v1014h152v-1014h488v1014h152v-1142h-1432v1142z" />
    <glyph glyph-name="afii10043" unicode="&#x429;" horiz-adv-x="1375" 
d="M1200 -161h-1415v1142h152v-1014h488v1014h152v-1014h488v1014h152v-1014h130v-411h-147v283z" />
    <glyph glyph-name="afii10044" unicode="&#x42a;" horiz-adv-x="1022" 
d="M102 800h-321v128h473v-465h357q170 0 260 -87.5t90 -252.5q0 -163 -90 -250t-260 -87h-509v1014zM560 -86q249 0 249 209q0 213 -249 213h-306v-422h306z" />
    <glyph glyph-name="afii10045" unicode="&#x42b;" horiz-adv-x="1133" 
d="M-137 928h152v-465h341q170 0 260 -87.5t90 -252.5q0 -163 -90 -250t-260 -87h-493v1142zM305 -86q249 0 249 209q0 213 -249 213h-290v-422h290zM857 928h152v-1142h-152v1142z" />
    <glyph glyph-name="afii10046" unicode="&#x42c;" horiz-adv-x="836" 
d="M-83 928h152v-465h357q169 0 259.5 -87.5t90.5 -252.5q0 -163 -90.5 -250t-259.5 -87h-509v1142zM374 -86q250 0 250 209q0 213 -250 213h-305v-422h305z" />
    <glyph glyph-name="afii10047" unicode="&#x42d;" horiz-adv-x="933" 
d="M345 -240q-207 0 -339.5 105.5t-160.5 316.5h154q26 -145 113 -222t226 -77q88 0 157.5 31.5t118.5 87.5t77 134t33 173h-533v126h526q-9 77 -36.5 148t-73 126.5t-112 88t-154.5 32.5q-62 0 -117 -16t-98.5 -46t-74 -73.5t-44.5 -96.5h-150q11 88 56.5 155.5t112.5 112
t148 67t164 22.5q135 0 235.5 -48t167 -129.5t99.5 -191t33 -231.5q0 -141 -40 -251t-110.5 -187t-167.5 -117t-210 -40z" />
    <glyph glyph-name="afii10048" unicode="&#x42e;" horiz-adv-x="1314" 
d="M722 -240q-122 0 -217 43t-162 118.5t-105.5 174.5t-45.5 213h-233v-523h-152v1142h152v-491h235q11 107 51 201.5t107.5 165t160 111t209.5 40.5q126 0 225.5 -48.5t167.5 -130.5t103 -190.5t35 -228.5t-35 -229t-103 -190.5t-167.5 -129.5t-225.5 -48zM722 -114
q96 0 167 40t118.5 106t70.5 150.5t23 174.5q0 89 -23 174t-70.5 150.5t-118.5 105.5t-167 40t-167 -40t-118.5 -105.5t-70.5 -150.5t-23 -174q0 -90 23 -174.5t70.5 -150.5t118.5 -106t167 -40z" />
    <glyph glyph-name="afii10049" unicode="&#x42f;" horiz-adv-x="896" 
d="M194 266q-120 17 -197 102t-77 231q0 163 95 246t265 83h490v-1142h-151v470h-254l-354 -470h-189zM619 384v416h-288q-125 0 -192 -48t-67 -153q0 -106 66.5 -160.5t192.5 -54.5h288z" />
    <glyph glyph-name="afii10065" unicode="&#x430;" horiz-adv-x="691" 
d="M164 -173q-56 0 -105.5 12t-87.5 40t-59.5 72t-21.5 106q0 71 24 115.5t63.5 72.5t89.5 42.5t103 24.5q56 11 106.5 16.5t89 16t61 30.5t22.5 58q0 45 -17 72.5t-43.5 41.5t-59 19t-64.5 5q-87 0 -144.5 -33t-62.5 -124h-136q3 77 32 130t77 85.5t109.5 47t132.5 14.5
q56 0 111 -8t100 -33t72 -69.5t27 -116.5v-426q0 -48 5.5 -70.5t37.5 -22.5q15 0 42 8v-105q-35 -21 -98 -21q-53 0 -84 29.5t-31 96.5q-56 -67 -130.5 -96.5t-160.5 -29.5zM194 -55q67 0 115 18.5t78.5 46.5t45 61t14.5 62v139q-26 -21 -67.5 -29t-87 -14.5l-92 -13
t-83 -22.5t-60 -45.5t-23.5 -80.5q0 -34 13.5 -57t35.5 -37.5t50.5 -21t60.5 -6.5z" />
    <glyph glyph-name="afii10066" unicode="&#x431;" horiz-adv-x="740" 
d="M296 -234q-160 0 -258.5 82t-123.5 253q-10 67 -10 150q0 59 4 123t14.5 126.5t29 120t48.5 104.5q54 85 132.5 125.5t197.5 48.5q78 7 131 15t59 40h136q-3 -63 -27 -96.5t-67.5 -50.5t-105.5 -22.5t-146 -11.5q-68 -5 -119.5 -32t-87.5 -73t-58.5 -107.5t-31.5 -134.5
h5q35 81 109.5 134t179.5 53q175 0 275.5 -109t100.5 -314q0 -104 -28 -183t-79 -132.5t-122.5 -81t-157.5 -27.5zM298 -118q48 0 92.5 20t78 58t54.5 95t21 132q0 146 -67 229t-183 83q-115 0 -183 -84t-68 -229q0 -141 67.5 -222.5t187.5 -81.5z" />
    <glyph glyph-name="afii10067" unicode="&#x432;" horiz-adv-x="694" 
d="M-67 672h382q54 0 104.5 -8t90.5 -29.5t64 -61.5t24 -103q0 -67 -32 -108.5t-89 -68.5v-2q72 -14 114 -67t42 -136q0 -53 -18 -97.5t-52 -76.5t-80 -50.5t-101 -18.5h-449v827zM357 -40q67 0 101.5 39t34.5 99q0 56 -37 89.5t-123 33.5h-266v-261h290zM301 333
q88 0 122 32t34 85q0 51 -33.5 79t-122.5 28h-234v-224h234z" />
    <glyph glyph-name="afii10068" unicode="&#x433;" horiz-adv-x="532" 
d="M-40 672h566v-120h-430v-707h-136v827z" />
    <glyph glyph-name="afii10069" unicode="&#x434;" horiz-adv-x="769" 
d="M-168 12h98q17 34 35.5 92t33.5 129.5t25 151.5t10 157v177h598v-707h112v-371h-130v251h-652v-251h-130v371zM496 12v587h-330v-70q0 -79 -8.5 -156.5t-23 -146t-31.5 -124.5t-33 -90h426z" />
    <glyph glyph-name="afii10070" unicode="&#x435;" horiz-adv-x="694" 
d="M290 -173q-100 0 -174 32t-124 89.5t-74.5 137.5t-24.5 175q0 92 28.5 171.5t80.5 137t123.5 89.5t156.5 32q110 0 183 -45.5t117 -116t60.5 -153.5t13.5 -159h-619q-2 -54 12.5 -103t46.5 -86.5t81.5 -60t116.5 -22.5q87 0 142 40t73 122h134q-27 -141 -120 -210.5
t-233 -69.5zM512 337q-3 48 -21.5 91.5t-49.5 74.5t-73.5 49.5t-93.5 18.5q-53 0 -95.5 -18.5t-73 -50.5t-48 -74.5t-20.5 -90.5h475z" />
    <glyph glyph-name="afii10072" unicode="&#x436;" horiz-adv-x="1017" 
d="M127 331l-315 341h168l344 -384v384h136v-384l344 384h168l-316 -341l362 -486h-168l-283 400l-107 -104v-296h-136v296l-108 104l-283 -400h-168z" />
    <glyph glyph-name="afii10073" unicode="&#x437;" horiz-adv-x="660" 
d="M257 -173q-165 0 -257.5 73.5t-100.5 209.5h137q7 -91 67.5 -131t151.5 -40q98 0 151 41.5t53 105.5q0 63 -40 98t-136 35h-111v110h88q72 0 123.5 30t51.5 103q0 47 -44 82t-131 35q-37 0 -73 -8t-64.5 -25.5t-48 -46.5t-23.5 -70h-138q5 76 37 126.5t80 80t108.5 42.5
t123.5 13q64 0 120 -13t98.5 -41t67 -69.5t24.5 -98.5q0 -72 -40.5 -117t-92.5 -56v-3q29 -5 58 -19.5t51.5 -39.5t36.5 -61t14 -84q0 -67 -28.5 -116.5t-76.5 -81.5t-109.5 -48t-127.5 -16z" />
    <glyph glyph-name="afii10074" unicode="&#x438;" horiz-adv-x="735" 
d="M-67 672h136v-675l390 675h174v-827h-136v675l-390 -675h-174v827z" />
    <glyph glyph-name="afii10075" unicode="&#x439;" horiz-adv-x="735" 
d="M-67 609h136v-675l390 675h174v-827h-136v675l-390 -675h-174v827zM283 731q-94 0 -156 58.5t-74 154.5h81q18 -58 55.5 -84.5t91.5 -26.5q56 0 92 26.5t56 84.5h81q-16 -96 -73.5 -154.5t-153.5 -58.5z" />
    <glyph glyph-name="afii10076" unicode="&#x43a;" horiz-adv-x="664" 
d="M-75 672h136v-395l380 395h180l-332 -326l376 -501h-175l-299 406l-130 -126v-280h-136v827z" />
    <glyph glyph-name="afii10077" unicode="&#x43b;" horiz-adv-x="751" 
d="M-41 -163q-30 0 -62 4t-47 7v111q16 -5 43.5 -6.5t40.5 -1.5q52 0 75.5 37.5t34.5 104.5q5 32 9.5 81t8 118.5t5 164t1.5 217.5h581v-827h-136v707h-314q0 -187 -6.5 -302.5t-17.5 -183.5q-17 -106 -68.5 -168.5t-147.5 -62.5z" />
    <glyph glyph-name="afii10078" unicode="&#x43c;" horiz-adv-x="894" 
d="M-104 672h195l251 -670h4l251 670h195v-827h-136v656l-250 -656h-124l-250 656v-656h-136v827z" />
    <glyph glyph-name="afii10079" unicode="&#x43d;" horiz-adv-x="728" 
d="M-66 672h136v-330h420v330h136v-827h-136v381h-420v-381h-136v827z" />
    <glyph glyph-name="afii10080" unicode="&#x43e;" horiz-adv-x="746" 
d="M287 -173q-99 0 -173.5 33t-125.5 91t-77 136.5t-26 169.5q0 92 26 171t77 137.5t125.5 92t173.5 33.5q98 0 173 -33.5t126 -92t77 -137.5t26 -171q0 -91 -26 -169.5t-77 -136.5t-126 -91t-173 -33zM287 -55q53 0 100 21t82.5 60t55.5 97.5t20 133.5q0 76 -20 134
t-55.5 98t-82.5 61t-100 21t-100 -21t-82.5 -61t-55.5 -98t-20 -134q0 -75 20 -133.5t55.5 -97.5t82.5 -60t100 -21z" />
    <glyph glyph-name="afii10081" unicode="&#x43f;" horiz-adv-x="715" 
d="M-63 672h676v-827h-136v707h-404v-707h-136v827z" />
    <glyph glyph-name="afii10082" unicode="&#x440;" horiz-adv-x="761" 
d="M-80 728h136v-112h3q34 68 106 99.5t158 31.5q96 0 167.5 -35.5t118.5 -95.5t71 -138t24 -166q0 -90 -23 -167.5t-70.5 -136t-118.5 -92t-166 -33.5q-32 0 -68.5 6.5t-73.5 20.5t-69.5 39t-55.5 62h-3v-426h-136v1143zM312 1q69 0 117 27.5t76.5 72t41.5 102t13 118.5
q0 58 -15 113t-46.5 98.5t-80 69t-114.5 25.5q-69 0 -117 -27.5t-78.5 -71.5t-44 -100t-13.5 -113q0 -61 14.5 -118t45.5 -100t81 -69.5t120 -26.5z" />
    <glyph glyph-name="afii10083" unicode="&#x441;" horiz-adv-x="696" 
d="M282 -173q-94 0 -167 30.5t-121.5 86.5t-73.5 132.5t-25 171.5q0 93 24 173.5t73 140.5t121.5 94.5t171.5 34.5q71 0 132.5 -17t108.5 -52t77.5 -88.5t38.5 -127.5h-141q-16 79 -67 122t-137 43q-74 0 -123.5 -27t-79 -72t-42.5 -103.5t-13 -120.5q0 -58 13.5 -112.5
t42.5 -96.5t74.5 -68t111.5 -26q100 0 157 53t70 149h139q-22 -155 -113.5 -237.5t-251.5 -82.5z" />
    <glyph glyph-name="afii10084" unicode="&#x442;" horiz-adv-x="601" 
d="M164 552h-296v120h728v-120h-296v-707h-136v707z" />
    <glyph glyph-name="afii10085" unicode="&#x443;" horiz-adv-x="650" 
d="M37 -423q-24 0 -48 3.5t-46 11.5v124l39 -12.5t41 -6.5q41 0 67 19.5t45 55.5l56 140l-328 822h153l242 -677h3l232 677h144l-360 -936q-24 -61 -47 -102.5t-51 -68t-62.5 -38.5t-79.5 -12z" />
    <glyph glyph-name="afii10086" unicode="&#x444;" horiz-adv-x="1040" 
d="M333 -93q-15 -14 -35.5 -28.5t-44 -25.5t-48 -18.5t-48.5 -7.5q-93 0 -156 37t-102.5 98.5t-57 141.5t-17.5 166q0 199 86.5 310t235.5 111q25 0 53 -8t53 -20.5t46.5 -28.5t34.5 -32v385h134v-385q13 16 34 32t46.5 28.5t52.5 20.5t54 8q149 0 235.5 -111t86.5 -310
q0 -86 -17.5 -166t-57 -141.5t-102.5 -98.5t-156 -37q-46 0 -98 25t-78 55v-377h-134v377zM173 -61q62 0 107 31.5t53 75.5v416q-10 34 -29 55.5t-42.5 35t-49 19.5t-47.5 6q-53 0 -90.5 -23.5t-62.5 -64t-36 -98.5t-11 -125q0 -57 9.5 -115.5t32.5 -106t63 -77t103 -29.5z
M627 -61q63 0 103 29.5t63 77t32.5 106t9.5 115.5q0 67 -11 125t-36 98.5t-62.5 64t-90.5 23.5q-22 0 -47.5 -6t-49 -19.5t-42.5 -35t-29 -55.5v-416q8 -44 53 -75.5t107 -31.5z" />
    <glyph glyph-name="afii10087" unicode="&#x445;" horiz-adv-x="673" 
d="M169 280l-288 392h175l198 -290l207 290h163l-285 -381l320 -446h-174l-231 342l-230 -342h-165z" />
    <glyph glyph-name="afii10088" unicode="&#x446;" horiz-adv-x="718" 
d="M564 -108h-645v827h136v-707h390v707h136v-707h112v-371h-129v251z" />
    <glyph glyph-name="afii10089" unicode="&#x447;" horiz-adv-x="685" 
d="M447 192q-11 -5 -39 -11.5t-64 -12.5t-76 -11t-77 -5q-125 0 -197 58.5t-72 178.5v283h136v-261q0 -81 41 -112.5t117 -31.5q31 0 66 4t68 10.5t58.5 13t38.5 9.5v368h136v-827h-136v347z" />
    <glyph glyph-name="afii10090" unicode="&#x448;" horiz-adv-x="1051" 
d="M-140 672h136v-707h340v707h136v-707h341v707h136v-827h-1089v827z" />
    <glyph glyph-name="afii10091" unicode="&#x449;" horiz-adv-x="1065" 
d="M911 -108h-1072v827h136v-707h341v707h136v-707h340v707h136v-707h112v-371h-129v251z" />
    <glyph glyph-name="afii10092" unicode="&#x44a;" horiz-adv-x="809" 
d="M66 552h-239v120h375v-317h294q122 0 195.5 -66.5t73.5 -186.5q0 -116 -70.5 -186.5t-192.5 -70.5h-436v707zM453 -35q171 0 171 137q0 136 -171 136h-251v-273h251z" />
    <glyph glyph-name="afii10093" unicode="&#x44b;" horiz-adv-x="920" 
d="M-110 672h136v-317h256q122 0 195.5 -66.5t73.5 -186.5q0 -116 -70.5 -186.5t-192.5 -70.5h-398v827zM239 -35q171 0 171 137q0 136 -171 136h-213v-273h213zM682 672h136v-827h-136v827z" />
    <glyph glyph-name="afii10094" unicode="&#x44c;" horiz-adv-x="681" 
d="M-62 672h136v-317h294q122 0 195.5 -66.5t73.5 -186.5q0 -116 -70.5 -186.5t-191.5 -70.5h-437v827zM325 -35q171 0 171 137q0 136 -171 136h-251v-273h251z" />
    <glyph glyph-name="afii10095" unicode="&#x44d;" horiz-adv-x="699" 
d="M240 -173q-151 0 -243.5 77.5t-103.5 220.5h139q33 -184 211 -184q110 0 178 71t76 207h-345v110h344q-18 117 -79.5 182.5t-173.5 65.5q-158 0 -203 -150h-141q22 130 111 197t235 67q91 0 164.5 -28t124.5 -82.5t79 -132t28 -178.5t-26 -183t-78 -140t-126.5 -89
t-170.5 -31z" />
    <glyph glyph-name="afii10096" unicode="&#x44e;" horiz-adv-x="997" 
d="M555 -173q-88 0 -157 29.5t-118.5 81.5t-77.5 123.5t-33 155.5h-171v-372h-136v827h136v-338h176q9 77 39 142.5t78 113t114 74.5t150 27q92 0 163.5 -33.5t121 -92t75 -137.5t25.5 -171q0 -91 -25.5 -169.5t-75 -136.5t-121 -91t-163.5 -33zM555 -55q49 0 94 21t77 60
t51 97.5t19 133.5q0 76 -19 134t-51 98t-77 61t-94 21q-52 0 -96 -21t-76 -61t-51 -98t-19 -134q0 -150 67 -231t175 -81z" />
    <glyph glyph-name="afii10097" unicode="&#x44f;" horiz-adv-x="715" 
d="M134 168q-88 13 -144 80t-56 170q0 116 70 185t190 69h419v-827h-136v318h-181l-253 -318h-181zM477 280v272h-240q-87 0 -125 -37t-38 -99q0 -64 38 -100t125 -36h240z" />
    <glyph glyph-name="uni0450" unicode="&#x450;" horiz-adv-x="694" 
d="M290 -234q-100 0 -174 32t-124 90t-74.5 138t-24.5 174q0 93 28.5 172t80.5 136.5t123.5 89.5t156.5 32q110 0 183 -45.5t117 -116t60.5 -153.5t13.5 -158h-619q-2 -55 12.5 -103.5t46.5 -86t81.5 -60t116.5 -22.5q87 0 142 40t73 121h134q-27 -140 -120 -210t-233 -70z
M512 277q-3 48 -21.5 91t-49.5 74.5t-73.5 49.5t-93.5 18q-53 0 -95.5 -18t-73 -50t-48 -74.5t-20.5 -90.5h475zM250 954l137 -229h-102l-208 229h173z" />
    <glyph glyph-name="afii10071" unicode="&#x451;" horiz-adv-x="694" 
d="M290 -223q-100 0 -174 32t-124 89.5t-74.5 137.5t-24.5 174q0 93 28.5 172.5t80.5 137t123.5 89.5t156.5 32q110 0 183 -45.5t117 -116t60.5 -154t13.5 -158.5h-619q-2 -54 12.5 -103t46.5 -86.5t81.5 -60t116.5 -22.5q87 0 142 40t73 122h134q-27 -141 -120 -210.5
t-233 -69.5zM512 287q-3 48 -21.5 91.5t-49.5 74.5t-73.5 49.5t-93.5 18.5q-53 0 -95.5 -18.5t-73 -50.5t-48 -74.5t-20.5 -90.5h475zM186 908v-166h-143v166h143zM486 908v-166h-144v166h144z" />
    <glyph glyph-name="afii10099" unicode="&#x452;" horiz-adv-x="761" 
d="M321 -470q-19 0 -48 1.5t-51 4.5v122q18 -4 42.5 -4.5t40.5 -0.5q115 0 166.5 59t51.5 194v467q0 88 -46.5 134.5t-128.5 46.5q-48 0 -91 -16t-76 -46.5t-52 -77t-19 -105.5v-464h-136v905h-152v112h152v125h136v-125h330v-112h-330v-224h3q75 146 267 146
q279 0 279 -302v-479q0 -179 -84 -270t-254 -91z" />
    <glyph glyph-name="afii10100" unicode="&#x453;" horiz-adv-x="532" 
d="M-40 608h566v-120h-430v-707h-136v827zM445 950l-210 -228h-102l137 228h175z" />
    <glyph glyph-name="afii10101" unicode="&#x454;" horiz-adv-x="697" 
d="M297 -173q-96 0 -170.5 31t-126.5 89t-78 140t-26 183t28 178.5t79 132t124.5 82.5t164.5 28q146 0 235 -67t111 -197h-141q-45 150 -203 150q-112 0 -173.5 -65.5t-79.5 -182.5h344v-110h-345q8 -136 76 -207t178 -71q178 0 211 184h139q-11 -143 -103.5 -220.5
t-243.5 -77.5z" />
    <glyph glyph-name="afii10102" unicode="&#x455;" horiz-adv-x="649" 
d="M250 -173q-71 0 -132.5 14.5t-109.5 47t-77 86.5t-32 130h136q2 -46 21 -76.5t50.5 -49t70.5 -26.5t81 -8q32 0 67 5t64.5 18t49 37.5t19.5 63.5q0 52 -40 79.5t-100 44t-130.5 30.5t-130.5 38.5t-100 69.5t-40 125q0 62 28 107t72 73t99 41.5t110 13.5q68 0 128 -12
t106 -41.5t73 -80t32 -125.5h-136q-3 40 -21 66.5t-45 42.5t-60 23t-66 7q-31 0 -62 -5t-56.5 -17t-41.5 -32.5t-16 -51.5q0 -36 24.5 -58.5t63 -38t86.5 -25.5t96 -22q51 -11 100 -27t86.5 -42.5t61 -66.5t23.5 -99q0 -75 -31.5 -124.5t-82 -80t-113.5 -42.5t-125 -12z" />
    <glyph glyph-name="afii10103" unicode="&#x456;" horiz-adv-x="288" 
d="M44 613h136v-827h-136v827zM44 928h136v-166h-136v166z" />
    <glyph glyph-name="afii10104" unicode="&#x457;" horiz-adv-x="288" 
d="M32 905v-167h-142v167h142zM333 905v-167h-144v167h144zM44 618h136v-827h-136v827z" />
    <glyph glyph-name="afii10105" unicode="&#x458;" horiz-adv-x="312" 
d="M6 -470q-18 0 -35.5 1.5t-33.5 4.5v117q8 -2 22.5 -2.5t31.5 -0.5q45 0 61 24.5t16 88.5v909h136v-931q0 -111 -53.5 -161t-144.5 -50zM68 987h136v-166h-136v166z" />
    <glyph glyph-name="afii10106" unicode="&#x459;" horiz-adv-x="1151" 
d="M-146 -163q-31 0 -63 4t-46 7v111q16 -5 43 -6.5t40 -1.5q53 0 76 37.5t34 104.5q5 32 10 81t8 118.5t4.5 164t1.5 217.5h581v-317h295q121 0 194.5 -66.5t73.5 -186.5q0 -116 -70 -186.5t-192 -70.5h-437v707h-313q0 -187 -6.5 -302.5t-17.5 -183.5q-18 -106 -69 -168.5
t-147 -62.5zM794 -33q172 0 172 137q0 136 -172 136h-251v-273h251z" />
    <glyph glyph-name="afii10107" unicode="&#x45a;" horiz-adv-x="1128" 
d="M-171 672h136v-326h419v326h136v-326h294q122 0 195.5 -64t73.5 -184q0 -117 -70.5 -185t-191.5 -68h-437v384h-419v-384h-136v827zM771 -35q171 0 171 133q0 68 -42 99.5t-129 31.5h-251v-264h251z" />
    <glyph glyph-name="afii10108" unicode="&#x45b;" horiz-adv-x="761" 
d="M-26 691h-152v112h152v125h136v-125h330v-112h-330v-219h3q16 39 45 65t65 43t75 25t76 8q82 0 136 -22.5t88 -62.5t47.5 -95t13.5 -122v-525h-136v541q0 76 -45 121t-123 45q-63 0 -108.5 -19t-76 -54.5t-45.5 -82.5t-15 -103v-448h-136v905z" />
    <glyph glyph-name="afii10109" unicode="&#x45c;" horiz-adv-x="664" 
d="M-75 608h136v-395l380 395h180l-332 -326l376 -501h-175l-299 406l-130 -126v-280h-136v827zM479 950l-210 -228h-102l138 228h174z" />
    <glyph glyph-name="uni045D" unicode="&#x45d;" horiz-adv-x="735" 
d="M-67 608h136v-675l390 675h174v-827h-136v675l-390 -675h-174v827zM269 950l137 -228h-102l-208 228h173z" />
    <glyph glyph-name="afii10110" unicode="&#x45e;" horiz-adv-x="650" 
d="M37 -486q-24 0 -48 3.5t-46 11.5v125q19 -7 39 -13.5t41 -6.5q41 0 67 19.5t45 56.5l56 139l-328 822h153l242 -677h3l232 677h144l-360 -936q-24 -61 -47 -102.5t-51 -68t-62.5 -38.5t-79.5 -12zM260 793q-95 0 -156.5 58.5t-74.5 154.5h82q17 -58 55 -84.5t92 -26.5
q56 0 92 26.5t55 84.5h82q-16 -96 -73.5 -154.5t-153.5 -58.5z" />
    <glyph glyph-name="afii10193" unicode="&#x45f;" horiz-adv-x="715" 
d="M206 -108h-269v827h136v-707h404v707h136v-827h-271v-251h-136v251z" />
    <glyph glyph-name="afii10146" unicode="&#x462;" horiz-adv-x="730" 
d="M160 541h-160v80h160v93h95v-93h238v-80h-238v-118h218q106 0 162.5 -54.5t56.5 -157.5q0 -102 -56.5 -156.5t-162.5 -54.5h-313v541zM441 80q156 0 156 131q0 133 -156 133h-186v-264h186z" />
    <glyph glyph-name="afii10194" unicode="&#x463;" horiz-adv-x="581" 
d="M116 442h-120v75h120v197h85v-197h185v-75h-185v-123h184q76 0 122 -41.5t46 -116.5q0 -73 -44 -117t-120 -44h-273v442zM358 75q107 0 107 86q0 85 -107 85h-157v-171h157z" />
    <glyph glyph-name="uni046A" unicode="&#x46a;" horiz-adv-x="1215" 
d="M-180 98q0 48 11.5 106.5t50.5 109.5t115 85.5t207 34.5h119l-323 494h934l-323 -494h120q131 0 207 -34.5t115 -85.5t50.5 -109.5t11.5 -106.5v-312h-152v302q0 35 -4 74.5t-26.5 71.5t-69 53.5t-132.5 21.5h-187v-523h-152v523h-188q-86 0 -132.5 -21.5t-69 -53.5
t-26.5 -71.5t-4 -74.5v-302h-152v312zM688 808h-434l213 -352z" />
    <glyph glyph-name="uni046B" unicode="&#x46b;" horiz-adv-x="947" 
d="M-139 80q0 120 72 178.5t197 58.5h115l-253 355h743l-259 -355h123q125 0 197 -58.5t72 -178.5v-235h-136v217q0 82 -41 113t-118 31h-141v-361h-136v361h-140q-77 0 -118 -31t-41 -113v-217h-136v235zM511 570h-287l141 -223z" />
    <glyph glyph-name="afii10147" unicode="&#x472;" horiz-adv-x="988" 
d="M380 -240q-136 0 -238.5 49t-171 132t-103 190t-34.5 226q0 117 34.5 225t103 191t171 132.5t238.5 49.5t238.5 -49.5t171 -132.5t103 -191t34.5 -225q0 -119 -34.5 -226t-103 -190t-171 -132t-238.5 -49zM380 -114q98 0 170 36t120 96t73.5 136t30.5 158
q-44 -34 -95 -61t-105 -27q-44 0 -96.5 21.5t-105.5 46.5l-102.5 46.5t-87.5 21.5q-32 0 -59.5 -9.5t-51.5 -25t-44 -33t-36 -33.5q11 -73 39 -140.5t76 -119.5t116 -82.5t158 -30.5zM575 349q29 0 57 9.5t52 24t45.5 32l39.5 33.5q-11 74 -39 142.5t-75.5 121.5t-115.5 84
t-159 31q-99 0 -171 -36.5t-120 -97.5t-73.5 -139.5t-30.5 -159.5q41 33 95 62t110 29q48 0 103 -21.5t108 -46.5l98.5 -46.5t75.5 -21.5z" />
    <glyph glyph-name="afii10195" unicode="&#x473;" horiz-adv-x="746" 
d="M287 -173q-99 0 -173.5 33t-125.5 91t-77 136.5t-26 169.5q0 92 26 171t77 137.5t125.5 92t173.5 33.5q98 0 173 -33.5t126 -92t77 -137.5t26 -171q0 -91 -26 -169.5t-77 -136.5t-126 -91t-173 -33zM287 -63q53 0 100 22t82.5 62t56 97.5t22.5 130.5q-32 -30 -66.5 -50
t-72.5 -20q-36 0 -69.5 14.5t-65.5 32t-62.5 32t-55.5 14.5q-35 0 -68 -19.5t-60 -44.5q6 -64 29.5 -114.5t57.5 -85t78 -53t94 -18.5zM410 277q34 0 67.5 20.5t60.5 47.5q-22 111 -91 172.5t-160 61.5q-48 0 -92 -18.5t-78.5 -53t-57.5 -84t-30 -111.5q28 24 60.5 41.5
t74.5 17.5q29 0 63 -14.5t68.5 -33t65 -32.5t49.5 -14z" />
    <glyph glyph-name="afii10148" unicode="&#x474;" horiz-adv-x="861" 
d="M-206 925h163l327 -990h3l241 808q61 198 240 198q24 0 63.5 -4.5t61.5 -11.5v-128q-38 10 -97 10q-47 0 -79 -24t-53 -88l-296 -912h-172z" />
    <glyph glyph-name="afii10196" unicode="&#x475;" horiz-adv-x="681" 
d="M-144 669h152l232 -689h3l164 534q24 77 69.5 123.5t126.5 46.5q31 0 55.5 -3.5t39.5 -6.5v-110q-16 5 -36 5.5t-33 0.5q-42 0 -64 -26.5t-37 -67.5l-211 -634h-160z" />
    <glyph glyph-name="uni048C" unicode="&#x48c;" horiz-adv-x="957" 
d="M45 769h-240v128h240v168h152v-168h260v-128h-260v-338h349q170 0 260.5 -87t90.5 -252q0 -163 -90.5 -250.5t-260.5 -87.5h-501v1015zM495 -118q250 0 250 210q0 213 -250 213h-298v-423h298z" />
    <glyph glyph-name="uni048D" unicode="&#x48d;" horiz-adv-x="742" 
d="M-1 520h-160v120h160v172h136v-172h177v-120h-177v-197h294q122 0 195.5 -66.5t73.5 -186.5q0 -117 -70.5 -187.5t-191.5 -70.5h-437v708zM386 -68q171 0 171 138q0 136 -171 136h-251v-274h251z" />
    <glyph glyph-name="afii10050" unicode="&#x490;" horiz-adv-x="690" 
d="M-55 880h590v255h152v-383h-590v-1014h-152v1142z" />
    <glyph glyph-name="afii10098" unicode="&#x491;" horiz-adv-x="532" 
d="M-40 626h430v248h136v-368h-430v-708h-136v828z" />
    <glyph glyph-name="uni0492" unicode="&#x492;" horiz-adv-x="788" 
d="M43 309h-197v128h197v491h742v-128h-590v-363h320v-128h-320v-523h-152v523z" />
    <glyph glyph-name="uni0493" unicode="&#x493;" horiz-adv-x="607" 
d="M35 200h-149v120h149v352h566v-120h-430v-232h265v-120h-265v-355h-136v355z" />
    <glyph glyph-name="uni0496" unicode="&#x496;" horiz-adv-x="1333" 
d="M1196 -161h-71l-416 566l-134 -141v-425h-149v425l-134 141l-416 -566h-189l505 672l-454 470h189l499 -533v533h149v-533l499 533h189l-455 -470l410 -544h123v-411h-145v283z" />
    <glyph glyph-name="uni0497" unicode="&#x497;" horiz-adv-x="1036" 
d="M906 -108h-60l-284 400l-107 -104v-296h-136v296l-107 104l-283 -400h-168l361 486l-315 341h168l344 -384v384h136v-384l344 384h168l-315 -341l272 -366h112v-371h-130v251z" />
    <glyph glyph-name="uni0498" unicode="&#x498;" horiz-adv-x="852" 
d="M297 -491q-38 0 -74 9t-73 21l29 71q19 -8 45.5 -14.5t52.5 -6.5q16 0 33.5 2.5t32 9t24 15t9.5 23.5q0 22 -21.5 35.5t-53.5 13.5q-20 0 -34 -3t-32 -10l-27 45l78 99q-93 7 -170.5 34t-132.5 76t-86.5 121.5t-31.5 168.5h146q2 -76 30 -130t73.5 -86.5t106 -47
t129.5 -14.5q59 0 110.5 17t89 48t59 75t21.5 98q0 63 -24 102t-63 60.5t-91 29.5t-110 8q-24 0 -54.5 -0.5t-47.5 -2.5v125q19 -3 51 -3h51q55 0 100.5 10.5t78 34.5t51 63t18.5 97q0 52 -20 87.5t-54.5 57t-78.5 31t-92 9.5q-126 0 -198 -55t-85 -180h-145q3 91 37.5 159
t92 112t135 66.5t168.5 22.5q82 0 153 -18.5t124 -57t83.5 -96.5t30.5 -138q0 -47 -16 -87t-42.5 -72t-61 -55t-69.5 -34v-5q56 -11 99 -37.5t72 -63.5t43.5 -81.5t14.5 -91.5q0 -53 -23.5 -113.5t-75.5 -114t-133.5 -90.5t-196.5 -39l-47 -59l4 -3q16 11 52 11
q52 0 93.5 -28.5t41.5 -88.5q0 -40 -18.5 -67t-47.5 -44t-64 -24t-69 -7z" />
    <glyph glyph-name="uni0499" unicode="&#x499;" horiz-adv-x="660" 
d="M214 -430q-39 0 -75 8.5t-72 21.5l28 70q20 -8 46 -14t52 -6q16 0 33.5 2t32 8.5t24 15.5t9.5 23q0 23 -21.5 36.5t-53.5 13.5q-19 0 -33.5 -3.5t-32.5 -9.5l-27 45l85 107q-142 11 -222 83t-88 199h137q7 -92 67.5 -132t151.5 -40q98 0 151 42t53 106q0 62 -40 97
t-136 35h-111v111h88q72 0 123.5 29.5t51.5 103.5q0 46 -44 81t-131 35q-37 0 -73 -8t-64.5 -25.5t-48 -46t-23.5 -70.5h-138q5 77 37 127.5t80 80t108.5 42t123.5 12.5q64 0 120 -12.5t98.5 -40.5t67 -69.5t24.5 -99.5q0 -72 -40.5 -117t-92.5 -56v-3q29 -5 58 -19.5
t51.5 -39t36.5 -60.5t14 -84q0 -66 -27 -114t-72 -80t-104 -49.5t-121 -19.5l-53 -65l3 -3q16 11 53 11q51 0 92.5 -29t41.5 -88q0 -40 -18.5 -67t-47 -44t-64 -24t-68.5 -7z" />
    <glyph glyph-name="uni049A" unicode="&#x49a;" horiz-adv-x="864" 
d="M727 -161h-77l-413 577l-190 -177v-400h-152v1142h152v-569l579 569h197l-482 -461l408 -553h123v-411h-145v283z" />
    <glyph glyph-name="uni049B" unicode="&#x49b;" horiz-adv-x="682" 
d="M553 -108h-67l-299 406l-130 -126v-280h-136v827h136v-395l379 395h181l-333 -326l287 -381h112v-371h-130v251z" />
    <glyph glyph-name="uni049C" unicode="&#x49c;" horiz-adv-x="844" 
d="M-103 928h152v-491h96v242h96v-242h37l397 491h174l-440 -544l452 -598h-192l-391 523h-37v-246h-96v246h-96v-523h-152v1142z" />
    <glyph glyph-name="uni049D" unicode="&#x49d;" horiz-adv-x="697" 
d="M-82 672h136v-330h72v167h88v-167h27l280 330h165l-326 -376l337 -451h-174l-282 381h-27v-189h-88v189h-72v-381h-136v827z" />
    <glyph glyph-name="uni04A0" unicode="&#x4a0;" horiz-adv-x="1028" 
d="M86 800h-322v128h474v-569l579 569h197l-482 -461l501 -681h-192l-413 577l-190 -177v-400h-152v1014z" />
    <glyph glyph-name="uni04A1" unicode="&#x4a1;" horiz-adv-x="797" 
d="M58 552h-238v120h374v-395l379 395h181l-333 -326l376 -501h-174l-299 406l-130 -126v-280h-136v707z" />
    <glyph glyph-name="uni04A2" unicode="&#x4a2;" horiz-adv-x="942" 
d="M768 -161h-129v523h-602v-523h-152v1142h152v-491h602v491h152v-1014h123v-411h-146v283z" />
    <glyph glyph-name="uni04A3" unicode="&#x4a3;" horiz-adv-x="742" 
d="M587 -108h-118v381h-420v-381h-136v827h136v-329h420v329h136v-707h112v-371h-130v251z" />
    <glyph glyph-name="uni04A4" unicode="&#x4a4;" horiz-adv-x="1296" 
d="M-202 928h152v-491h601v491h743v-128h-591v-1014h-152v523h-601v-523h-152v1142z" />
    <glyph glyph-name="uni04A5" unicode="&#x4a5;" horiz-adv-x="981" 
d="M-146 672h136v-330h419v330h566v-120h-430v-707h-136v381h-419v-381h-136v827z" />
    <glyph glyph-name="uni04AA" unicode="&#x4aa;" horiz-adv-x="937" 
d="M370 -491q-39 0 -75 9t-73 21l29 71q19 -8 45.5 -14.5t52.5 -6.5q16 0 33.5 2.5t32 9t24 15t9.5 23.5q0 22 -21.5 35.5t-53.5 13.5q-19 0 -33.5 -3t-32.5 -10l-27 45l77 99q-128 4 -222.5 51t-157.5 126t-94.5 185.5t-31.5 229.5q0 125 35.5 234.5t103.5 191.5t168.5 129
t233.5 47q90 0 170 -24t142 -70.5t104 -116t54 -160.5h-152q-25 121 -112.5 182t-207.5 61q-102 0 -175 -38.5t-120 -103t-69.5 -148t-22.5 -172.5q0 -98 22.5 -185t69.5 -152t121 -103.5t176 -38.5q74 0 133 25t101.5 69t66.5 104.5t29 131.5h152q-23 -207 -135.5 -324.5
t-312.5 -130.5l-48 -59l3 -3q16 11 53 11q51 0 92.5 -28.5t41.5 -88.5q0 -40 -18.5 -67t-47 -44t-64 -24t-68.5 -7z" />
    <glyph glyph-name="uni04AB" unicode="&#x4ab;" horiz-adv-x="696" 
d="M249 -430q-39 0 -75 8.5t-73 21.5l29 70q19 -8 45.5 -14t52.5 -6q16 0 33.5 2t32 8.5t24 15.5t9.5 23q0 23 -21.5 36.5t-53.5 13.5q-19 0 -33.5 -3.5t-32.5 -9.5l-27 45l85 107q-87 6 -151.5 39t-108.5 88t-66.5 129t-22.5 163q0 93 24 174t73 141t121.5 94t171.5 34
q71 0 132.5 -16.5t108.5 -52t77.5 -89t38.5 -126.5h-141q-16 78 -67 121t-137 43q-74 0 -123.5 -27t-79 -72t-42.5 -103t-13 -121q0 -57 13.5 -111.5t42.5 -97t74.5 -68t111.5 -25.5q100 0 157 52.5t70 148.5h139q-22 -148 -106 -229t-232 -89l-52 -67l3 -3q16 11 53 11
q51 0 92.5 -29t41.5 -88q0 -40 -18.5 -67t-47 -44t-64 -24t-68.5 -7z" />
    <glyph glyph-name="uni04AE" unicode="&#x4ae;" horiz-adv-x="842" 
d="M250 253l-441 675h181l342 -544l334 544h173l-437 -675v-467h-152v467z" />
    <glyph glyph-name="uni04AF" unicode="&#x4af;" horiz-adv-x="650" 
d="M188 -58l-325 789h153l242 -645h3l232 645h144l-313 -787v-355h-136v353z" />
    <glyph glyph-name="uni04B0" unicode="&#x4b0;" horiz-adv-x="842" 
d="M250 40h-252v128h252v85l-441 675h181l342 -544l334 544h173l-437 -675v-85h253v-128h-253v-254h-152v254z" />
    <glyph glyph-name="uni04B1" unicode="&#x4b1;" horiz-adv-x="650" 
d="M188 -248h-216v120h216v70l-325 789h153l242 -645h3l232 645h144l-313 -787v-72h216v-120h-216v-163h-136v163z" />
    <glyph glyph-name="uni04B2" unicode="&#x4b2;" horiz-adv-x="816" 
d="M679 -161h-76l-307 472l-317 -472h-169l397 587l-376 555h182l285 -446l297 446h170l-378 -555l314 -459h123v-411h-145v283z" />
    <glyph glyph-name="uni04B3" unicode="&#x4b3;" horiz-adv-x="681" 
d="M552 -108h-72l-231 342l-230 -342h-165l310 435l-288 392h175l198 -289l207 289h163l-285 -381l235 -326h112v-371h-129v251z" />
    <glyph glyph-name="uni04B6" unicode="&#x4b6;" horiz-adv-x="868" 
d="M694 -161h-129v494q-21 -5 -58 -12t-81 -14t-91 -12t-87 -5q-131 0 -207 34.5t-115.5 85.5t-50.5 112.5t-11 114.5v344h150v-331q0 -38 4 -79t26.5 -74.5t70 -55t133.5 -21.5q107 0 190.5 15t126.5 26v520h152v-1014h123v-411h-146v283z" />
    <glyph glyph-name="uni04B7" unicode="&#x4b7;" horiz-adv-x="699" 
d="M544 -108h-118v347q-11 -5 -39 -11t-64 -12.5t-76 -11.5t-77 -5q-125 0 -197 58.5t-72 178.5v283h136v-261q0 -81 41 -112.5t118 -31.5q30 0 65 4t68 10.5t58.5 13t38.5 9.5v368h136v-707h112v-371h-130v251z" />
    <glyph glyph-name="uni04B8" unicode="&#x4b8;" horiz-adv-x="864" 
d="M588 280q-32 -8 -97 -20t-133 -18v-251h-96v246q-128 2 -202.5 36t-113 85.5t-49 112t-10.5 113.5v344h151v-331q0 -38 4 -78t25.5 -74t67 -55.5t127.5 -22.5v240h96v-237q76 6 135.5 18t94.5 20v520h152v-1142h-152v494z" />
    <glyph glyph-name="uni04B9" unicode="&#x4b9;" horiz-adv-x="685" 
d="M447 192q-16 -6 -58.5 -15t-93.5 -17v-178h-88v170h-16q-125 0 -197 58.5t-72 178.5v283h136v-261q0 -78 38.5 -110t110.5 -34v187h88v-180q48 6 91 15.5t61 14.5v368h136v-827h-136v347z" />
    <glyph glyph-name="uni04BA" unicode="&#x4ba;" horiz-adv-x="857" 
d="M-82 928h152v-478q21 5 57.5 12t80.5 14t90.5 12t88.5 5q131 0 207 -34.5t115 -85.5t50.5 -112.5t11.5 -114.5v-360h-151v347q0 38 -4 79t-26 74.5t-69.5 55t-133.5 21.5q-107 0 -190.5 -15t-126.5 -26v-536h-152v1142z" />
    <glyph glyph-name="uni04BB" unicode="&#x4bb;" horiz-adv-x="722" 
d="M-64 928h136v-437h3q16 39 44.5 65.5t64.5 43t75.5 24.5t76.5 8q81 0 135.5 -22.5t88 -62.5t47 -95t13.5 -122v-544h-136v560q0 77 -44.5 121.5t-123.5 44.5q-62 0 -107.5 -19t-76 -54.5t-45.5 -82.5t-15 -103v-467h-136v1142z" />
    <glyph glyph-name="uni04C0" unicode="&#x4c0;" horiz-adv-x="259" 
d="M82 714h95v-714h-95v714z" />
    <glyph glyph-name="uni04C1" unicode="&#x4c1;" horiz-adv-x="1011" 
d="M313 420l-284 294h118l312 -333v333h93v-333l312 333h118l-284 -294l316 -420h-118l-260 354l-84 -88v-266h-93v266l-84 88l-260 -354h-118zM506 761q-63 0 -103.5 39t-48.5 99h51q22 -71 100 -71q76 0 100 71h51q-10 -60 -47 -99t-103 -39z" />
    <glyph glyph-name="uni04C2" unicode="&#x4c2;" horiz-adv-x="783" 
d="M226 304l-197 213h105l215 -240v240h85v-240l215 240h105l-197 -213l226 -304h-105l-177 250l-67 -65v-185h-85v185l-67 65l-177 -250h-105zM392 593q-59 0 -97.5 36.5t-46.5 96.5h51q11 -36 34.5 -52.5t57.5 -16.5q35 0 57.5 16.5t34.5 52.5h51q-10 -60 -46 -96.5
t-96 -36.5z" />
    <glyph glyph-name="uni04D0" unicode="&#x4d0;" horiz-adv-x="841" 
d="M240 873h168l447 -1143h-168l-125 344h-483l-128 -344h-156zM514 202l-191 533h-3l-193 -533h387zM320 948q-101 0 -165.5 62.5t-77.5 158.5h82q35 -114 160 -114q121 0 160 114h81q-16 -96 -75 -158.5t-165 -62.5z" />
    </font>
</defs>
</svg>
