<?xml version="1.0" standalone="no"?>
<!DOCTYPE svg PUBLIC "-//W3C//DTD SVG 1.1//EN" "http://www.w3.org/Graphics/SVG/1.1/DTD/svg11.dtd" >
<svg xmlns="http://www.w3.org/2000/svg" xmlns:xlink="http://www.w3.org/1999/xlink" version="1.1">
<metadata>
Created by FontForge 20161003 at Tue Aug 22 06:06:54 2017
 By www-data
Copyright (c) 2016 by Saber Rastikerdar. All Rights Reserved.
Based on DejaVu font.
Non-Arabic(latin) glyphs and data are imported from Open Sans font under the Apache License, Version 2.0.
</metadata>
<defs>
<font id="Sahel-Bold" horiz-adv-x="0" >
  <font-face 
    font-family="Sahel"
    font-weight="700"
    font-stretch="normal"
    units-per-em="2048"
    panose-1="2 11 6 3 3 8 4 2 2 4"
    ascent="1638"
    descent="-410"
    x-height="1118"
    cap-height="1462"
    bbox="-1153 -1043 2765 2807"
    underline-thickness="100"
    underline-position="-600"
    unicode-range="U+000D-FFFD"
  />
<missing-glyph horiz-adv-x="1229" 
d="M193 1462h841v-1462h-841v1462zM297 104h633v1254h-633v-1254z" />
    <glyph glyph-name="uni0622" unicode="&#x627;&#x653;" horiz-adv-x="654" 
d="M186.297 -5.5q-0.980469 975.561 -52.9199 1278.85l213.637 116.996q60.7578 34.1982 63.6982 -16.1992q11.7598 -210.592 11.7598 -431.982q0 -263.689 -10.7803 -543.578q-11.7598 -286.188 -48.998 -354.586q-34.2998 -62.0977 -176.396 -58.4971v8.99902zM203 1575
q-86 -1 -184 -89q-33 21 -51 45q60 155 97 190q47 46 103 46t167 -14q159 -21 274 8q63 16 70 1q5 -10 -13 -38q-51 -78 -108 -124.5t-355 -24.5z" />
    <glyph glyph-name="uni0623" unicode="&#x627;&#x654;" horiz-adv-x="577" 
d="M186.297 -5.5q-0.980469 975.561 -52.9199 1278.85l213.637 116.996q60.7578 34.1982 63.6982 -16.1992q11.7598 -210.592 11.7598 -431.982q0 -263.689 -10.7803 -543.578q-11.7598 -286.188 -48.998 -354.586q-34.2998 -62.0977 -176.396 -58.4971v8.99902zM60 1434
l25 168q7 3 63 29l22 10l-22 10q-127 53 -73 232q54 180 224 179q99 0 167 -63l16 -15l-43 -96q-233 63 -265 -63q-4 -15 1 -27q43 -100 240 -52q51 13 60 7t8 -44l-1 -100q-194 -65 -422 -175z" />
    <glyph glyph-name="afii57412" unicode="&#x648;&#x654;" horiz-adv-x="864" 
d="M220 873l25 168q7 3 63 29l22 10l-22 10q-127 53 -73 232q54 180 224 179q99 0 167 -63l16 -15l-43 -96q-233 63 -265 -63q-4 -15 1 -27q43 -100 240 -52q51 13 60 7t8 -44l-1 -100q-194 -65 -422 -175zM722 -146q-99 -296 -477 -445q-24 -10 -37 8q-142 200 -143 203
q-14 28 20 41q393 150 456 337l-82 -1q-206 -1 -290 98q-104 122 -22 407q46 158 124 231q63 58 155 60q179 5 270 -196q79 -174 78 -425q0 -162 -52 -318zM588 320q-57 230 -213 206q-62 -10 -87 -83q-35 -107 94 -121q69 -8 125 -5z" />
    <glyph glyph-name="uni0625" unicode="&#x627;&#x655;" horiz-adv-x="555" 
d="M61 -721l25 168q7 3 63 29l22 10l-22 10q-127 53 -73 232q54 180 224 179q99 0 167 -63l16 -15l-43 -96q-233 63 -265 -63q-4 -15 1 -27q43 -100 240 -52q51 13 60 7t8 -44l-1 -100q-194 -65 -422 -175zM185 -5q-1 1084 -54 1421l218 130q62 38 65 -18q12 -234 12 -480
q0 -293 -11 -604q-12 -318 -50 -394q-35 -69 -180 -65v10z" />
    <glyph glyph-name="afii57414" unicode="&#x64a;&#x654;" horiz-adv-x="1523" 
d="M239.613 657.812l27.8242 186.979q7.79102 3.33887 70.1172 32.2764l24.4863 11.1299l-24.4863 11.1299q-141.348 58.9873 -81.2471 258.21q60.1006 200.336 249.307 199.223q110.185 0 185.867 -70.1172l17.8076 -16.6943l-47.8574 -106.846
q-259.324 70.1172 -294.939 -70.1182q-4.45117 -16.6943 1.11328 -30.0498q47.8584 -111.298 267.114 -57.875q56.7617 14.4688 66.7783 7.79102q10.0176 -6.67773 8.9043 -48.9707l-1.11328 -111.298q-215.917 -72.3438 -469.676 -194.771zM699 -503q-317 -3 -475 162
q-128 134 -129 356q-2 248 112 454l138 -36q-104 -309 -37 -452q84 -180 411 -182q332 -2 481 190q22 28 -6 33l-196 36q-125 21 -178 34q-85 22 -94 96q-10 86 30 235q78 288 293 389q184 86 403 14q-22 -212 -41 -290l-54 6q-312 30 -431 -153l-11 -17l321 -58
q151 -27 164 -172q19 -221 -139 -403q-208 -239 -562 -242z" />
    <glyph glyph-name="uni06C0" unicode="&#x647;&#x654;" horiz-adv-x="893" 
d="M172 1259q58 -28 134 -27q147 1 207 71q10 11 -2 16q-41 16 -94 34q-128 43 -83 161q62 160 185 210q78 32 184 -1q-5 -57 -28 -151l-27 3q-117 9 -178 -75l107 -35q73 -25 72.5 -110t-49.5 -150q-95 -124 -295 -124q-106 0 -206 41l53 147zM377 630q-155 -206 -98 -271
q42 -49 170 -48q168 0 190 95q10 41 -20 85q-32 47 -116 87q-5 1 -93 39q-12 5 -33 13zM814 448q8 -207 -97 -327q-104 -119 -271 -115q-174 4 -262 100q-91 99 -92 289q-1 204 228 491q32 40 75 25q268 -97 374 -307q43 -84 45 -156z" />
    <glyph glyph-name="ff" unicode="ff" horiz-adv-x="1585" 
d="M778 889h-264v-889h-305v889h-168v147l168 82v82q0 191 94 279t301 88q158 0 281 -47l-78 -224q-92 29 -170 29q-65 0 -94 -38.5t-29 -98.5v-70h264v-229zM1571 889h-264v-889h-305v889h-168v147l168 82v82q0 191 94 279t301 88q158 0 281 -47l-78 -224q-92 29 -170 29
q-65 0 -94 -38.5t-29 -98.5v-70h264v-229z" />
    <glyph glyph-name="uniFB01" unicode="fi" horiz-adv-x="1417" 
d="M778 889h-264v-889h-305v889h-168v147l168 82v82q0 191 94 279t301 88q158 0 281 -47l-78 -224q-92 29 -170 29q-65 0 -94 -38.5t-29 -98.5v-70h264v-229zM940 1407q0 149 166 149t166 -149q0 -71 -41.5 -110.5t-124.5 -39.5q-166 0 -166 150zM1258 0h-305v1118h305
v-1118z" />
    <glyph glyph-name="uniFB02" unicode="fl" horiz-adv-x="1417" 
d="M778 889h-264v-889h-305v889h-168v147l168 82v82q0 191 94 279t301 88q158 0 281 -47l-78 -224q-92 29 -170 29q-65 0 -94 -38.5t-29 -98.5v-70h264v-229zM1258 0h-305v1556h305v-1556z" />
    <glyph glyph-name="uniFB03" unicode="ffi" horiz-adv-x="2208" 
d="M778 889h-264v-889h-305v889h-168v147l168 82v82q0 191 94 279t301 88q158 0 281 -47l-78 -224q-92 29 -170 29q-65 0 -94 -38.5t-29 -98.5v-70h264v-229zM1571 889h-264v-889h-305v889h-168v147l168 82v82q0 191 94 279t301 88q158 0 281 -47l-78 -224q-92 29 -170 29
q-65 0 -94 -38.5t-29 -98.5v-70h264v-229zM1730 1407q0 149 166 149t166 -149q0 -71 -41.5 -110.5t-124.5 -39.5q-166 0 -166 150zM2048 0h-305v1118h305v-1118z" />
    <glyph glyph-name="uniFB04" unicode="ffl" horiz-adv-x="2208" 
d="M778 889h-264v-889h-305v889h-168v147l168 82v82q0 191 94 279t301 88q158 0 281 -47l-78 -224q-92 29 -170 29q-65 0 -94 -38.5t-29 -98.5v-70h264v-229zM1571 889h-264v-889h-305v889h-168v147l168 82v82q0 191 94 279t301 88q158 0 281 -47l-78 -224q-92 29 -170 29
q-65 0 -94 -38.5t-29 -98.5v-70h264v-229zM2048 0h-305v1556h305v-1556z" />
    <glyph glyph-name="uniFBA5.fina" unicode="&#xfeea;&#x654;" horiz-adv-x="1036" arabic-form="final" 
d="M286 1463q58 -28 134 -27q147 1 207 71q10 11 -2 16q-41 16 -94 34q-128 43 -83 161q62 160 185 210q78 32 184 -1q-5 -57 -28 -151l-27 3q-117 9 -178 -75l107 -35q73 -25 72.5 -110t-49.5 -150q-95 -124 -295 -124q-106 0 -206 41l53 147zM252 511q51 -51 296 -56
q11 0 87 2h13l-57 252l-11 -3q-281 -88 -329 -157q-15 -22 1 -38zM1031 0q-242 0 -342 262l-6 15l-164 -153q-114 2 -259 30q-153 29 -163 106q-30 238 4 346q47 142 443 324l8 3l-19 86l114 127q55 62 73 -24l122 -606q39 -192 179 -192h27v-324h-17z" />
    <glyph glyph-name="uniFDF2" unicode="&#x627;&#xfedf;&#xfee0;&#xfeea;" horiz-adv-x="2914" arabic-form="isolated" 
d="M1991 617q-14 311 -56 742l218 138q59 38 60 -18l13 -886q4 -250 -58 -378q-105 -215 -415 -215h-22v324h28q178 0 218 64q22 35 14 229zM1393 169q-101 -169 -334 -169h-31v324h19q146 0 195 44q60 54 54 251q-7 265 -23 532l202 122q55 32 55 -27v-604q0 -216 33 -264
q38 -54 159 -54h37v-324h-48q-229 0 -318 169zM1345 1861l-56 368l140 84v-424zM1170 1667l1 -79q3 -102 87 -99q81 2 82 118v121q36 12 94 18l2 -88q2 -93 85 -93q85 0 81 106l-2 71q78 51 93 61l5 -58q25 -319 -161 -318q-77 0 -130 54q-48 -116 -163 -115
q-182 1 -163 262l5 73q64 -25 84 -34zM251 511q51 -51 296 -56q11 0 87 2h13l-57 252l-11 -3q-281 -88 -329 -157q-15 -22 1 -38zM1030 0q-242 0 -342 262l-6 15l-164 -153q-114 2 -259 30q-153 29 -163 106q-30 238 4 346q47 142 443 324l8 3l-19 86l114 127q55 62 73 -24
l122 -606q39 -192 179 -192h27v-324h-17zM2524 -5q-1 1084 -54 1421l218 130q62 38 65 -18q12 -234 12 -480q0 -293 -11 -604q-12 -318 -50 -394q-35 -69 -180 -65v10z" />
    <glyph glyph-name="uniFE70" unicode="&#x20;&#x64b;" horiz-adv-x="769" arabic-form="isolated" 
d="M45 1106v118l524 214v-117zM45 1392v118l524 214v-118z" />
    <glyph glyph-name="uniFE72" unicode="&#x20;&#x64c;" horiz-adv-x="769" arabic-form="isolated" 
d="M410 1806q-21 0 -37 -4t-26 -14q-20 -17 -20 -56q0 -28 19 -49l6.5 -6.5t8 -6.5t9 -5.5t10 -5.5t11.5 -5t12 -5q16 -6 45 -15l9 -3l12 29q2 4 3.5 8.5l3 9t2.5 8.5q3 13 3 25q0 40 -14 61q-14 23 -42 31l-8 2q-2 0 -3.5 0.5t-3.5 0.5zM69 1577q2 -32 4.5 -57t5.5 -43
t6 -29q16 -51 41 -74q26 -24 63 -23q13 1 26 3t26 6.5t26 11.5q38 18 77 56q23 22 41 46t31 50l8 17l-18 3q-131 28 -175 135q-4 10 -6 22q0 7 -0.5 14.5t-0.5 16.5v9.5t0.5 9l1 9l1 9t1.5 8.5t2.5 8t2.5 8q9 28 24.5 49.5t36.5 35.5q7 5 14.5 9t16 7t17.5 6q26 7 58 7
q16 0 30.5 -1.5t27.5 -5t25 -9t23 -12.5q22 -14 37.5 -34.5t26.5 -48.5q13 -34 13 -78q0 -22 -3.5 -43.5t-10.5 -42.5l-5 -18l18 -1h7t9 -1q9 0 20 -0.5t24 -0.5h10v-102h-11q-6 0 -11.5 0.5t-10.5 0.5h-9q-13 1 -21 2l-72 6l-3 -6q-31 -66 -76 -120q-11 -13 -23 -25.5
t-25 -24.5t-27 -23t-29 -21q-22 -16 -44 -26t-45 -15t-47 -5q-51 0 -88.5 20t-62.5 61q-53 84 -56 243v11h77z" />
    <glyph glyph-name="uniFE74" unicode="&#x20;&#x64d;" horiz-adv-x="769" arabic-form="isolated" 
d="M20 -501v122l498 203v-122zM20 -237v122l498 204v-122z" />
    <glyph glyph-name="uniFE76" unicode="&#x20;&#x64e;" horiz-adv-x="769" arabic-form="isolated" 
d="M-14 1285v122l497 203v-122z" />
    <glyph glyph-name="uniFE78" unicode="&#x20;&#x64f;" horiz-adv-x="769" arabic-form="isolated" 
d="M529 1417l-130 8q-136 -180 -375 -193v97q158 7 252 109l14 15q-71 24 -94 44q-65 57 -65 113q-1 97 67 152q37 30 100 30q66 0 118 -51q48 -48 49 -130q-1 -34 -20 -95l84 -3v-96zM347 1532q58 152 -45 159q-29 2 -41 -8q-26 -25 -32.5 -55t16 -49.5t47 -28t28.5 -9.5
q8 -3 27 -9z" />
    <glyph glyph-name="uniFE7A" unicode="&#x20;&#x650;" horiz-adv-x="769" arabic-form="isolated" 
d="M31 -344v122l497 204v-122z" />
    <glyph glyph-name="uniFE7C" unicode="&#x20;&#x651;" horiz-adv-x="769" arabic-form="isolated" 
d="M61 1621l1 -79q3 -102 87 -99q81 2 82 118v121q36 12 94 18l2 -88q2 -93 85 -93q85 0 81 106l-2 71q78 51 93 61l5 -58q25 -319 -161 -318q-77 0 -130 54q-48 -116 -163 -115q-182 1 -163 262l5 73q64 -25 84 -34z" />
    <glyph glyph-name="uniFE7E" unicode="&#x20;&#x652;" horiz-adv-x="769" arabic-form="isolated" 
d="M539 1670q10 10 17.5 21t12.5 23q10 24 10 53q0 57 -40 97t-98 40q-14 0 -27.5 -2.5t-25.5 -7.5t-23 -12.5t-21 -17.5q-20 -19 -29.5 -43.5t-9.5 -53.5q0 -58 39 -97q19 -20 43.5 -29.5t53.5 -9.5t53.5 10t44.5 29zM676 1768q0 -25 -4.5 -47.5t-13 -43.5t-21 -40
t-29.5 -36q-34 -34 -76 -51q-20 -9 -43 -13t-47 -4q-33 0 -62 7.5t-55.5 23t-48.5 37.5q-68 68 -68 166.5t68 166.5t166 68q24 0 47 -4.5t44 -12.5q41 -18 75 -51q5 -5 9.5 -10t8.5 -10q8 -11 15 -21q2 -4 4.5 -8t4.5 -7.5t4 -7.5q2 -6 4.5 -12t4.5 -12l4 -12t3 -13l4 -26
q1 -3 1 -5.5t0.5 -5t0.5 -5.5v-6v-5z" />
    <glyph glyph-name="uniFEF5" unicode="&#xfedf;&#xfe82;" horiz-adv-x="1304" arabic-form="isolated" 
d="M199 1570q-86 -1 -184 -89q-33 21 -51 45q60 155 97 190q47 46 103 46t167 -14q159 -21 274 8q63 16 70 1q5 -10 -13 -38q-51 -78 -108 -124.5t-355 -24.5zM1008 151q-233 -202 -789 -181q-22 113 -36 178q-14 73 -10 81q10 25 90 28q183 5 288 30l-470 932l216 148
l470 -1015q166 101 163 233q-11 398 -49 822l222 139q59 36 60 -49l6 -838q3 -366 -161 -508z" />
    <glyph glyph-name="uniFEF6" unicode="&#xfee0;&#xfe82;" horiz-adv-x="1368" arabic-form="final" 
d="M201 1570q-86 -1 -184 -89q-33 21 -51 45q60 155 97 190q47 46 103 46t167 -14q159 -21 274 8q63 16 70 1q5 -10 -13 -38q-51 -78 -108 -124.5t-355 -24.5zM930 585q4 300 -49 822l223 139q58 37 58 -20l7 -867q2 -259 99 -314q38 -21 77 -21h36v-324h-67
q-224 0 -317 183q-267 -234 -778 -213q-22 113 -36 178q-14 73 -10 81q10 25 90 28q183 5 288 30l-470 932l216 158l470 -1025q161 98 163 233z" />
    <glyph glyph-name="uniFEF7" unicode="&#xfedf;&#xfe84;" horiz-adv-x="1304" arabic-form="isolated" 
d="M-4 1445l25 168q7 3 63 29l22 10l-22 10q-127 53 -73 232q54 180 224 179q99 0 167 -63l16 -15l-43 -96q-233 63 -265 -63q-4 -15 1 -27q43 -100 240 -52q51 13 60 7t8 -44l-1 -100q-194 -65 -422 -175zM1008 151q-233 -202 -789 -181q-22 113 -36 178q-14 73 -10 81
q10 25 90 28q183 5 288 30l-470 932l216 148l470 -1015q166 101 163 233q-11 398 -49 822l222 139q59 36 60 -49l6 -838q3 -366 -161 -508z" />
    <glyph glyph-name="uniFEF8" unicode="&#xfee0;&#xfe84;" horiz-adv-x="1368" arabic-form="final" 
d="M17 1445l25 168q7 3 63 29l22 10l-22 10q-127 53 -73 232q54 180 224 179q99 0 167 -63l16 -15l-43 -96q-233 63 -265 -63q-4 -15 1 -27q43 -100 240 -52q51 13 60 7t8 -44l-1 -100q-194 -65 -422 -175zM930 585q4 300 -49 822l223 139q58 37 58 -20l7 -867
q2 -259 99 -314q38 -21 77 -21h36v-324h-67q-224 0 -317 183q-267 -234 -778 -213q-22 113 -36 178q-14 73 -10 81q10 25 90 28q183 5 288 30l-470 932l216 158l470 -1025q161 98 163 233z" />
    <glyph glyph-name="uniFEF9" unicode="&#xfedf;&#xfe88;" horiz-adv-x="1304" arabic-form="isolated" 
d="M117 -729l25 168q7 3 63 29l22 10l-22 10q-127 53 -73 232q54 180 224 179q99 0 167 -63l16 -15l-43 -96q-233 63 -265 -63q-4 -15 1 -27q43 -100 240 -52q51 13 60 7t8 -44l-1 -100q-194 -65 -422 -175zM1008 151q-233 -202 -789 -181q-22 113 -36 178q-14 73 -10 81
q10 25 90 28q183 5 288 30l-470 932l216 148l470 -1015q166 101 163 233q-11 398 -49 822l222 139q59 36 60 -49l6 -838q3 -366 -161 -508z" />
    <glyph glyph-name="uniFEFA" unicode="&#xfee0;&#xfe88;" horiz-adv-x="1368" arabic-form="final" 
d="M161 -721l25 168q7 3 63 29l22 10l-22 10q-127 53 -73 232q54 180 224 179q99 0 167 -63l16 -15l-43 -96q-233 63 -265 -63q-4 -15 1 -27q43 -100 240 -52q51 13 60 7t8 -44l-1 -100q-194 -65 -422 -175zM930 585q4 300 -49 822l223 139q58 37 58 -20l7 -867
q2 -259 99 -314q38 -21 77 -21h36v-324h-67q-224 0 -317 183q-267 -234 -778 -213q-22 113 -36 178q-14 73 -10 81q10 25 90 28q183 5 288 30l-470 932l216 158l470 -1025q161 98 163 233z" />
    <glyph glyph-name="uniFEFB" unicode="&#xfedf;&#xfe8e;" horiz-adv-x="1304" arabic-form="isolated" 
d="M1008 151q-233 -202 -789 -181q-22 113 -36 178q-14 73 -10 81q10 25 90 28q183 5 288 30l-470 932l216 148l470 -1015q166 101 163 233q-11 398 -49 822l222 139q59 36 60 -49l6 -838q3 -366 -161 -508z" />
    <glyph glyph-name="uniFEFC" unicode="&#xfee0;&#xfe8e;" horiz-adv-x="1368" arabic-form="final" 
d="M930 585q4 300 -49 822l223 139q58 37 58 -20l7 -867q2 -259 99 -314q38 -21 77 -21h36v-324h-67q-224 0 -317 183q-267 -234 -778 -213q-22 113 -36 178q-14 73 -10 81q10 25 90 28q183 5 288 30l-470 932l216 158l470 -1025q161 98 163 233z" />
    <glyph glyph-name="uni0651064B" unicode="&#x64b;&#x651;" 
d="M342 1080v118l524 214v-117zM342 1366v118l524 214v-118zM361 919l1 -79q3 -102 87 -99q81 2 82 118v121q36 12 94 18l2 -88q2 -93 85 -93q85 0 81 106l-2 71q78 51 93 61l5 -58q25 -319 -161 -318q-77 0 -130 54q-48 -116 -163 -115q-182 1 -163 262l5 73q64 -25 84 -34
z" />
    <glyph glyph-name="uni0651064C" unicode="&#x64c;&#x651;" 
d="M610 1673q-21 0 -37 -4t-26 -14q-20 -17 -20 -56q0 -28 19 -49l6.5 -6.5t8 -6.5t9 -5.5t10 -5.5t11.5 -5t12 -5q16 -6 45 -15l9 -3l12 29q2 4 3.5 8.5l3 9t2.5 8.5q3 13 3 25q0 40 -14 61q-14 23 -42 31l-8 2q-2 0 -3.5 0.5t-3.5 0.5zM269 1444q2 -32 4.5 -57t5.5 -43
t6 -29q16 -51 41 -74q26 -24 63 -23q13 1 26 3t26 6.5t26 11.5q38 18 77 56q23 22 41 46t31 50l8 17l-18 3q-131 28 -175 135q-4 10 -6 22q0 7 -0.5 14.5t-0.5 16.5v9.5t0.5 9l1 9l1 9t1.5 8.5t2.5 8t2.5 8q9 28 24.5 49.5t36.5 35.5q7 5 14.5 9t16 7t17.5 6q26 7 58 7
q16 0 30.5 -1.5t27.5 -5t25 -9t23 -12.5q22 -14 37.5 -34.5t26.5 -48.5q13 -34 13 -78q0 -22 -3.5 -43.5t-10.5 -42.5l-5 -18l18 -1h7t9 -1q9 0 20 -0.5t24 -0.5h10v-102h-11q-6 0 -11.5 0.5t-10.5 0.5h-9q-13 1 -21 2l-72 6l-3 -6q-31 -66 -76 -120q-11 -13 -23 -25.5
t-25 -24.5t-27 -23t-29 -21q-22 -16 -44 -26t-45 -15t-47 -5q-51 0 -88.5 20t-62.5 61q-53 84 -56 243v11h77zM349 933l1 -79q3 -102 87 -99q81 2 82 118v121q36 12 94 18l2 -88q2 -93 85 -93q85 0 81 106l-2 71q78 51 93 61l5 -58q25 -319 -161 -318q-77 0 -130 54
q-48 -116 -163 -115q-182 1 -163 262l5 73q64 -25 84 -34z" />
    <glyph glyph-name="uni064B0651" unicode="&#x64d;&#x651;" 
d="M311 1637l1 -79q3 -102 87 -99q81 2 82 118v121q36 12 94 18l2 -88q2 -93 85 -93q85 0 81 106l-2 71q78 51 93 61l5 -58q25 -319 -161 -318q-77 0 -130 54q-48 -116 -163 -115q-182 1 -163 262l5 73q64 -25 84 -34zM309 711v118l524 214v-117zM309 997v118l524 214v-118z
" />
    <glyph glyph-name="uni0651064E" unicode="&#x64e;&#x651;" 
d="M298 1266v122l497 203v-122zM367 1117l1 -79q3 -102 87 -99q81 2 82 118v121q36 12 94 18l2 -88q2 -93 85 -93q85 0 81 106l-2 71q78 51 93 61l5 -58q25 -319 -161 -318q-77 0 -130 54q-48 -116 -163 -115q-182 1 -163 262l5 73q64 -25 84 -34z" />
    <glyph glyph-name="uni0651064F" unicode="&#x64f;&#x651;" 
d="M798 1276l-130 8q-136 -180 -375 -193v97q158 7 252 109l14 15q-71 24 -94 44q-65 57 -65 113q-1 97 67 152q37 30 100 30q66 0 118 -51q48 -48 49 -130q-1 -34 -20 -95l84 -3v-96zM616 1391q58 152 -45 159q-29 2 -41 -8q-26 -25 -32.5 -55t16 -49.5t47 -28t28.5 -9.5
q8 -3 27 -9zM350 957l1 -79q3 -102 87 -99q81 2 82 118v121q36 12 94 18l2 -88q2 -93 85 -93q85 0 81 106l-2 71q78 51 93 61l5 -58q25 -319 -161 -318q-77 0 -130 54q-48 -116 -163 -115q-182 1 -163 262l5 73q64 -25 84 -34z" />
    <glyph glyph-name="uni064E0651" unicode="&#x650;&#x651;" 
d="M351 1550l1 -79q3 -102 87 -99q81 2 82 118v121q36 12 94 18l2 -88q2 -93 85 -93q85 0 81 106l-2 71q78 51 93 61l5 -58q25 -319 -161 -318q-77 0 -130 54q-48 -116 -163 -115q-182 1 -163 262l5 73q64 -25 84 -34zM348 894v122l497 203v-122z" />
    <glyph glyph-name="uni0654064E" unicode="&#x64e;&#x654;" 
d="M372 1681v122l497 203v-122zM444 1088l25 168q7 3 63 29l22 10l-22 10q-127 53 -73 232q54 180 224 179q99 0 167 -63l16 -15l-43 -96q-233 63 -265 -63q-4 -15 1 -27q43 -100 240 -52q51 13 60 7t8 -44l-1 -100q-194 -65 -422 -175z" />
    <glyph glyph-name="uni0654064F" unicode="&#x64f;&#x654;" 
d="M907 1745l-130 8q-136 -180 -375 -193v97q158 7 252 109l14 15q-71 24 -94 44q-65 57 -65 113q-1 97 67 152q37 30 100 30q66 0 118 -51q48 -48 49 -130q-1 -34 -20 -95l84 -3v-96zM725 1860q58 152 -45 159q-29 2 -41 -8q-26 -25 -32.5 -55t16 -49.5t47 -28t28.5 -9.5
q8 -3 27 -9zM454 975l25 168q7 3 63 29l22 10l-22 10q-127 53 -73 232q54 180 224 179q99 0 167 -63l16 -15l-43 -96q-233 63 -265 -63q-4 -15 1 -27q43 -100 240 -52q51 13 60 7t8 -44l-1 -100q-194 -65 -422 -175z" />
    <glyph glyph-name="uni066E.init" unicode="&#x66e;" horiz-adv-x="645" 
d="M98 324q174 0 229 75q13 20 2 76q-12 64 -85 235l146 186q31 39 55 0q110 -185 110 -358q0 -247 -109 -388q-115 -150 -361 -150h-97v324h110z" />
    <glyph glyph-name="uni066E.medi" unicode="&#x66e;" horiz-adv-x="781" 
d="M353 664h143l20 -189q15 -151 209 -151h15v-324h-28q-193 0 -299 169q-111 -169 -324 -169h-100v324h75q256 0 270 148z" />
    <glyph glyph-name="uni066E.fina" unicode="&#x66e;" horiz-adv-x="1967" 
d="M1591 242q-224 -242 -741 -242q-371 0 -553 100q-212 117 -211 393q1 194 100 389l118 -42q-67 -246 4 -354q101 -152 481 -164q416 -13 631 96q150 75 187 234l117 -19q-28 -212 120 -293q29 -16 113 -16h21v-324h-24q-277 0 -363 242z" />
    <glyph glyph-name="uni066F.init" unicode="&#x66f;" horiz-adv-x="967" 
d="M573 751q-45 190 -187 185q-72 -2 -101 -80q-22 -57 1 -90q26 -35 128 -35q104 1 159 20zM169 324q391 0 403 139l1 14q-118 -19 -193 -19q-235 2 -261 167q-13 80 6 199q25 166 112 268q74 87 187 87t183 -88q158 -196 143 -614q-9 -266 -149 -372q-139 -105 -408 -105
h-204v324h180z" />
    <glyph glyph-name="uni066F.medi" unicode="&#x66f;" horiz-adv-x="1174" 
d="M989 324h30v-324h-69q-255 2 -434 180q-195 -180 -478 -180h-49v324h38q163 0 273 38q-99 115 -99 267q0 114 75 228q106 159 258 159q129 -1 237 -156q73 -106 73 -215q0 -166 -115 -290q116 -31 260 -31zM398 500q80 -70 125 -70t103 55q57 55 57 96q-1 43 -57 95
q-54 52 -109 52q-52 1 -104 -56q-51 -55 -51 -98t36 -74z" />
    <glyph glyph-name="uni066F.fina" unicode="&#x66f;" horiz-adv-x="1437" 
d="M1142 320q-55 227 -213 206q-62 -10 -86 -83q-36 -107 93 -121q75 -8 125 -5zM980 793q178 6 269 -196q56 -124 60 -273h140v-324h-149q-5 -144 -36 -223q-125 -313 -573 -312q-323 0 -466 154q-166 179 -128 489q17 141 103 330l138 -39q-108 -359 10 -506
q105 -129 359 -128q336 2 415 167q15 32 16 69l-117 -4q-207 -6 -298 98q-105 121 -21 407q46 158 123 231q63 58 155 60z" />
    <glyph glyph-name="uni06A1.init" unicode="&#x6a1;" horiz-adv-x="846" 
d="M573 751q-45 190 -187 185q-72 -2 -101 -80q-22 -57 1 -90q26 -35 128 -35q104 1 159 20zM169 324q391 0 403 139l1 14q-118 -19 -193 -19q-235 2 -261 167q-13 80 6 199q25 166 112 268q74 87 187 87t183 -88q158 -196 143 -614q-9 -266 -149 -372q-139 -105 -408 -105
h-204v324h180z" />
    <glyph glyph-name="uni06A1.medi" unicode="&#x6a1;" horiz-adv-x="1007" 
d="M989 324h30v-324h-69q-255 2 -434 180q-195 -180 -478 -180h-49v324h38q163 0 273 38q-99 115 -99 267q0 114 75 228q106 159 258 159q129 -1 237 -156q73 -106 73 -215q0 -166 -115 -290q116 -31 260 -31zM398 500q80 -70 125 -70t103 55q57 55 57 96q-1 43 -57 95
q-54 52 -109 52q-52 1 -104 -56q-51 -55 -51 -98t36 -74z" />
    <glyph glyph-name="uni06A1.fina" unicode="&#x6a1;" horiz-adv-x="1955" 
d="M1249 362q-100 115 -100 267q-1 113 75 228q106 159 258 159q129 -1 237 -156q73 -107 73 -215q0 -172 -116 -290q98 -31 253 -31h38v-324h-57q-248 0 -445 190q-246 -190 -647 -190q-337 0 -521 100q-270 146 -195 552q19 102 84 230l118 -42q-67 -248 4 -354
q98 -145 491 -164q241 -12 450 40zM1346 500q80 -70 125 -70t103 55q57 55 57 96q-1 43 -57 95q-54 52 -109 52q-52 1 -104 -56q-51 -55 -51 -98t36 -74z" />
    <glyph glyph-name="uni06CA.fina" unicode="&#x6ca;" horiz-adv-x="872" 
d="M256 1350l170 -171l-170 -170l-171 170zM599 1350l170 -171l-170 -170l-170 170zM758 1q-16 -88 -36 -147q-100 -298 -475 -445q-24 -10 -37 8q-142 200 -143 203q-14 28 20 41q392 150 456 338h-87q-202 2 -289 96q-107 115 -22 407q46 158 124 231q63 58 155 60
q184 6 271 -197q59 -138 69 -273l120 1v-324zM585 320q-57 230 -213 206q-62 -10 -87 -83q-35 -107 94 -121q69 -8 125 -5z" />
    <glyph glyph-name="uni06D5.fina" unicode="&#x6d5;" horiz-adv-x="1036" 
d="M252 511q51 -51 296 -56q11 0 87 2h13l-57 252l-11 -3q-281 -88 -329 -157q-15 -22 1 -38zM1031 0q-242 0 -342 262l-6 15l-164 -153q-114 2 -259 30q-153 29 -163 106q-30 238 4 346q47 142 443 324l8 3l-19 86l114 127q55 62 73 -24l122 -606q39 -192 179 -192h27v-324
h-17z" />
    <glyph glyph-name="uniFB56" unicode="&#x67e;" horiz-adv-x="1864" arabic-form="isolated" 
d="M910 -743l-162 162l162 162l162 -162zM923 -324l163 162l162 -162l-162 -163zM896 -324l-162 -163l-162 163l162 162zM305 840q-63 -251 4 -354q101 -154 491 -164q111 -3 203 -1q394 7 518 133q30 31 20 65q-40 128 -99 253l145 182q31 38 58 -11q99 -177 98 -356
q-1 -158 -61 -283q-145 -304 -824 -304q-378 0 -560 100q-211 116 -211 391q1 195 100 391z" />
    <glyph glyph-name="uniFB57" unicode="&#x67e;" horiz-adv-x="1967" arabic-form="final" 
d="M873 -743l-162 162l162 162l162 -162zM886 -324l163 162l162 -162l-162 -163zM859 -324l-162 -163l-162 163l162 162zM1591 242q-224 -242 -741 -242q-371 0 -553 100q-212 117 -211 393q1 194 100 389l118 -42q-67 -246 4 -354q101 -152 481 -164q416 -13 631 96
q150 75 187 234l117 -19q-28 -212 120 -293q29 -16 113 -16h21v-324h-24q-277 0 -363 242z" />
    <glyph glyph-name="uniFB58" unicode="&#x67e;" horiz-adv-x="673" arabic-form="initial" 
d="M265 -743l-162 162l162 162l162 -162zM278 -324l163 162l162 -162l-162 -163zM251 -324l-162 -163l-162 163l162 162zM98 324q174 0 229 75q13 20 2 76q-12 64 -85 235l146 186q31 39 55 0q110 -185 110 -358q0 -247 -109 -388q-115 -150 -361 -150h-97v324h110z" />
    <glyph glyph-name="uniFB59" unicode="&#x67e;" horiz-adv-x="728" arabic-form="medial" 
d="M297 -743l-162 162l162 162l162 -162zM310 -324l163 162l162 -162l-162 -163zM283 -324l-162 -163l-162 163l162 162zM353 664h143l20 -189q15 -151 209 -151h15v-324h-28q-193 0 -299 169q-111 -169 -324 -169h-100v324h75q256 0 270 148z" />
    <glyph glyph-name="uniFB7A" unicode="&#x686;" horiz-adv-x="1336" arabic-form="isolated" 
d="M789.468 -240.213l-136.846 136.846l136.846 136.846l136.846 -136.846zM800.449 113.728l137.69 136.846l136.846 -136.846l-136.846 -137.69zM777.642 113.728l-136.846 -137.69l-136.846 137.69l136.846 136.846zM1150 486q-306 -41 -506 -143q-341 -172 -341 -426
q0 -275 473 -275q165 0 286 15q148 19 151 19q12 1 10 -31q-17 -263 -54 -270q-125 -24 -420 -24q-312 0 -462 141q-160 150 -160 383q0 436 329 638q139 84 263 107q-4 0 -99 22q-149 34 -219 34q-98 0 -198 -119q-57 35 -113 71q41 106 107 184q103 123 232 123
q76 0 567 -147q93 -28 237 -31q18 0 13 -16z" />
    <glyph glyph-name="uniFB7B" unicode="&#x686;" horiz-adv-x="1351" arabic-form="final" 
d="M682.213 -266.54l-125.544 125.544l125.544 125.545l125.545 -125.545zM692.288 58.1699l126.318 125.544l125.545 -125.544l-125.545 -126.319zM671.364 58.1699l-125.545 -126.319l-125.544 126.319l125.544 125.544zM749 -649q-314 2 -462 141q-160 150 -160 383
q0 436 329 638q139 84 263 107q-4 0 -99 22q-149 34 -219 34q-98 0 -198 -119q-57 35 -113 71q41 106 107 184q103 123 232 123q76 0 567 -147q93 -28 237 -31q18 0 12 -17l-92 -253q-74 -2 -140 -23l1 -10q12 -130 323 -130h26v-324h-17q-436 0 -473 428q-134 -37 -229 -85
q-341 -172 -341 -426q0 -275 473 -275q165 0 265 15q107 17 140 19q12 1 10 -31q-17 -263 -54 -270q-135 -26 -388 -24z" />
    <glyph glyph-name="uniFB7C" unicode="&#x686;" horiz-adv-x="1407" arabic-form="initial" 
d="M608 -743l-162 162l162 162l162 -162zM621 -324l163 162l162 -162l-162 -163zM594 -324l-162 -163l-162 163l162 162zM420 953q116 6 342 -99q330 -153 488 -166q27 -2 73 -2q16 0 10 -19l-80 -246q-202 -47 -633 -281q-258 -140 -518 -140h-113v324h137q281 0 515 93
l259 103q-133 40 -260 90q-158 64 -233 64q-125 0 -236 -134l-106 55l9 23q125 323 346 335z" />
    <glyph glyph-name="uniFB7D" unicode="&#x686;" horiz-adv-x="1417" arabic-form="medial" 
d="M625 -743l-162 162l162 162l162 -162zM638 -324l163 162l162 -162l-162 -163zM611 -324l-162 -163l-162 163l162 162zM876 292q-125 -81 -256 -152q-258 -140 -518 -140h-113v324h137q281 0 515 93l259 103q-133 40 -260 90q-164 64 -233 64q-125 0 -236 -134l-106 55
l9 23q125 323 346 335q116 6 342 -99q330 -153 488 -166q27 -2 73 -2q17 0 10 -19l-80 -226q-86 -10 -214 -74q37 -43 161 -43h236v-324h-109q-398 0 -451 292z" />
    <glyph glyph-name="uniFB8A" unicode="&#x698;" horiz-adv-x="807" arabic-form="isolated" 
d="M464 1349l162 -162l-162 -162l-163 162zM450 931l-162 -163l-162 163l162 162zM477 931l163 162l162 -162l-162 -163zM583 623q36 -57 63 -115q155 -333 30 -655q-112 -300 -481 -444q-24 -10 -37 8q-132 179 -143 203q-14 28 20 41q471 179 470 405q0 91 -143 339
q142 182 173 222q24 32 48 -4z" />
    <glyph glyph-name="uniFB8B" unicode="&#x698;" horiz-adv-x="880" arabic-form="final" 
d="M485 1348l162 -162l-162 -162l-163 162zM471 930l-162 -163l-162 163l162 162zM498 930l163 162l162 -162l-162 -163zM709 56q-8 -101 -43 -203q-99 -295 -481 -444q-24 -10 -37 8q-132 179 -143 203q-14 28 20 41q471 179 470 415q0 81 -143 329q142 182 173 222
q25 33 48 -4q69 -154 79 -175q62 -124 216 -124h24v-324h-13q-121 0 -170 56z" />
    <glyph glyph-name="uniFB8E" unicode="&#x6a9;" horiz-adv-x="1908" arabic-form="isolated" 
d="M1175 1065q338 -295 401 -443q25 -57 26 -128q1 -155 -117 -276q-211 -218 -672 -218q-331 0 -513 100q-211 115 -210 393q1 197 99 388l118 -43q-63 -251 4 -352q110 -166 491 -164q438 3 615 123q14 10 -27 68q-85 116 -475 446l75 295l828 296q49 18 41 -39l-34 -221z
" />
    <glyph glyph-name="uniFB8F" unicode="&#x6a9;" horiz-adv-x="2093" arabic-form="final" 
d="M1169 1065q239 -225 482 -488q235 -253 420 -253h34v-324h-34q-254 0 -505 331q-14 -39 -64 -93q-221 -239 -689 -238q-331 0 -513 100q-269 146 -195 552q19 102 84 229l118 -43q-63 -251 4 -352q109 -165 491 -164q239 1 416 44q148 36 201 87q6 5 3 14
q-22 52 -512 493l74 294l828 296q49 18 41 -39l-34 -221z" />
    <glyph glyph-name="uniFB90" unicode="&#x6a9;" horiz-adv-x="1020" arabic-form="initial" 
d="M29 959l72 295l828 296q49 18 41 -39l-34 -221l-650 -225q185 -152 264 -234q183 -191 174 -374q-7 -170 -113 -279q-173 -178 -537 -178h-86v324h109q303 0 389 65q53 39 40 86q-30 110 -497 484z" />
    <glyph glyph-name="uniFB91" unicode="&#x6a9;" horiz-adv-x="1212" arabic-form="medial" 
d="M286 1065q262 -236 493 -475q257 -265 425 -266h20v-324h-20q-247 0 -498 330q-29 -69 -63 -111q-176 -219 -548 -219h-107v324h108q304 0 390 56q49 32 49 73q0 71 -506 506l72 295l828 296q49 18 41 -39l-34 -221z" />
    <glyph glyph-name="uniFB92" unicode="&#x6af;" horiz-adv-x="1929" arabic-form="isolated" 
d="M1196 1005q199 -156 286 -284q92 -136 85 -264q-6 -130 -119 -246q-205 -211 -640 -211q-325 0 -507 100q-269 146 -195 552q19 102 84 229l118 -43q-63 -251 4 -352q111 -164 471 -164q437 1 600 123q10 8 8 14q-21 66 -178 215q-140 131 -275 230l73 290l828 296
q49 18 41 -39l-34 -221zM1893 1710l-21 -104l-831 -288l40 141l785 277q34 12 27 -26z" />
    <glyph glyph-name="uniFB93" unicode="&#x6af;" horiz-adv-x="2036" arabic-form="final" 
d="M1196 1005q149 -123 435 -430q233 -251 382 -251h35v-324h-35q-218 0 -466 329q-24 -52 -88 -118q-205 -211 -661 -211q-316 0 -498 100q-269 146 -195 552q19 102 84 229l118 -43q-64 -253 4 -352q114 -164 491 -164q440 0 581 123q5 5 5 10q0 21 -32 60
q-67 83 -148 159q-166 157 -270 230l73 290l828 296q49 18 41 -39l-34 -221zM1892 1710l-21 -104l-831 -288l40 141l785 277q34 12 27 -26z" />
    <glyph glyph-name="uniFB94" unicode="&#x6af;" horiz-adv-x="1004" arabic-form="initial" 
d="M286 1015q181 -145 297 -292q99 -126 90 -287q-7 -149 -113 -258q-173 -178 -549 -178h-23v324h46q315 0 401 65q61 45 40 86q-56 112 -442 397l68 332l828 296q49 18 41 -39l-34 -221zM989 1710l-21 -104l-831 -288l40 141l785 277q35 12 27 -26z" />
    <glyph glyph-name="uniFB95" unicode="&#x6af;" horiz-adv-x="1135" arabic-form="medial" 
d="M296 1005q166 -136 429 -416q249 -265 403 -265h21v-324h-21q-226 0 -479 335q-26 -92 -89 -157q-172 -178 -549 -178h-23v324h46q315 0 401 65q66 49 40 86q-106 155 -442 408l78 311l828 296q49 18 41 -39l-34 -221zM989 1710l-21 -104l-831 -288l40 141l785 277
q35 12 27 -26z" />
    <glyph glyph-name="uniFB9E" unicode="&#x6ba;" horiz-adv-x="1406" arabic-form="isolated" 
d="M1091 -281q-159 -118 -410 -118q-313 0 -456 155q-166 179 -128 488q17 141 102 331l139 -39q-109 -359 10 -506q105 -129 339 -128q298 2 413 180q41 64 21 133q-38 136 -124 281l142 210q20 30 47 -13q152 -243 141 -529q-10 -277 -236 -445z" />
    <glyph glyph-name="uniFB9F" unicode="&#x6ba;" horiz-adv-x="1503" arabic-form="final" 
d="M1304 363q47 -39 171 -39h40v-324h-40q-79 0 -163 47q-11 -308 -221 -464q-159 -118 -410 -118q-313 0 -456 154q-166 179 -128 489q17 141 103 330l138 -39q-108 -359 10 -506q105 -129 339 -128q296 2 413 181q42 65 21 133q-43 143 -122 281l139 209q19 29 40 -11
l21 -39q62 -120 105 -156z" />
    <glyph glyph-name="uniFBAA" unicode="&#x6be;" horiz-adv-x="1257" arabic-form="isolated" 
d="M659 428q190 -69 259 -75q134 198 -141 320l-14 6q-2 -140 -104 -251zM508 175q-207 -175 -460 -175h-60v324h292q-84 30 -115 71q-52 69 -19 221q43 190 188 284l17 11l-144 61l78 235l398 -193q558 -270 441 -647q-5 -18 -12 -36q-88 -227 -169 -232q-161 -10 -435 76z
M523 479q71 40 92 121q21 80 3 123q-16 38 -76 59q-112 40 -203 -96q-97 -142 184 -207z" />
    <glyph glyph-name="uniFBAB" unicode="&#x6be;" horiz-adv-x="1090" arabic-form="final" 
d="M339 327q294 11 315 129q17 95 -138 276q-150 -250 -177 -405zM639 -584q-402 285 -457 584h-194v324h186q40 317 267 596q87 106 170 50q98 -68 171 -203q146 -273 -123 -586q-117 -136 -307 -182q62 -120 242 -226l11 36q158 515 469 515h29v-324h-17q-180 0 -257 -101
q-61 -82 5 -350z" />
    <glyph glyph-name="uniFBAC" unicode="&#x6be;" horiz-adv-x="1257" arabic-form="initial" 
d="M659 428q190 -69 259 -75q134 198 -141 320l-14 6q-2 -140 -104 -251zM508 175q-207 -175 -460 -175h-60v324h292q-84 30 -115 71q-52 69 -19 221q43 190 188 284l17 11l-144 61l78 235l398 -193q558 -270 441 -647q-5 -18 -12 -36q-88 -227 -169 -232q-161 -10 -435 76z
M523 479q71 40 92 121q21 80 3 123q-16 38 -76 59q-112 40 -203 -96q-97 -142 184 -207z" />
    <glyph glyph-name="uniFBAD" unicode="&#x6be;" horiz-adv-x="1090" arabic-form="medial" 
d="M339 327q294 11 315 129q17 95 -138 276q-150 -250 -177 -405zM639 -584q-402 285 -457 584h-194v324h186q40 317 267 596q87 106 170 50q98 -68 171 -203q146 -273 -123 -586q-117 -136 -307 -182q62 -120 242 -226l11 36q158 515 469 515h29v-324h-17q-180 0 -257 -101
q-61 -82 5 -350z" />
    <glyph glyph-name="uniFBE8" unicode="&#x649;" horiz-adv-x="645" arabic-form="initial" 
d="M98 324q174 0 229 75q13 20 2 76q-12 64 -85 235l146 186q31 39 55 0q110 -185 110 -358q0 -247 -109 -388q-115 -150 -361 -150h-97v324h110z" />
    <glyph glyph-name="uniFBE9" unicode="&#x649;" horiz-adv-x="728" arabic-form="medial" 
d="M353 664h143l20 -189q15 -151 209 -151h15v-324h-28q-193 0 -299 169q-111 -169 -324 -169h-100v324h75q256 0 270 148z" />
    <glyph glyph-name="uniFBFC" unicode="&#x6cc;" horiz-adv-x="1523" arabic-form="isolated" 
d="M699 -503q-317 -3 -475 162q-128 134 -129 356q-2 248 112 454l138 -36q-104 -309 -37 -452q84 -180 411 -182q332 -2 481 190q22 28 -6 33l-196 36q-125 21 -178 34q-85 22 -94 96q-10 86 30 235q78 288 293 389q184 86 403 14q-22 -212 -41 -290l-54 6
q-312 30 -431 -153l-11 -17l321 -58q151 -27 164 -172q19 -221 -139 -403q-208 -239 -562 -242z" />
    <glyph glyph-name="uniFBFD" unicode="&#x6cc;" horiz-adv-x="1539" arabic-form="final" 
d="M360 397q-100 -285 -42 -438q81 -213 446 -206q289 5 408 109q24 21 22 38q-2 16 -15 28q-54 54 -297 75q-33 3 -28 51q28 270 125 270h572v-324h-217q65 -74 29 -186q-42 -128 -163 -217q-201 -144 -476 -146q-322 -2 -486 170q-162 170 -120 483q25 190 104 330z" />
    <glyph glyph-name="uniFBFE" unicode="&#x6cc;" horiz-adv-x="695" arabic-form="initial" 
d="M93 -184l170 -171l-170 -170l-171 170zM436 -184l170 -171l-170 -170l-170 170zM98 324q174 0 229 75q13 20 2 76q-12 64 -85 235l146 186q31 39 55 0q110 -185 110 -358q0 -247 -109 -388q-115 -150 -361 -150h-97v324h110z" />
    <glyph glyph-name="uniFBFF" unicode="&#x6cc;" horiz-adv-x="728" arabic-form="medial" 
d="M125 -183l170 -171l-170 -170l-171 170zM468 -183l170 -171l-170 -170l-170 170zM353 664h143l20 -189q15 -151 209 -151h15v-324h-28q-193 0 -299 169q-111 -169 -324 -169h-100v324h75q256 0 270 148z" />
    <glyph glyph-name="uniFDFC" unicode="&#xfdfc;" horiz-adv-x="2870" arabic-form="isolated" 
d="M2610 707q149 -237 154 -405q5 -192 -90 -352q-139 -232 -476 -338q-21 -7 -36 13q-67 94 -103 190q-12 31 25 39q412 89 460 324q11 57 -142 323l160 210q25 32 48 -4zM2047 343l171 -170l-171 -171l-158 159l-159 -159l-171 171l171 170l159 -158zM2065 817q19 25 3 64
q-28 70 -54 150l112 140q38 48 59 28q6 -5 9 -12q90 -166 80 -360q-8 -171 -115 -267q-118 -107 -237 -107l-161 1q-149 0 -244 101q-86 94 -83 453q3 321 -22 436l186 87q44 20 44 -24l-3 -339q-3 -290 43 -359q34 -53 172 -53h65q100 0 146 61zM1234 343
q-30 -279 -219 -417q-125 -91 -304 -91q-254 1 -375 133t-121 352q1 221 107 455l127 -41q-107 -343 8 -485q84 -103 257 -102q221 2 299 128q31 51 28 145q-10 303 -70 1012l191 85q44 19 46 -37l21 -578q2 -127 7 -308q6 -182 -2 -251z" />
    <glyph glyph-name="uniFE71" unicode="&#xfe71;" horiz-adv-x="769" arabic-form="medial" 
d="M-22 0v324h291v-324h-291zM45 1106v118l524 214v-117zM45 1392v118l524 214v-118z" />
    <glyph glyph-name="uniFE77" unicode="&#xfe77;" horiz-adv-x="769" arabic-form="medial" 
d="M-14 1285v122l497 203v-122zM-22 0v324h291v-324h-291z" />
    <glyph glyph-name="uniFE79" unicode="&#xfe79;" horiz-adv-x="769" arabic-form="medial" 
d="M529 1417l-130 8q-136 -180 -375 -193v97q158 7 252 109l14 15q-71 24 -94 44q-65 57 -65 113q-1 97 67 152q37 30 100 30q66 0 118 -51q48 -48 49 -130q-1 -34 -20 -95l84 -3v-96zM347 1532q58 152 -45 159q-29 2 -41 -8q-26 -25 -32.5 -55t16 -49.5t47 -28t28.5 -9.5
q8 -3 27 -9zM-22 0v324h291v-324h-291z" />
    <glyph glyph-name="uniFE7B" unicode="&#xfe7b;" horiz-adv-x="769" arabic-form="medial" 
d="M31 -344v122l497 204v-122zM-22 0v324h291v-324h-291z" />
    <glyph glyph-name="uniFE7D" unicode="&#xfe7d;" horiz-adv-x="769" arabic-form="medial" 
d="M61 1621l1 -79q3 -102 87 -99q81 2 82 118v121q36 12 94 18l2 -88q2 -93 85 -93q85 0 81 106l-2 71q78 51 93 61l5 -58q25 -319 -161 -318q-77 0 -130 54q-48 -116 -163 -115q-182 1 -163 262l5 73q64 -25 84 -34zM-22 0v324h291v-324h-291z" />
    <glyph glyph-name="uniFE7F" unicode="&#xfe7f;" horiz-adv-x="769" arabic-form="medial" 
d="M-22 0v324h291v-324h-291zM539 1670q10 10 17.5 21t12.5 23q10 24 10 53q0 57 -40 97t-98 40q-14 0 -27.5 -2.5t-25.5 -7.5t-23 -12.5t-21 -17.5q-20 -19 -29.5 -43.5t-9.5 -53.5q0 -58 39 -97q19 -20 43.5 -29.5t53.5 -9.5t53.5 10t44.5 29zM676 1768q0 -25 -4.5 -47.5
t-13 -43.5t-21 -40t-29.5 -36q-34 -34 -76 -51q-20 -9 -43 -13t-47 -4q-33 0 -62 7.5t-55.5 23t-48.5 37.5q-68 68 -68 166.5t68 166.5t166 68q24 0 47 -4.5t44 -12.5q41 -18 75 -51q5 -5 9.5 -10t8.5 -10q8 -11 15 -21q2 -4 4.5 -8t4.5 -7.5t4 -7.5q2 -6 4.5 -12t4.5 -12
l4 -12t3 -13l4 -26q1 -3 1 -5.5t0.5 -5t0.5 -5.5v-6v-5z" />
    <glyph glyph-name="uniFE80" unicode="&#x621;" horiz-adv-x="891" arabic-form="isolated" 
d="M678 533q-42 15 -78.5 24.5t-65.5 13.5t-52 2q-33 -3 -61 -15t-51 -33q-14 -14 -25 -26q-5 -6 -8.5 -11t-5.5 -8q-5 -8 -5 -13v-1v-1q2 -24 20 -47.5t52 -45.5q20 -14 37 -25q9 -5 16.5 -9.5t13 -8t10 -6t7.5 -3.5l2 -1h3q41 2 138 27l102 26q1 0 2.5 0.5l3 1t4 1t4.5 1
t4.5 1.5t4 1.5t3.5 1t3 0.5q5 1 13 2q7 1 11 0q4 0 8 -3q2 -1 3.5 -3t2.5 -4q2 -3 2.5 -5t0.5 -5q1 -6 1 -9t-2 -14q-1 -6 -1.5 -10t-1.5 -7l-17 -116l-686 -189l76 206l87 24l-12 13q-118 121 -56 310q46 142 187 193q45 16 92 18.5t96 -8.5q24 -5 48.5 -14t50.5 -21
q35 -18 69 -51l4 -4l-1 -6q-4 -22 -14 -56.5t-25 -80.5l-4 -10z" />
    <glyph glyph-name="uniFE81" unicode="&#x622;" horiz-adv-x="654" arabic-form="isolated" 
d="M186.297 -5.5q-0.980469 975.561 -52.9199 1278.85l213.637 116.996q60.7578 34.1982 63.6982 -16.1992q11.7598 -210.592 11.7598 -431.982q0 -263.689 -10.7803 -543.578q-11.7598 -286.188 -48.998 -354.586q-34.2998 -62.0977 -176.396 -58.4971v8.99902zM203 1575
q-86 -1 -184 -89q-33 21 -51 45q60 155 97 190q47 46 103 46t167 -14q159 -21 274 8q63 16 70 1q5 -10 -13 -38q-51 -78 -108 -124.5t-355 -24.5z" />
    <glyph glyph-name="uniFE82" unicode="&#x622;" horiz-adv-x="615" arabic-form="final" 
d="M423 1362q13 -246 -1 -639q-9 -264 43 -344q36 -55 160 -55h13v-324h-39q-187 0 -262 64q-149 129 -145 505q5 483 -45 676l225 135q48 29 51 -18zM204 1578q-86 -1 -184 -89q-33 21 -51 45q60 155 97 190q47 46 103 46t167 -14q159 -21 274 8q63 16 70 1q5 -10 -13 -38
q-51 -78 -108 -124.5t-355 -24.5z" />
    <glyph glyph-name="uniFE83" unicode="&#x623;" horiz-adv-x="577" arabic-form="isolated" 
d="M186.297 -5.5q-0.980469 975.561 -52.9199 1278.85l213.637 116.996q60.7578 34.1982 63.6982 -16.1992q11.7598 -210.592 11.7598 -431.982q0 -263.689 -10.7803 -543.578q-11.7598 -286.188 -48.998 -354.586q-34.2998 -62.0977 -176.396 -58.4971v8.99902zM60 1434
l25 168q7 3 63 29l22 10l-22 10q-127 53 -73 232q54 180 224 179q99 0 167 -63l16 -15l-43 -96q-233 63 -265 -63q-4 -15 1 -27q43 -100 240 -52q51 13 60 7t8 -44l-1 -100q-194 -65 -422 -175z" />
    <glyph glyph-name="uniFE84" unicode="&#x623;" horiz-adv-x="615" arabic-form="final" 
d="M423 1362q13 -246 -1 -639q-9 -264 43 -344q36 -55 160 -55h13v-324h-39q-187 0 -262 64q-149 129 -145 505q5 483 -45 676l225 135q48 29 51 -18zM62 1438l25 168q7 3 63 29l22 10l-22 10q-127 53 -73 232q54 180 224 179q99 0 167 -63l16 -15l-43 -96q-233 63 -265 -63
q-4 -15 1 -27q43 -100 240 -52q51 13 60 7t8 -44l-1 -100q-194 -65 -422 -175z" />
    <glyph glyph-name="uniFE85" unicode="&#x624;" horiz-adv-x="864" arabic-form="isolated" 
d="M220 873l25 168q7 3 63 29l22 10l-22 10q-127 53 -73 232q54 180 224 179q99 0 167 -63l16 -15l-43 -96q-233 63 -265 -63q-4 -15 1 -27q43 -100 240 -52q51 13 60 7t8 -44l-1 -100q-194 -65 -422 -175zM722 -146q-99 -296 -477 -445q-24 -10 -37 8q-142 200 -143 203
q-14 28 20 41q393 150 456 337l-82 -1q-206 -1 -290 98q-104 122 -22 407q46 158 124 231q63 58 155 60q179 5 270 -196q79 -174 78 -425q0 -162 -52 -318zM588 320q-57 230 -213 206q-62 -10 -87 -83q-35 -107 94 -121q69 -8 125 -5z" />
    <glyph glyph-name="uniFE86" unicode="&#x624;" horiz-adv-x="872" arabic-form="final" 
d="M225 903l25 168q7 3 63 29l22 10l-22 10q-127 53 -73 232q54 180 224 179q99 0 167 -63l16 -15l-43 -96q-233 63 -265 -63q-4 -15 1 -27q43 -100 240 -52q51 13 60 7t8 -44l-1 -100q-194 -65 -422 -175zM758 1q-16 -88 -36 -147q-100 -298 -475 -445q-24 -10 -37 8
q-142 200 -143 203q-14 28 20 41q392 150 456 338h-87q-202 2 -289 96q-107 115 -22 407q46 158 124 231q63 58 155 60q184 6 271 -197q59 -138 69 -273l120 1v-324zM585 320q-57 230 -213 206q-62 -10 -87 -83q-35 -107 94 -121q69 -8 125 -5z" />
    <glyph glyph-name="uniFE87" unicode="&#x625;" horiz-adv-x="555" arabic-form="isolated" 
d="M61 -721l25 168q7 3 63 29l22 10l-22 10q-127 53 -73 232q54 180 224 179q99 0 167 -63l16 -15l-43 -96q-233 63 -265 -63q-4 -15 1 -27q43 -100 240 -52q51 13 60 7t8 -44l-1 -100q-194 -65 -422 -175zM185 -5q-1 1084 -54 1421l218 130q62 38 65 -18q12 -234 12 -480
q0 -293 -11 -604q-12 -318 -50 -394q-35 -69 -180 -65v10z" />
    <glyph glyph-name="uniFE88" unicode="&#x625;" horiz-adv-x="589" arabic-form="final" 
d="M48 -684l25 168q7 3 63 29l22 10l-22 10q-127 53 -73 232q54 180 224 179q99 0 167 -63l16 -15l-43 -96q-233 63 -265 -63q-4 -15 1 -27q43 -100 240 -52q51 13 60 7t8 -44l-1 -100q-194 -65 -422 -175zM409 1494q6 -214 -13 -771q-9 -259 33 -327q45 -72 148 -72h24
v-324h-59q-287 0 -348 237q-30 113 -28 332q7 676 -29 856l213 122q56 32 59 -53z" />
    <glyph glyph-name="uniFE89" unicode="&#x626;" horiz-adv-x="1523" arabic-form="isolated" 
d="M239.613 657.812l27.8242 186.979q7.79102 3.33887 70.1172 32.2764l24.4863 11.1299l-24.4863 11.1299q-141.348 58.9873 -81.2471 258.21q60.1006 200.336 249.307 199.223q110.185 0 185.867 -70.1172l17.8076 -16.6943l-47.8574 -106.846
q-259.324 70.1172 -294.939 -70.1182q-4.45117 -16.6943 1.11328 -30.0498q47.8584 -111.298 267.114 -57.875q56.7617 14.4688 66.7783 7.79102q10.0176 -6.67773 8.9043 -48.9707l-1.11328 -111.298q-215.917 -72.3438 -469.676 -194.771zM699 -503q-317 -3 -475 162
q-128 134 -129 356q-2 248 112 454l138 -36q-104 -309 -37 -452q84 -180 411 -182q332 -2 481 190q22 28 -6 33l-196 36q-125 21 -178 34q-85 22 -94 96q-10 86 30 235q78 288 293 389q184 86 403 14q-22 -212 -41 -290l-54 6q-312 30 -431 -153l-11 -17l321 -58
q151 -27 164 -172q19 -221 -139 -403q-208 -239 -562 -242z" />
    <glyph glyph-name="uniFE8A" unicode="&#x626;" horiz-adv-x="1539" arabic-form="final" 
d="M502 504l25 168q7 3 63 29l22 10l-22 10q-127 53 -73 232q54 180 224 179q99 0 167 -63l16 -15l-43 -96q-233 63 -265 -63q-4 -15 1 -27q43 -100 240 -52q51 13 60 7t8 -44l-1 -100q-194 -65 -422 -175zM360 397q-100 -285 -42 -438q81 -213 446 -206q289 5 408 109
q24 21 22 38q-2 16 -15 28q-54 54 -297 75q-33 3 -28 51q28 270 125 270h572v-324h-217q65 -74 29 -186q-42 -128 -163 -217q-201 -144 -476 -146q-322 -2 -486 170q-162 170 -120 483q25 190 104 330z" />
    <glyph glyph-name="uniFE8B" unicode="&#x626;" horiz-adv-x="645" arabic-form="initial" 
d="M92 976l25 168q7 3 63 29l22 10l-22 10q-127 53 -73 232q54 180 224 179q99 0 167 -63l16 -15l-43 -96q-233 63 -265 -63q-4 -15 1 -27q43 -100 240 -52q51 13 60 7t8 -44l-1 -100q-194 -65 -422 -175zM98 324q174 0 229 75q13 20 2 76q-12 64 -85 235l146 186
q31 39 55 0q110 -185 110 -358q0 -247 -109 -388q-115 -150 -361 -150h-97v324h110z" />
    <glyph glyph-name="uniFE8C" unicode="&#x626;" horiz-adv-x="728" arabic-form="medial" 
d="M124 848l25 168q7 3 63 29l22 10l-22 10q-127 53 -73 232q54 180 224 179q99 0 167 -63l16 -15l-43 -96q-233 63 -265 -63q-4 -15 1 -27q43 -100 240 -52q51 13 60 7t8 -44l-1 -100q-194 -65 -422 -175zM353 664h143l20 -189q15 -151 209 -151h15v-324h-28
q-193 0 -299 169q-111 -169 -324 -169h-100v324h75q256 0 270 148z" />
    <glyph glyph-name="uniFE8D" unicode="&#x627;" horiz-adv-x="555" arabic-form="isolated" 
d="M185 -5q-1 1084 -54 1421l218 130q62 38 65 -18q12 -234 12 -480q0 -293 -11 -604q-12 -318 -50 -394q-35 -69 -180 -65v10z" />
    <glyph glyph-name="uniFE8E" unicode="&#x627;" horiz-adv-x="589" arabic-form="final" 
d="M409 1494q6 -214 -13 -771q-9 -259 33 -327q45 -72 148 -72h24v-324h-59q-287 0 -348 237q-30 113 -28 332q7 676 -29 856l213 122q56 32 59 -53z" />
    <glyph glyph-name="uniFE8F" unicode="&#x628;" horiz-adv-x="1843" arabic-form="isolated" 
d="M971 -173l178 -178l-178 -178l-178 178zM304 840q-63 -251 4 -354q101 -154 491 -164q111 -3 203 -1q394 7 518 133q30 31 20 65q-40 128 -99 253l145 182q31 38 58 -11q99 -177 98 -356q-1 -158 -61 -283q-145 -304 -824 -304q-378 0 -560 100q-211 116 -211 391
q1 195 100 391z" />
    <glyph glyph-name="uniFE90" unicode="&#x628;" horiz-adv-x="1967" arabic-form="final" 
d="M935 -173l178 -178l-178 -178l-178 178zM1591 242q-224 -242 -741 -242q-371 0 -553 100q-212 117 -211 393q1 194 100 389l118 -42q-67 -246 4 -354q101 -152 481 -164q416 -13 631 96q150 75 187 234l117 -19q-28 -212 120 -293q29 -16 113 -16h21v-324h-24
q-277 0 -363 242z" />
    <glyph glyph-name="uniFE91" unicode="&#x628;" horiz-adv-x="645" arabic-form="initial" 
d="M224 -171l178 -178l-178 -178l-178 178zM98 324q174 0 229 75q13 20 2 76q-12 64 -85 235l146 186q31 39 55 0q110 -185 110 -358q0 -247 -109 -388q-115 -150 -361 -150h-97v324h110z" />
    <glyph glyph-name="uniFE92" unicode="&#x628;" horiz-adv-x="728" arabic-form="medial" 
d="M266 -172l178 -178l-178 -178l-178 178zM353 664h143l20 -189q15 -151 209 -151h15v-324h-28q-193 0 -299 169q-111 -169 -324 -169h-100v324h75q256 0 270 148z" />
    <glyph glyph-name="uniFE93" unicode="&#x629;" horiz-adv-x="893" arabic-form="isolated" 
d="M247 1445l170 -171l-170 -170l-171 170zM590 1445l170 -171l-170 -170l-170 170zM377 630q-155 -206 -98 -271q42 -49 170 -48q168 0 190 95q10 41 -20 85q-32 47 -116 87q-5 1 -93 39q-12 5 -33 13zM814 448q8 -207 -97 -327q-104 -119 -271 -115q-174 4 -262 100
q-91 99 -92 289q-1 204 228 491q32 40 75 25q268 -97 374 -307q43 -84 45 -156z" />
    <glyph glyph-name="uniFE94" unicode="&#x629;" horiz-adv-x="1036" arabic-form="final" 
d="M392 1656l170 -171l-170 -170l-171 170zM735 1656l170 -171l-170 -170l-170 170zM252 511q51 -51 296 -56q11 0 87 2h13l-57 252l-11 -3q-281 -88 -329 -157q-15 -22 1 -38zM1031 0q-242 0 -342 262l-6 15l-164 -153q-114 2 -259 30q-153 29 -163 106q-30 238 4 346
q47 142 443 324l8 3l-19 86l114 127q55 62 73 -24l122 -606q39 -192 179 -192h27v-324h-17z" />
    <glyph glyph-name="uniFE95" unicode="&#x62a;" horiz-adv-x="1843" arabic-form="isolated" 
d="M731 1253l170 -171l-170 -170l-171 170zM1074 1253l170 -171l-170 -170l-170 170zM304 840q-63 -251 4 -354q101 -154 491 -164q111 -3 203 -1q394 7 518 133q30 31 20 65q-40 128 -99 253l145 182q31 38 58 -11q99 -177 98 -356q-1 -158 -61 -283q-145 -304 -824 -304
q-378 0 -560 100q-211 116 -211 391q1 195 100 391z" />
    <glyph glyph-name="uniFE96" unicode="&#x62a;" horiz-adv-x="1967" arabic-form="final" 
d="M766 1188l170 -171l-170 -170l-171 170zM1109 1188l170 -171l-170 -170l-170 170zM1591 242q-224 -242 -741 -242q-371 0 -553 100q-212 117 -211 393q1 194 100 389l118 -42q-67 -246 4 -354q101 -152 481 -164q416 -13 631 96q150 75 187 234l117 -19
q-28 -212 120 -293q29 -16 113 -16h21v-324h-24q-277 0 -363 242z" />
    <glyph glyph-name="uniFE97" unicode="&#x62a;" horiz-adv-x="681" arabic-form="initial" 
d="M124 1395l170 -171l-170 -170l-171 170zM467 1395l170 -171l-170 -170l-170 170zM98 324q174 0 229 75q13 20 2 76q-12 64 -85 235l146 186q31 39 55 0q110 -185 110 -358q0 -247 -109 -388q-115 -150 -361 -150h-97v324h110z" />
    <glyph glyph-name="uniFE98" unicode="&#x62a;" horiz-adv-x="728" arabic-form="medial" 
d="M147 1267l170 -171l-170 -170l-171 170zM490 1267l170 -171l-170 -170l-170 170zM353 664h143l20 -189q15 -151 209 -151h15v-324h-28q-193 0 -299 169q-111 -169 -324 -169h-100v324h75q256 0 270 148z" />
    <glyph glyph-name="uniFE99" unicode="&#x62b;" horiz-adv-x="1843" arabic-form="isolated" 
d="M909 1430l162 -162l-162 -162l-163 162zM895 1012l-162 -163l-162 163l162 162zM922 1012l163 162l162 -162l-162 -163zM304 840q-63 -251 4 -354q101 -154 491 -164q111 -3 203 -1q394 7 518 133q30 31 20 65q-40 128 -99 253l145 182q31 38 58 -11q99 -177 98 -356
q-1 -158 -61 -283q-145 -304 -824 -304q-378 0 -560 100q-211 116 -211 391q1 195 100 391z" />
    <glyph glyph-name="uniFE9A" unicode="&#x62b;" horiz-adv-x="1967" arabic-form="final" 
d="M924 1367l162 -162l-162 -162l-163 162zM910 949l-162 -163l-162 163l162 162zM937 949l163 162l162 -162l-162 -163zM1591 242q-224 -242 -741 -242q-371 0 -553 100q-212 117 -211 393q1 194 100 389l118 -42q-67 -246 4 -354q101 -152 481 -164q416 -13 631 96
q150 75 187 234l117 -19q-28 -212 120 -293q29 -16 113 -16h21v-324h-24q-277 0 -363 242z" />
    <glyph glyph-name="uniFE9B" unicode="&#x62b;" horiz-adv-x="669" arabic-form="initial" 
d="M296 1602l162 -162l-162 -162l-163 162zM282 1184l-162 -163l-162 163l162 162zM309 1184l163 162l162 -162l-162 -163zM98 324q174 0 229 75q13 20 2 76q-12 64 -85 235l146 186q31 39 55 0q110 -185 110 -358q0 -247 -109 -388q-115 -150 -361 -150h-97v324h110z" />
    <glyph glyph-name="uniFE9C" unicode="&#x62b;" horiz-adv-x="728" arabic-form="medial" 
d="M317 1466l162 -162l-162 -162l-163 162zM303 1048l-162 -163l-162 163l162 162zM330 1048l163 162l162 -162l-162 -163zM353 664h143l20 -189q15 -151 209 -151h15v-324h-28q-193 0 -299 169q-111 -169 -324 -169h-100v324h75q256 0 270 148z" />
    <glyph glyph-name="uniFE9D" unicode="&#x62c;" horiz-adv-x="1336" arabic-form="isolated" 
d="M798 208l178 -178l-178 -178l-178 178zM1150 486q-306 -41 -506 -143q-341 -172 -341 -426q0 -275 473 -275q165 0 286 15q148 19 151 19q12 1 10 -31q-17 -263 -54 -270q-125 -24 -420 -24q-312 0 -462 141q-160 150 -160 383q0 436 329 638q139 84 263 107q-4 0 -99 22
q-149 34 -219 34q-98 0 -198 -119q-57 35 -113 71q41 106 107 184q103 123 232 123q76 0 567 -147q93 -28 237 -31q18 0 13 -16z" />
    <glyph glyph-name="uniFE9E" unicode="&#x62c;" horiz-adv-x="1351" arabic-form="final" 
d="M695 174l178 -178l-178 -178l-178 178zM749 -649q-314 2 -462 141q-160 150 -160 383q0 436 329 638q139 84 263 107q-4 0 -99 22q-149 34 -219 34q-98 0 -198 -119q-57 35 -113 71q41 106 107 184q103 123 232 123q76 0 567 -147q93 -28 237 -31q18 0 12 -17l-92 -253
q-74 -2 -140 -23l1 -10q12 -130 323 -130h26v-324h-17q-436 0 -473 428q-134 -37 -229 -85q-341 -172 -341 -426q0 -275 473 -275q165 0 265 15q107 17 140 19q12 1 10 -31q-17 -263 -54 -270q-135 -26 -388 -24z" />
    <glyph glyph-name="uniFE9F" unicode="&#x62c;" horiz-adv-x="1407" arabic-form="initial" 
d="M567 -178l178 -178l-178 -178l-178 178zM420 953q116 6 342 -99q330 -153 488 -166q27 -2 73 -2q16 0 10 -19l-80 -246q-202 -47 -633 -281q-258 -140 -518 -140h-113v324h137q281 0 515 93l259 103q-133 40 -260 90q-158 64 -233 64q-125 0 -236 -134l-106 55l9 23
q125 323 346 335z" />
    <glyph glyph-name="uniFEA0" unicode="&#x62c;" horiz-adv-x="1417" arabic-form="medial" 
d="M566 -177l178 -178l-178 -178l-178 178zM876 292q-125 -81 -256 -152q-258 -140 -518 -140h-113v324h137q281 0 515 93l259 103q-133 40 -260 90q-164 64 -233 64q-125 0 -236 -134l-106 55l9 23q125 323 346 335q116 6 342 -99q330 -153 488 -166q27 -2 73 -2
q17 0 10 -19l-80 -226q-86 -10 -214 -74q37 -43 161 -43h236v-324h-109q-398 0 -451 292z" />
    <glyph glyph-name="uniFEA1" unicode="&#x62d;" horiz-adv-x="1336" arabic-form="isolated" 
d="M1150 486q-306 -41 -506 -143q-341 -172 -341 -426q0 -275 473 -275q165 0 286 15q148 19 151 19q12 1 10 -31q-17 -263 -54 -270q-125 -24 -420 -24q-312 0 -462 141q-160 150 -160 383q0 436 329 638q139 84 263 107q-4 0 -99 22q-149 34 -219 34q-98 0 -198 -119
q-57 35 -113 71q41 106 107 184q103 123 232 123q76 0 567 -147q93 -28 237 -31q18 0 13 -16z" />
    <glyph glyph-name="uniFEA2" unicode="&#x62d;" horiz-adv-x="1351" arabic-form="final" 
d="M749 -649q-314 2 -462 141q-160 150 -160 383q0 436 329 638q139 84 263 107q-4 0 -99 22q-149 34 -219 34q-98 0 -198 -119q-57 35 -113 71q41 106 107 184q103 123 232 123q76 0 567 -147q93 -28 237 -31q18 0 12 -17l-92 -253q-74 -2 -140 -23l1 -10q12 -130 323 -130
h26v-324h-17q-436 0 -473 428q-134 -37 -229 -85q-341 -172 -341 -426q0 -275 473 -275q165 0 265 15q107 17 140 19q12 1 10 -31q-17 -263 -54 -270q-135 -26 -388 -24z" />
    <glyph glyph-name="uniFEA3" unicode="&#x62d;" horiz-adv-x="1407" arabic-form="initial" 
d="M420 953q116 6 342 -99q330 -153 488 -166q27 -2 73 -2q16 0 10 -19l-80 -246q-202 -47 -633 -281q-258 -140 -518 -140h-113v324h137q281 0 515 93l259 103q-133 40 -260 90q-158 64 -233 64q-125 0 -236 -134l-106 55l9 23q125 323 346 335z" />
    <glyph glyph-name="uniFEA4" unicode="&#x62d;" horiz-adv-x="1417" arabic-form="medial" 
d="M876 292q-125 -81 -256 -152q-258 -140 -518 -140h-113v324h137q281 0 515 93l259 103q-133 40 -260 90q-164 64 -233 64q-125 0 -236 -134l-106 55l9 23q125 323 346 335q116 6 342 -99q330 -153 488 -166q27 -2 73 -2q17 0 10 -19l-80 -226q-86 -10 -214 -74
q37 -43 161 -43h236v-324h-109q-398 0 -451 292z" />
    <glyph glyph-name="uniFEA5" unicode="&#x62e;" horiz-adv-x="1336" arabic-form="isolated" 
d="M623 1484l178 -178l-178 -178l-178 178zM1150 486q-306 -41 -506 -143q-341 -172 -341 -426q0 -275 473 -275q165 0 286 15q148 19 151 19q12 1 10 -31q-17 -263 -54 -270q-125 -24 -420 -24q-312 0 -462 141q-160 150 -160 383q0 436 329 638q139 84 263 107
q-4 0 -99 22q-149 34 -219 34q-98 0 -198 -119q-57 35 -113 71q41 106 107 184q103 123 232 123q76 0 567 -147q93 -28 237 -31q18 0 13 -16z" />
    <glyph glyph-name="uniFEA6" unicode="&#x62e;" horiz-adv-x="1351" arabic-form="final" 
d="M623 1484l178 -178l-178 -178l-178 178zM749 -649q-314 2 -462 141q-160 150 -160 383q0 436 329 638q139 84 263 107q-4 0 -99 22q-149 34 -219 34q-98 0 -198 -119q-57 35 -113 71q41 106 107 184q103 123 232 123q76 0 567 -147q93 -28 237 -31q18 0 12 -17l-92 -253
q-74 -2 -140 -23l1 -10q12 -130 323 -130h26v-324h-17q-436 0 -473 428q-134 -37 -229 -85q-341 -172 -341 -426q0 -275 473 -275q165 0 265 15q107 17 140 19q12 1 10 -31q-17 -263 -54 -270q-135 -26 -388 -24z" />
    <glyph glyph-name="uniFEA7" unicode="&#x62e;" horiz-adv-x="1407" arabic-form="initial" 
d="M555 1544l178 -178l-178 -178l-178 178zM420 953q116 6 342 -99q330 -153 488 -166q27 -2 73 -2q16 0 10 -19l-80 -246q-202 -47 -633 -281q-258 -140 -518 -140h-113v324h137q281 0 515 93l259 103q-133 40 -260 90q-158 64 -233 64q-125 0 -236 -134l-106 55l9 23
q125 323 346 335z" />
    <glyph glyph-name="uniFEA8" unicode="&#x62e;" horiz-adv-x="1417" arabic-form="medial" 
d="M555 1542l178 -178l-178 -178l-178 178zM876 292q-125 -81 -256 -152q-258 -140 -518 -140h-113v324h137q281 0 515 93l259 103q-133 40 -260 90q-164 64 -233 64q-125 0 -236 -134l-106 55l9 23q125 323 346 335q116 6 342 -99q330 -153 488 -166q27 -2 73 -2
q17 0 10 -19l-80 -226q-86 -10 -214 -74q37 -43 161 -43h236v-324h-109q-398 0 -451 292z" />
    <glyph glyph-name="uniFEA9" unicode="&#x62f;" horiz-adv-x="1027" arabic-form="isolated" 
d="M757 418q-49 128 -436 421l95 235q9 23 25 23q14 1 36 -19q364 -297 430 -480q33 -91 33 -190q-1 -104 -36 -180q-106 -226 -474 -226q-341 0 -344 312q-1 47 24 146l126 -13l-1 -37q-2 -85 219 -85q187 0 283 58q27 16 20 35z" />
    <glyph glyph-name="uniFEAA" unicode="&#x62f;" horiz-adv-x="1142" arabic-form="final" 
d="M1116 0q-238 0 -310 224q-153 -224 -391 -224q-326 0 -328 318q0 46 23 142l114 -13l1 -28q4 -92 203 -92q131 -1 204 38q78 41 71 66q-3 9 -3 10l-161 530l141 134q53 50 74 -25l160 -565q54 -191 222 -191h19v-324h-39z" />
    <glyph glyph-name="uniFEAB" unicode="&#x630;" horiz-adv-x="1027" arabic-form="isolated" 
d="M395 1651l178 -178l-178 -178l-178 178zM757 418q-49 128 -436 421l95 235q9 23 25 23q14 1 36 -19q364 -297 430 -480q33 -91 33 -190q-1 -104 -36 -180q-106 -226 -474 -226q-341 0 -344 312q-1 47 24 146l126 -13l-1 -37q-2 -85 219 -85q187 0 283 58q27 16 20 35z
" />
    <glyph glyph-name="uniFEAC" unicode="&#x630;" horiz-adv-x="1142" arabic-form="final" 
d="M622 1600l178 -178l-178 -178l-178 178zM1116 0q-238 0 -310 224q-153 -224 -391 -224q-326 0 -328 318q0 46 23 142l114 -13l1 -28q4 -92 203 -92q131 -1 204 38q78 41 71 66q-3 9 -3 10l-161 530l141 134q53 50 74 -25l160 -565q54 -191 222 -191h19v-324h-39z" />
    <glyph glyph-name="uniFEAD" unicode="&#x631;" horiz-adv-x="807" arabic-form="isolated" 
d="M583 623q36 -57 63 -115q155 -333 30 -655q-112 -300 -481 -444q-24 -10 -37 8q-132 179 -143 203q-14 28 20 41q471 179 470 405q0 91 -143 339q142 182 173 222q24 32 48 -4z" />
    <glyph glyph-name="uniFEAE" unicode="&#x631;" horiz-adv-x="880" arabic-form="final" 
d="M709 56q-8 -101 -43 -203q-99 -295 -481 -444q-24 -10 -37 8q-132 179 -143 203q-14 28 20 41q471 179 470 415q0 81 -143 329q142 182 173 222q25 33 48 -4q69 -154 79 -175q62 -124 216 -124h24v-324h-13q-121 0 -170 56z" />
    <glyph glyph-name="uniFEAF" unicode="&#x632;" horiz-adv-x="807" arabic-form="isolated" 
d="M467 1206l178 -178l-178 -178l-178 178zM583 623q36 -57 63 -115q155 -333 30 -655q-112 -300 -481 -444q-24 -10 -37 8q-132 179 -143 203q-14 28 20 41q471 179 470 405q0 91 -143 339q142 182 173 222q24 32 48 -4z" />
    <glyph glyph-name="uniFEB0" unicode="&#x632;" horiz-adv-x="880" arabic-form="final" 
d="M477 1206l178 -178l-178 -178l-178 178zM709 56q-8 -101 -43 -203q-99 -295 -481 -444q-24 -10 -37 8q-132 179 -143 203q-14 28 20 41q471 179 470 415q0 81 -143 329q142 182 173 222q25 33 48 -4q69 -154 79 -175q62 -124 216 -124h24v-324h-13q-121 0 -170 56z" />
    <glyph glyph-name="uniFEB1" unicode="&#x633;" horiz-adv-x="2375" arabic-form="isolated" 
d="M1944 -2q-201 0 -284 166q-108 -167 -205 -164q-70 1 -143 47q-11 -307 -221 -464q-159 -118 -410 -118q-312 -1 -456 154q-166 179 -128 489q17 141 103 330l138 -39q-108 -359 10 -506q105 -129 339 -128q296 2 413 181q42 65 21 133q-43 143 -122 281l137 205
q21 33 47 -16l16 -30q60 -116 104 -156q44 -38 121 -37q142 3 162 177l15 127h142l15 -138q18 -172 189 -169q99 1 119 75q12 44 -3 95q-22 69 -79 196l145 185q31 39 55 0q100 -168 100 -338q0 -244 -118 -398q-106 -139 -222 -140z" />
    <glyph glyph-name="uniFEB2" unicode="&#x633;" horiz-adv-x="2519" arabic-form="final" 
d="M2097 502l13 163h151l12 -160q13 -181 212 -181h47v-324h-48q-210 0 -298 160q-104 -159 -239 -159q-187 0 -261 158q-98 -161 -207 -158q-97 2 -169 46q-11 -308 -222 -464q-158 -118 -419 -118q-303 0 -447 154q-165 179 -127 489q17 141 102 330l139 -39
q-109 -359 10 -506q105 -129 339 -128q295 2 412 181q43 64 22 133q-41 143 -123 284l139 204q20 31 43 -12l18 -36q55 -105 90 -140q54 -55 159 -53q147 5 162 159l15 145h143l14 -138q17 -164 174 -166q131 -3 144 176z" />
    <glyph glyph-name="uniFEB3" unicode="&#x633;" horiz-adv-x="1601" arabic-form="initial" 
d="M1169 -2q-181 -1 -265 165q-108 -166 -236 -166q-163 1 -250 163q-120 -160 -316 -160h-114v324h107q226 0 243 164l15 144h143l14 -140q17 -167 163 -166q136 0 151 158l15 150h143l14 -143q18 -172 176 -169q99 2 118 75q12 43 -3 96q-20 76 -79 195l146 186
q31 39 55 0q100 -168 100 -338q0 -244 -119 -398q-106 -139 -221 -140z" />
    <glyph glyph-name="uniFEB4" unicode="&#x633;" horiz-adv-x="1736" arabic-form="medial" 
d="M96 324q237 0 253 164l15 145h143l14 -148q15 -159 163 -159q136 -1 152 159l14 149h143l14 -143q17 -165 156 -166q133 -2 147 176l12 163h152l11 -155q14 -185 227 -185h37v-324h-38q-232 0 -320 159q-97 -159 -215 -159q-173 0 -258 163q-103 -163 -233 -163
q-179 0 -265 158q-120 -158 -311 -158h-121v324h108z" />
    <glyph glyph-name="uniFEB5" unicode="&#x634;" horiz-adv-x="2375" arabic-form="isolated" 
d="M1642 1450l162 -162l-162 -162l-163 162zM1628 1032l-162 -163l-162 163l162 162zM1655 1032l163 162l162 -162l-162 -163zM1944 -2q-201 0 -284 166q-108 -167 -205 -164q-70 1 -143 47q-11 -307 -221 -464q-159 -118 -410 -118q-312 -1 -456 154q-166 179 -128 489
q17 141 103 330l138 -39q-108 -359 10 -506q105 -129 339 -128q296 2 413 181q42 65 21 133q-43 143 -122 281l137 205q21 33 47 -16l16 -30q60 -116 104 -156q44 -38 121 -37q142 3 162 177l15 127h142l15 -138q18 -172 189 -169q99 1 119 75q12 44 -3 95q-22 69 -79 196
l145 185q31 39 55 0q100 -168 100 -338q0 -244 -118 -398q-106 -139 -222 -140z" />
    <glyph glyph-name="uniFEB6" unicode="&#x634;" horiz-adv-x="2519" arabic-form="final" 
d="M1657 1449l162 -162l-162 -162l-163 162zM1643 1031l-162 -163l-162 163l162 162zM1670 1031l163 162l162 -162l-162 -163zM2097 502l13 163h151l12 -160q13 -181 212 -181h47v-324h-48q-210 0 -298 160q-104 -159 -239 -159q-187 0 -261 158q-98 -161 -207 -158
q-97 2 -169 46q-11 -308 -222 -464q-158 -118 -419 -118q-303 0 -447 154q-165 179 -127 489q17 141 102 330l139 -39q-109 -359 10 -506q105 -129 339 -128q295 2 412 181q43 64 22 133q-41 143 -123 284l139 204q20 31 43 -12l18 -36q55 -105 90 -140q54 -55 159 -53
q147 5 162 159l15 145h143l14 -138q17 -164 174 -166q131 -3 144 176z" />
    <glyph glyph-name="uniFEB7" unicode="&#x634;" horiz-adv-x="1581" arabic-form="initial" 
d="M854 1449l162 -162l-162 -162l-163 162zM840 1031l-162 -163l-162 163l162 162zM867 1031l163 162l162 -162l-162 -163zM1169 -2q-181 -1 -265 165q-108 -166 -236 -166q-163 1 -250 163q-120 -160 -316 -160h-114v324h107q226 0 243 164l15 144h143l14 -140
q17 -167 163 -166q136 0 151 158l15 150h143l14 -143q18 -172 176 -169q99 2 118 75q12 43 -3 96q-20 76 -79 195l146 186q31 39 55 0q100 -168 100 -338q0 -244 -119 -398q-106 -139 -221 -140z" />
    <glyph glyph-name="uniFEB8" unicode="&#x634;" horiz-adv-x="1736" arabic-form="medial" 
d="M852 1449l162 -162l-162 -162l-163 162zM838 1031l-162 -163l-162 163l162 162zM865 1031l163 162l162 -162l-162 -163zM96 324q237 0 253 164l15 145h143l14 -148q15 -159 163 -159q136 -1 152 159l14 149h143l14 -143q17 -165 156 -166q133 -2 147 176l12 163h152
l11 -155q14 -185 227 -185h37v-324h-38q-232 0 -320 159q-97 -159 -215 -159q-173 0 -258 163q-103 -163 -233 -163q-179 0 -265 158q-120 -158 -311 -158h-121v324h108z" />
    <glyph glyph-name="uniFEB9" unicode="&#x635;" horiz-adv-x="2623" arabic-form="isolated" 
d="M1816 0h-234q-167 0 -270 44q-11 -305 -221 -461q-159 -118 -410 -118q-313 0 -456 154q-166 179 -128 489q17 141 102 330l139 -38q-108 -360 10 -507q105 -129 339 -128q298 2 413 181q41 64 21 133q-39 140 -123 281l140 210q19 28 38 -10l27 -52q89 -175 225 -181h17
q115 156 198 247q289 318 552 318q214 -1 303 -167q23 -42 31 -97q26 -180 -64 -326q-189 -302 -649 -302zM1607 326h300q343 0 402 55q38 34 28 91q-25 141 -221 138q-228 -3 -509 -284z" />
    <glyph glyph-name="uniFEBA" unicode="&#x635;" horiz-adv-x="2686" arabic-form="final" 
d="M1607 326h300q343 0 402 55q38 34 28 91q-25 141 -221 138q-228 -3 -509 -284zM1582 0q-167 0 -270 44q-11 -305 -221 -461q-159 -118 -410 -118q-313 0 -456 154q-166 179 -128 489q17 141 103 330l138 -39q-108 -359 10 -506q105 -129 339 -128q298 2 413 181
q41 64 21 133q-40 141 -121 281l137 206q20 32 44 -16l22 -42q89 -175 225 -181h17q98 137 198 247q286 318 552 318q214 -1 303 -167q41 -75 35 -189q-4 -105 -58 -194q-5 -8 -10 -18h234v-324h-35q-201 0 -371 141q-192 -141 -477 -141h-234z" />
    <glyph glyph-name="uniFEBB" unicode="&#x635;" horiz-adv-x="1745" arabic-form="initial" 
d="M939 -2h-234q-202 0 -351 175q-140 -173 -326 -173h-40v324h21q248 0 261 164l13 163h137l15 -163q13 -145 133 -163q99 139 198 247q289 318 552 317q214 0 303 -166q23 -42 31 -97q26 -182 -64 -326q-190 -302 -649 -302zM730 324h300q341 0 403 55q37 34 27 91
q-25 141 -221 138q-227 -3 -509 -284z" />
    <glyph glyph-name="uniFEBC" unicode="&#x635;" horiz-adv-x="1810" arabic-form="medial" 
d="M730 324h300q342 0 403 55q37 34 27 91q-25 141 -221 138q-227 -3 -509 -284zM1590 324h232v-324h-35q-201 0 -371 139q-193 -141 -477 -141h-234q-204 0 -353 174q-130 -172 -324 -172h-40v324h21q248 0 261 164l13 163h137l15 -163q13 -145 133 -163q91 130 198 247
q288 318 552 317q215 0 303 -166q40 -74 40 -156q1 -77 -28 -152q-16 -42 -43 -91z" />
    <glyph glyph-name="uniFEBD" unicode="&#x636;" horiz-adv-x="2623" arabic-form="isolated" 
d="M2108 1476l178 -178l-178 -178l-178 178zM1816 0h-234q-167 0 -270 44q-11 -305 -221 -461q-159 -118 -410 -118q-313 0 -456 154q-166 179 -128 489q17 141 102 330l139 -38q-108 -360 10 -507q105 -129 339 -128q298 2 413 181q41 64 21 133q-39 140 -123 281l140 210
q19 28 38 -10l27 -52q89 -175 225 -181h17q115 156 198 247q289 318 552 318q214 -1 303 -167q23 -42 31 -97q26 -180 -64 -326q-189 -302 -649 -302zM1607 326h300q343 0 402 55q38 34 28 91q-25 141 -221 138q-228 -3 -509 -284z" />
    <glyph glyph-name="uniFEBE" unicode="&#x636;" horiz-adv-x="2686" arabic-form="final" 
d="M2087 1476l178 -178l-178 -178l-178 178zM1607 326h300q343 0 402 55q38 34 28 91q-25 141 -221 138q-228 -3 -509 -284zM1582 0q-167 0 -270 44q-11 -305 -221 -461q-159 -118 -410 -118q-313 0 -456 154q-166 179 -128 489q17 141 103 330l138 -39q-108 -359 10 -506
q105 -129 339 -128q298 2 413 181q41 64 21 133q-40 141 -121 281l137 206q20 32 44 -16l22 -42q89 -175 225 -181h17q98 137 198 247q286 318 552 318q214 -1 303 -167q41 -75 35 -189q-4 -105 -58 -194q-5 -8 -10 -18h234v-324h-35q-201 0 -371 141q-192 -141 -477 -141
h-234z" />
    <glyph glyph-name="uniFEBF" unicode="&#x636;" horiz-adv-x="1745" arabic-form="initial" 
d="M1205 1486l178 -178l-178 -178l-178 178zM939 -2h-234q-202 0 -351 175q-140 -173 -326 -173h-40v324h21q248 0 261 164l13 163h137l15 -163q13 -145 133 -163q99 139 198 247q289 318 552 317q214 0 303 -166q23 -42 31 -97q26 -182 -64 -326q-190 -302 -649 -302z
M730 324h300q341 0 403 55q37 34 27 91q-25 141 -221 138q-227 -3 -509 -284z" />
    <glyph glyph-name="uniFEC0" unicode="&#x636;" horiz-adv-x="1810" arabic-form="medial" 
d="M1205 1486l178 -178l-178 -178l-178 178zM730 324h300q342 0 403 55q37 34 27 91q-25 141 -221 138q-227 -3 -509 -284zM1590 324h232v-324h-35q-201 0 -371 139q-193 -141 -477 -141h-234q-204 0 -353 174q-130 -172 -324 -172h-40v324h21q248 0 261 164l13 163h137
l15 -163q13 -145 133 -163q91 130 198 247q288 318 552 317q215 0 303 -166q40 -74 40 -156q1 -77 -28 -152q-16 -42 -43 -91z" />
    <glyph glyph-name="uniFEC1" unicode="&#x637;" horiz-adv-x="1637" arabic-form="isolated" 
d="M623 326h300q341 0 403 55q37 34 27 91q-25 141 -221 138q-227 -3 -509 -284zM675 571q296 321 536 321q214 -1 303 -167q23 -42 31 -97q27 -180 -64 -326q-189 -302 -648 -302h-235l-306 -1q-130 133 -192 229q-61 96 58 96h307q-2 299 -26 682q-19 297 -42 412l220 128
q58 35 58 -39v-936z" />
    <glyph glyph-name="uniFEC2" unicode="&#x637;" horiz-adv-x="1713" arabic-form="final" 
d="M675 571q295 321 536 321q214 -1 303 -167q23 -42 31 -97q25 -168 -54 -286q-6 -9 -13 -18h247v-324h-36q-195 0 -378 143q-192 -143 -478 -143h-235l-306 -1q-130 133 -192 229q-61 96 58 96h307q-2 264 -26 650q-22 343 -42 444l220 128q58 35 58 -19v-956zM623 326
h300q341 0 403 55q37 34 27 91q-25 141 -221 138q-227 -3 -509 -284z" />
    <glyph glyph-name="uniFEC3" unicode="&#x637;" horiz-adv-x="1362" arabic-form="initial" 
d="M398 571q296 321 537 321q214 -1 303 -167q23 -42 31 -97q26 -181 -64 -326q-189 -302 -649 -302h-568l1 324h198q-1 264 -26 650q-21 344 -42 444l221 129q58 34 58 -30v-946zM347 326h300q341 0 402 55q38 34 27 91q-24 141 -220 138q-228 -3 -509 -284z" />
    <glyph glyph-name="uniFEC4" unicode="&#x637;" horiz-adv-x="1424" arabic-form="medial" 
d="M398 571q297 321 537 321q212 -1 301 -167q36 -66 36 -169q1 -102 -39 -181q-20 -38 -34 -51h237v-324h-36q-201 0 -371 141q-187 -141 -473 -141h-568l1 324h198q-1 314 -26 715q-15 252 -42 379l221 129q58 34 58 -30v-946zM347 326h300q341 0 402 55q38 34 27 91
q-24 141 -220 138q-228 -3 -509 -284z" />
    <glyph glyph-name="uniFEC5" unicode="&#x638;" horiz-adv-x="1637" arabic-form="isolated" 
d="M1146 1477l178 -178l-178 -178l-178 178zM623 326h300q341 0 403 55q37 34 27 91q-25 141 -221 138q-227 -3 -509 -284zM675 571q296 321 536 321q214 -1 303 -167q23 -42 31 -97q27 -180 -64 -326q-189 -302 -648 -302h-235l-306 -1q-130 133 -192 229q-61 96 58 96h307
q-2 299 -26 682q-19 297 -42 412l220 128q58 35 58 -39v-936z" />
    <glyph glyph-name="uniFEC6" unicode="&#x638;" horiz-adv-x="1713" arabic-form="final" 
d="M1147 1474l178 -178l-178 -178l-178 178zM675 571q295 321 536 321q214 -1 303 -167q23 -42 31 -97q25 -168 -54 -286q-6 -9 -13 -18h247v-324h-36q-195 0 -378 143q-192 -143 -478 -143h-235l-306 -1q-130 133 -192 229q-61 96 58 96h307q-2 264 -26 650
q-22 343 -42 444l220 128q58 35 58 -19v-956zM623 326h300q341 0 403 55q37 34 27 91q-25 141 -221 138q-227 -3 -509 -284z" />
    <glyph glyph-name="uniFEC7" unicode="&#x638;" horiz-adv-x="1362" arabic-form="initial" 
d="M882 1483l178 -178l-178 -178l-178 178zM398 571q296 321 537 321q214 -1 303 -167q23 -42 31 -97q26 -181 -64 -326q-189 -302 -649 -302h-568l1 324h198q-1 264 -26 650q-21 344 -42 444l221 129q58 34 58 -30v-946zM347 326h300q341 0 402 55q38 34 27 91
q-24 141 -220 138q-228 -3 -509 -284z" />
    <glyph glyph-name="uniFEC8" unicode="&#x638;" horiz-adv-x="1424" arabic-form="medial" 
d="M881 1479l178 -178l-178 -178l-178 178zM398 571q297 321 537 321q212 -1 301 -167q36 -66 36 -169q1 -102 -39 -181q-20 -38 -34 -51h237v-324h-36q-201 0 -371 141q-187 -141 -473 -141h-568l1 324h198q-1 314 -26 715q-15 252 -42 379l221 129q58 34 58 -30v-946z
M347 326h300q341 0 402 55q38 34 27 91q-24 141 -220 138q-228 -3 -509 -284z" />
    <glyph glyph-name="uniFEC9" unicode="&#x639;" horiz-adv-x="1337" arabic-form="isolated" 
d="M95 -125q0 386 304 575l-29 32q-102 119 -102 258q1 87 23 143q76 195 249 260q59 23 139 23q181 0 346 -159l-54 -154q-102 49 -246 52q-153 2 -225 -66q-59 -55 -59 -95q0 -58 92 -123q93 -64 120 -64q28 0 279 43l156 18q31 3 36 -11q6 -13 0 -35l-63 -241
q-347 -5 -581 -122q-209 -104 -209 -292q0 -275 473 -275q165 0 286 15q148 19 151 19q12 1 10 -31q-13 -262 -54 -270q-125 -24 -420 -24q-312 0 -462 141q-160 150 -160 383zM370 482v0v0z" />
    <glyph glyph-name="uniFECA" unicode="&#x639;" horiz-adv-x="1297" arabic-form="final" 
d="M717 -649q-314 2 -462 141q-160 150 -160 383q1 413 332 625q102 66 184 82q-30 44 -336 84v150q116 70 436 70q322 -1 323 -159q1 -153 -178 -256l-1 -14q-12 -133 407 -133h47v-324h-36q-514 0 -564 355l-2 13q-436 -165 -436 -451q0 -275 473 -275q165 0 265 15
q107 17 140 19q12 1 10 -31q-17 -263 -54 -270q-135 -26 -388 -24z" />
    <glyph glyph-name="uniFECB" unicode="&#x639;" horiz-adv-x="1124" arabic-form="initial" 
d="M879 720q-160 63 -237 61q-156 -3 -260 -98q-69 -63 -68 -92q4 -93 158 -192q42 -27 66 -29q50 -3 340 64l108 26q32 7 38 0q17 -18 12 -34l-84 -239q-483 -126 -537 -140q-178 -47 -372 -47h-54v324h233l-12 19q-130 189 -32 423q105 250 367 273q221 20 367 -169z" />
    <glyph glyph-name="uniFECC" unicode="&#x639;" horiz-adv-x="1019" arabic-form="medial" 
d="M122 733q130 80 425 80q348 0 333 -179q-9 -115 -201 -240l13 -11q75 -59 312 -59h27v-324h-80q-247 0 -401 200q-201 -200 -444 -200h-118v324h26q371 0 459 75q-104 152 -351 184v150z" />
    <glyph glyph-name="uniFECD" unicode="&#x63a;" horiz-adv-x="1289" arabic-form="isolated" 
d="M685 1729l178 -178l-178 -178l-178 178zM95 -125q0 386 304 575l-29 32q-102 119 -102 258q1 87 23 143q76 195 249 260q59 23 139 23q181 0 346 -159l-54 -154q-102 49 -246 52q-153 2 -225 -66q-59 -55 -59 -95q0 -58 92 -123q93 -64 120 -64q28 0 279 43l156 18
q31 3 36 -11q6 -13 0 -35l-63 -241q-347 -5 -581 -122q-209 -104 -209 -292q0 -275 473 -275q165 0 286 15q148 19 151 19q12 1 10 -31q-13 -262 -54 -270q-125 -24 -420 -24q-312 0 -462 141q-160 150 -160 383zM370 482v0v0z" />
    <glyph glyph-name="uniFECE" unicode="&#x63a;" horiz-adv-x="1297" arabic-form="final" 
d="M669 1444l178 -178l-178 -178l-178 178zM717 -649q-314 2 -462 141q-160 150 -160 383q1 413 332 625q102 66 184 82q-30 44 -336 84v150q116 70 436 70q322 -1 323 -159q1 -153 -178 -256l-1 -14q-12 -133 407 -133h47v-324h-36q-514 0 -564 355l-2 13
q-436 -165 -436 -451q0 -275 473 -275q165 0 265 15q107 17 140 19q12 1 10 -31q-17 -263 -54 -270q-135 -26 -388 -24z" />
    <glyph glyph-name="uniFECF" unicode="&#x63a;" horiz-adv-x="1124" arabic-form="initial" 
d="M554 1611l178 -178l-178 -178l-178 178zM879 720q-160 63 -237 61q-156 -3 -260 -98q-69 -63 -68 -92q4 -93 158 -192q42 -27 66 -29q50 -3 340 64l108 26q32 7 38 0q17 -18 12 -34l-84 -239q-483 -126 -537 -140q-178 -47 -372 -47h-54v324h233l-12 19q-130 189 -32 423
q105 250 367 273q221 20 367 -169z" />
    <glyph glyph-name="uniFED0" unicode="&#x63a;" horiz-adv-x="1019" arabic-form="medial" 
d="M497 1386l178 -178l-178 -178l-178 178zM122 733q130 80 425 80q348 0 333 -179q-9 -115 -201 -240l13 -11q75 -59 312 -59h27v-324h-80q-247 0 -401 200q-201 -200 -444 -200h-118v324h26q371 0 459 75q-104 152 -351 184v150z" />
    <glyph glyph-name="uniFED1" unicode="&#x641;" horiz-adv-x="1737" arabic-form="isolated" 
d="M1286 1688l178 -178l-178 -178l-178 178zM1466 729q-45 190 -187 186q-72 -2 -101 -80q-22 -57 1 -90q26 -36 128 -35q104 0 159 19zM836 0q-349 0 -536 104q-272 152 -198 548q19 101 84 230l118 -42q-66 -244 4 -354q106 -164 481 -164h75q382 0 484 27q108 29 115 92
l2 15q-119 -20 -193 -19q-235 2 -262 167q-12 80 7 199q28 180 111 279q74 86 188 86q113 0 182 -87q161 -199 144 -607q-10 -237 -175 -356q-166 -118 -565 -118h-66z" />
    <glyph glyph-name="uniFED2" unicode="&#x641;" horiz-adv-x="1955" arabic-form="final" 
d="M1450 1538l178 -178l-178 -178l-178 178zM1249 362q-100 115 -100 267q-1 113 75 228q106 159 258 159q129 -1 237 -156q73 -107 73 -215q0 -172 -116 -290q98 -31 253 -31h38v-324h-57q-248 0 -445 190q-246 -190 -647 -190q-337 0 -521 100q-270 146 -195 552
q19 102 84 230l118 -42q-67 -248 4 -354q98 -145 491 -164q241 -12 450 40zM1346 500q80 -70 125 -70t103 55q57 55 57 96q-1 43 -57 95q-54 52 -109 52q-52 1 -104 -56q-51 -55 -51 -98t36 -74z" />
    <glyph glyph-name="uniFED3" unicode="&#x641;" horiz-adv-x="854" arabic-form="initial" 
d="M398 1688l178 -178l-178 -178l-178 178zM573 751q-45 190 -187 185q-72 -2 -101 -80q-22 -57 1 -90q26 -35 128 -35q104 1 159 20zM169 324q391 0 403 139l1 14q-118 -19 -193 -19q-235 2 -261 167q-13 80 6 199q25 166 112 268q74 87 187 87t183 -88q158 -196 143 -614
q-9 -266 -149 -372q-139 -105 -408 -105h-204v324h180z" />
    <glyph glyph-name="uniFED4" unicode="&#x641;" horiz-adv-x="1007" arabic-form="medial" 
d="M515 1535l178 -178l-178 -178l-178 178zM989 324h30v-324h-69q-255 2 -434 180q-195 -180 -478 -180h-49v324h38q163 0 273 38q-99 115 -99 267q0 114 75 228q106 159 258 159q129 -1 237 -156q73 -106 73 -215q0 -166 -115 -290q116 -31 260 -31zM398 500
q80 -70 125 -70t103 55q57 55 57 96q-1 43 -57 95q-54 52 -109 52q-52 1 -104 -56q-51 -55 -51 -98t36 -74z" />
    <glyph glyph-name="uniFED5" unicode="&#x642;" horiz-adv-x="1396" arabic-form="isolated" 
d="M792 1338l170 -171l-170 -170l-171 170zM1135 1338l170 -171l-170 -170l-170 170zM1131 373q-45 190 -187 185q-72 -2 -101 -80q-22 -57 1 -90q26 -35 128 -35q104 1 159 20zM1300 164q-8 -194 -51 -299q-124 -299 -558 -299q-323 0 -466 155q-167 179 -128 488
q17 141 103 331l138 -40q-109 -358 10 -505q105 -129 359 -128q335 2 418 171q10 20 14 61q-118 -19 -201 -19q-236 1 -261 167q-13 80 6 199q27 179 112 279q73 86 187 86q113 1 183 -87q150 -189 135 -560z" />
    <glyph glyph-name="uniFED6" unicode="&#x642;" horiz-adv-x="1437" arabic-form="final" 
d="M793 1337l170 -171l-170 -170l-171 170zM1136 1337l170 -171l-170 -170l-170 170zM1142 320q-55 227 -213 206q-62 -10 -86 -83q-36 -107 93 -121q75 -8 125 -5zM980 793q178 6 269 -196q56 -124 60 -273h140v-324h-149q-5 -144 -36 -223q-125 -313 -573 -312
q-323 0 -466 154q-166 179 -128 489q17 141 103 330l138 -39q-108 -359 10 -506q105 -129 359 -128q336 2 415 167q15 32 16 69l-117 -4q-207 -6 -298 98q-105 121 -21 407q46 158 123 231q63 58 155 60z" />
    <glyph glyph-name="uniFED7" unicode="&#x642;" horiz-adv-x="854" arabic-form="initial" 
d="M226 1673l170 -171l-170 -170l-171 170zM569 1673l170 -171l-170 -170l-170 170zM573 751q-45 190 -187 185q-72 -2 -101 -80q-22 -57 1 -90q26 -35 128 -35q104 1 159 20zM169 324q391 0 403 139l1 14q-118 -19 -193 -19q-235 2 -261 167q-13 80 6 199q25 166 112 268
q74 87 187 87t183 -88q158 -196 143 -614q-9 -266 -149 -372q-139 -105 -408 -105h-204v324h180z" />
    <glyph glyph-name="uniFED8" unicode="&#x642;" horiz-adv-x="1007" arabic-form="medial" 
d="M322 1516l170 -171l-170 -170l-171 170zM665 1516l170 -171l-170 -170l-170 170zM989 324h30v-324h-69q-255 2 -434 180q-195 -180 -478 -180h-49v324h38q163 0 273 38q-99 115 -99 267q0 114 75 228q106 159 258 159q129 -1 237 -156q73 -106 73 -215q0 -166 -115 -290
q116 -31 260 -31zM398 500q80 -70 125 -70t103 55q57 55 57 96q-1 43 -57 95q-54 52 -109 52q-52 1 -104 -56q-51 -55 -51 -98t36 -74z" />
    <glyph glyph-name="uniFED9" unicode="&#x643;" horiz-adv-x="1921" arabic-form="isolated" 
d="M900 0q-421 0 -603 100q-270 148 -195 552q19 101 84 230l118 -42q-67 -248 4 -354q106 -155 491 -164q536 -13 766 136q42 27 49 101q9 122 -9 492q-15 288 -28 377l213 128q50 31 50 -38v-799q18 -421 -198 -562q-238 -157 -742 -157zM1189 832q-105 -167 -419 -94
q-26 6 -65 18l16 161q118 -42 249.5 -40.5t141.5 62.5q6 38 -128 67q-181 39 -177 216q6 191 327 231q38 7 49.5 -10.5t3.5 -36.5l-39 -111q-121 -12 -181.5 -32.5t-61.5 -57.5q-1 -23 34 -36.5t108 -26.5q168 -29 171 -192q2 -68 -29 -118z" />
    <glyph glyph-name="uniFEDA" unicode="&#x643;" horiz-adv-x="2104" arabic-form="final" 
d="M1218 970q4 -176 -149 -232q-62 -23 -158 -19.5t-206 37.5l16 161q175 -63 318 -34q48 10 59 27q25 39 -2.5 58.5t-99.5 35t-112 44.5q-80 57 -77 174q6 190 326 231q40 5 50.5 -10t3.5 -37l-39 -111q-120 -11 -181 -32t-62 -58q-2 -37 161 -66q70 -12 110 -57t42 -112z
M900 0q-421 0 -603 100q-270 148 -195 552q19 101 84 230l118 -42q-67 -248 4 -354q104 -153 491 -164q504 -15 765 136q45 26 49 111q3 58 -3 392q-5 267 -30 467l205 125q54 33 54 -41l1 -882q1 -110 58 -189q57 -78 174 -78h43v-364h-23q-296 0 -396 210l-7 14l-11 -12
q-201 -211 -778 -211z" />
    <glyph glyph-name="uniFEDB" unicode="&#x643;" horiz-adv-x="1020" arabic-form="initial" 
d="M29 959l72 295l828 296q49 18 41 -39l-34 -221l-650 -225q185 -152 264 -234q183 -191 174 -374q-7 -170 -113 -279q-173 -178 -537 -178h-86v324h109q303 0 389 65q53 39 40 86q-30 110 -497 484z" />
    <glyph glyph-name="uniFEDC" unicode="&#x643;" horiz-adv-x="1212" arabic-form="medial" 
d="M286 1065q262 -236 493 -475q257 -265 425 -266h20v-324h-20q-247 0 -498 330q-29 -69 -63 -111q-176 -219 -548 -219h-107v324h108q304 0 390 56q49 32 49 73q0 71 -506 506l72 295l828 296q49 18 41 -39l-34 -221z" />
    <glyph glyph-name="uniFEDD" unicode="&#x644;" horiz-adv-x="1404" arabic-form="isolated" 
d="M1275 96q5 -246 -129 -418q-147 -187 -452 -187q-325 -1 -469 155q-166 179 -128 488q17 141 103 331l138 -39q-109 -361 10 -506q106 -130 359 -128q235 2 325 150q34 57 29 153q-30 562 -93 1312l201 125q80 50 81 -44z" />
    <glyph glyph-name="uniFEDE" unicode="&#x644;" horiz-adv-x="1489" arabic-form="final" 
d="M1265 593q2 -174 79 -228q59 -41 128 -41h30v-324h-18q-136 0 -207 66q-15 -269 -131 -418q-147 -187 -452 -187q-325 -1 -469 155q-166 179 -128 488q17 141 103 331l138 -39q-109 -361 10 -506q106 -130 359 -128q235 2 325 150q34 57 29 153q-35 646 -93 1342l201 125
q80 50 81 -44z" />
    <glyph glyph-name="uniFEDF" unicode="&#x644;" horiz-adv-x="612" arabic-form="initial" 
d="M249 617q-13 298 -62 800l222 139q59 36 60 -19l15 -944q4 -252 -58 -378q-105 -215 -415 -215h-22v324h28q178 0 218 64q23 37 14 229z" />
    <glyph glyph-name="uniFEE0" unicode="&#x644;" horiz-adv-x="689" arabic-form="medial" 
d="M355 168q-112 -168 -298 -168h-68v324h19q139 0 194 47q62 51 54 248q-22 572 -45 809l226 129q53 30 53 -38v-877q0 -201 26 -260q27 -58 148 -58h37v-324h-48q-212 0 -298 168z" />
    <glyph glyph-name="uniFEE1" unicode="&#x645;" horiz-adv-x="1175" arabic-form="isolated" 
d="M702 862zM306 90l15 -507q5 -133 -145 -272q-63 -59 -66 27l-14 339q-14 352 17 473q47 183 221 248q60 229 148 341q98 124 220 123q271 -1 386 -399q13 -47 -13 -142q-32 -114 -81 -179q-52 -68 -89 -86q-16 -7 -44 -2q-445 76 -555 36zM911 368q-6 91 -97 180
q-78 77 -167 60q-52 -10 -100 -75q-52 -72 -69 -126q157 -10 246 -25q117 -19 134 -21q31 -5 32 -5q21 1 21 12z" />
    <glyph glyph-name="uniFEE2" unicode="&#x645;" horiz-adv-x="1306" arabic-form="final" 
d="M1295 0q-77 0 -172 83l-5 -15q-87 -263 -284 -261q-202 2 -281 190q-37 85 -30 292l2 49q-155 -52 -219 -155l14 -460q6 -173 -154 -322q-53 -50 -56 33l-14 379q-8 214 6 369q14 167 122 277q133 135 340 160q31 146 64 158q11 4 27 -7l506 -379q89 -67 140 -67h18v-324
h-24zM693 426q-7 -125 0 -205q8 -83 51 -116q43 -34 128 -26q59 6 90 69q61 119 -253 287l-15 8z" />
    <glyph glyph-name="uniFEE3" unicode="&#x645;" horiz-adv-x="1019" arabic-form="initial" 
d="M292 177q-144 -177 -289 -177h-15v324h33q139 0 236 134q115 160 199 240q76 70 171 71q63 0 124 -34q141 -81 177 -254q54 -261 -116 -426q-52 -50 -106 -71q-44 -17 -98 -2q-143 42 -316 195zM453 410q152 -158 242 -160q40 0 58 20q20 21 9 84q-10 60 -43 111
q-40 60 -80 75q-34 13 -59 -5q-64 -46 -127 -125z" />
    <glyph glyph-name="uniFEE4" unicode="&#x645;" horiz-adv-x="1150" arabic-form="medial" 
d="M451 349q152 -158 242 -159q40 -1 58 19q20 21 9 84q-10 60 -44 111q-39 60 -79 76q-34 12 -59 -6q-64 -45 -127 -125zM949 423q46 -99 188 -99h25v-324h-14q-161 0 -253 110q-46 -88 -139 -158q-24 -18 -64 -31q-44 -15 -88 -3q-143 39 -323 199q-81 -117 -278 -117h-15
v324h33q168 0 259 109q144 173 176 201q83 68 172 69q73 1 125 -30q110 -66 196 -250z" />
    <glyph glyph-name="uniFEE5" unicode="&#x646;" horiz-adv-x="1406" arabic-form="isolated" 
d="M671 1079l178 -178l-178 -178l-178 178zM1091 -281q-159 -118 -410 -118q-313 0 -456 155q-166 179 -128 488q17 141 102 331l139 -39q-109 -359 10 -506q105 -129 339 -128q298 2 413 180q41 64 21 133q-38 136 -124 281l142 210q20 30 47 -13q152 -243 141 -529
q-10 -277 -236 -445z" />
    <glyph glyph-name="uniFEE6" unicode="&#x646;" horiz-adv-x="1503" arabic-form="final" 
d="M671 920l178 -178l-178 -178l-178 178zM1304 363q47 -39 171 -39h40v-324h-40q-79 0 -163 47q-11 -308 -221 -464q-159 -118 -410 -118q-313 0 -456 154q-166 179 -128 489q17 141 103 330l138 -39q-108 -359 10 -506q105 -129 339 -128q296 2 413 181q42 65 21 133
q-43 143 -122 281l139 209q19 29 40 -11l21 -39q62 -120 105 -156z" />
    <glyph glyph-name="uniFEE7" unicode="&#x646;" horiz-adv-x="646" arabic-form="initial" 
d="M270 1391l178 -178l-178 -178l-178 178zM98 324q174 0 229 75q13 20 2 76q-12 64 -85 235l146 186q31 39 55 0q110 -185 110 -358q0 -247 -109 -388q-115 -150 -361 -150h-97v324h110z" />
    <glyph glyph-name="uniFEE8" unicode="&#x646;" horiz-adv-x="728" arabic-form="medial" 
d="M366 1276l178 -178l-178 -178l-178 178zM353 664h143l20 -189q15 -151 209 -151h15v-324h-28q-193 0 -299 169q-111 -169 -324 -169h-100v324h75q256 0 270 148z" />
    <glyph glyph-name="uniFEE9" unicode="&#x647;" horiz-adv-x="893" arabic-form="isolated" 
d="M377 630q-155 -206 -98 -271q42 -49 170 -48q168 0 190 95q10 41 -20 85q-32 47 -116 87q-5 1 -93 39q-12 5 -33 13zM814 448q8 -207 -97 -327q-104 -119 -271 -115q-174 4 -262 100q-91 99 -92 289q-1 204 228 491q32 40 75 25q268 -97 374 -307q43 -84 45 -156z" />
    <glyph glyph-name="uniFEEA" unicode="&#x647;" horiz-adv-x="1036" arabic-form="final" 
d="M252 511q51 -51 296 -56q11 0 87 2h13l-57 252l-11 -3q-281 -88 -329 -157q-15 -22 1 -38zM1031 0q-242 0 -342 262l-6 15l-164 -153q-114 2 -259 30q-153 29 -163 106q-30 238 4 346q47 142 443 324l8 3l-19 86l114 127q55 62 73 -24l122 -606q39 -192 179 -192h27v-324
h-17z" />
    <glyph glyph-name="uniFEEB" unicode="&#x647;" horiz-adv-x="1257" arabic-form="initial" 
d="M659 428q190 -69 259 -75q134 198 -141 320l-14 6q-2 -140 -104 -251zM508 175q-207 -175 -460 -175h-60v324h292q-84 30 -115 71q-52 69 -19 221q43 190 188 284l17 11l-144 61l78 235l398 -193q558 -270 441 -647q-5 -18 -12 -36q-88 -227 -169 -232q-161 -10 -435 76z
M523 479q71 40 92 121q21 80 3 123q-16 38 -76 59q-112 40 -203 -96q-97 -142 184 -207z" />
    <glyph glyph-name="uniFEEC" unicode="&#x647;" horiz-adv-x="1090" arabic-form="medial" 
d="M339 327q294 11 315 129q17 95 -138 276q-150 -250 -177 -405zM639 -584q-402 285 -457 584h-194v324h186q40 317 267 596q87 106 170 50q98 -68 171 -203q146 -273 -123 -586q-117 -136 -307 -182q62 -120 242 -226l11 36q158 515 469 515h29v-324h-17q-180 0 -257 -101
q-61 -82 5 -350z" />
    <glyph glyph-name="uniFEED" unicode="&#x648;" horiz-adv-x="1034" arabic-form="isolated" 
d="M722 -146q-99 -296 -477 -445q-24 -10 -37 8q-142 200 -143 203q-14 28 20 41q393 150 456 337l-82 -1q-206 -1 -290 98q-104 122 -22 407q46 158 124 231q63 58 155 60q179 5 270 -196q79 -174 78 -425q0 -162 -52 -318zM588 320q-57 230 -213 206q-62 -10 -87 -83
q-35 -107 94 -121q69 -8 125 -5z" />
    <glyph glyph-name="uniFEEE" unicode="&#x648;" horiz-adv-x="872" arabic-form="final" 
d="M758 1q-16 -88 -36 -147q-100 -298 -475 -445q-24 -10 -37 8q-142 200 -143 203q-14 28 20 41q392 150 456 338h-87q-202 2 -289 96q-107 115 -22 407q46 158 124 231q63 58 155 60q184 6 271 -197q59 -138 69 -273l120 1v-324zM585 320q-57 230 -213 206
q-62 -10 -87 -83q-35 -107 94 -121q69 -8 125 -5z" />
    <glyph glyph-name="uniFEEF" unicode="&#x649;" horiz-adv-x="1523" arabic-form="isolated" 
d="M699 -503q-317 -3 -475 162q-128 134 -129 356q-2 248 112 454l138 -36q-104 -309 -37 -452q84 -180 411 -182q332 -2 481 190q22 28 -6 33l-196 36q-125 21 -178 34q-85 22 -94 96q-10 86 30 235q78 288 293 389q184 86 403 14q-22 -212 -41 -290l-54 6
q-312 30 -431 -153l-11 -17l321 -58q151 -27 164 -172q19 -221 -139 -403q-208 -239 -562 -242z" />
    <glyph glyph-name="uniFEF0" unicode="&#x649;" horiz-adv-x="1539" arabic-form="final" 
d="M360 397q-100 -285 -42 -438q81 -213 446 -206q289 5 408 109q24 21 22 38q-2 16 -15 28q-54 54 -297 75q-33 3 -28 51q28 270 125 270h572v-324h-217q65 -74 29 -186q-42 -128 -163 -217q-201 -144 -476 -146q-322 -2 -486 170q-162 170 -120 483q25 190 104 330z" />
    <glyph glyph-name="uniFEF1" unicode="&#x64a;" horiz-adv-x="1523" arabic-form="isolated" 
d="M545 -609l170 -171l-170 -170l-171 170zM888 -609l170 -171l-170 -170l-170 170zM699 -503q-317 -3 -475 162q-128 134 -129 356q-2 248 112 454l138 -36q-104 -309 -37 -452q84 -180 411 -182q332 -2 481 190q22 28 -6 33l-196 36q-125 21 -178 34q-85 22 -94 96
q-10 86 30 235q78 288 293 389q184 86 403 14q-22 -212 -41 -290l-54 6q-312 30 -431 -153l-11 -17l321 -58q151 -27 164 -172q19 -221 -139 -403q-208 -239 -562 -242z" />
    <glyph glyph-name="uniFEF2" unicode="&#x64a;" horiz-adv-x="1539" arabic-form="final" 
d="M578 -702l170 -171l-170 -170l-171 170zM921 -702l170 -171l-170 -170l-170 170zM360 397q-100 -285 -42 -438q81 -213 446 -206q289 5 408 109q24 21 22 38q-2 16 -15 28q-54 54 -297 75q-33 3 -28 51q28 270 125 270h572v-324h-217q65 -74 29 -186q-42 -128 -163 -217
q-201 -144 -476 -146q-322 -2 -486 170q-162 170 -120 483q25 190 104 330z" />
    <glyph glyph-name="uniFEF3" unicode="&#x64a;" horiz-adv-x="695" arabic-form="initial" 
d="M93 -184l170 -171l-170 -170l-171 170zM436 -184l170 -171l-170 -170l-170 170zM98 324q174 0 229 75q13 20 2 76q-12 64 -85 235l146 186q31 39 55 0q110 -185 110 -358q0 -247 -109 -388q-115 -150 -361 -150h-97v324h110z" />
    <glyph glyph-name="uniFEF4" unicode="&#x64a;" horiz-adv-x="728" arabic-form="medial" 
d="M125 -183l170 -171l-170 -170l-171 170zM468 -183l170 -171l-170 -170l-170 170zM353 664h143l20 -189q15 -151 209 -151h15v-324h-28q-193 0 -299 169q-111 -169 -324 -169h-100v324h75q256 0 270 148z" />
    <glyph glyph-name=".notdef" horiz-adv-x="1229" 
d="M193 1462h841v-1462h-841v1462zM297 104h633v1254h-633v-1254z" />
    <glyph glyph-name=".null" 
 />
    <glyph glyph-name="nonmarkingreturn" unicode="&#xd;" horiz-adv-x="1044" 
 />
    <glyph glyph-name="space" unicode=" " horiz-adv-x="501" 
 />
    <glyph glyph-name="exclam" unicode="!" horiz-adv-x="713" 
d="M181 176q0 74 51 125t124.5 51t125 -51t51.5 -125t-51.5 -125t-125 -51t-124.5 51t-51 125zM451 619q-5 -66 -54 -66h-74q-54 0 -61 67l-66 735q-17 188 146 188h29q153 0 138 -188z" />
    <glyph glyph-name="quotedbl" unicode="&#x22;" horiz-adv-x="967" 
d="M412 1462l-41 -528h-197l-41 528h279zM834 1462l-41 -528h-197l-41 528h279z" />
    <glyph glyph-name="numbersign" unicode="#" horiz-adv-x="1323" 
d="M999 844l-47 -232h258v-206h-297l-77 -406h-220l78 406h-194l-76 -406h-215l74 406h-238v206h277l47 232h-252v209h289l77 407h219l-77 -407h198l78 407h215l-78 -407h240v-209h-279zM539 612h196l47 232h-196z" />
    <glyph glyph-name="dollar" unicode="$" horiz-adv-x="1169" 
d="M1092 457q0 -159 -115 -255.5t-322 -115.5v-205h-137v201q-244 5 -428 86v264q87 -43 209.5 -76t218.5 -39v310l-67 26q-198 78 -280.5 169.5t-82.5 226.5q0 145 113.5 238.5t316.5 113.5v153h137v-149q229 -10 414 -92l-94 -234q-156 64 -320 78v-295
q195 -75 277.5 -130t121 -121t38.5 -154zM791 442q0 42 -34 71t-102 60v-249q136 23 136 118zM389 1049q0 -44 30.5 -72.5t98.5 -58.5v235q-129 -19 -129 -104z" />
    <glyph glyph-name="percent" unicode="%" horiz-adv-x="1845" 
d="M315 1024q0 -127 22.5 -189.5t72.5 -62.5q96 0 96 252q0 250 -96 250q-50 0 -72.5 -61.5t-22.5 -188.5zM758 1026q0 -230 -89 -345.5t-261 -115.5q-165 0 -255 118.5t-90 342.5q0 457 345 457q169 0 259.5 -118.5t90.5 -338.5zM1446 1462l-811 -1462h-240l811 1462h240z
M1339 440q0 -127 22.5 -189.5t72.5 -62.5q96 0 96 252q0 250 -96 250q-50 0 -72.5 -61.5t-22.5 -188.5zM1782 442q0 -229 -89 -344.5t-261 -115.5q-165 0 -255 118.5t-90 341.5q0 457 345 457q169 0 259.5 -118.5t90.5 -338.5z" />
    <glyph glyph-name="ampersand" unicode="&#x26;" horiz-adv-x="1536" 
d="M1536 0h-377l-115 113q-191 -133 -432 -133q-244 0 -387 112t-143 303q0 137 60.5 233.5t207.5 180.5q-75 86 -109 164.5t-34 171.5q0 152 116.5 245t311.5 93q186 0 297.5 -86.5t111.5 -231.5q0 -119 -69 -217.5t-223 -187.5l284 -277q71 117 123 301h318
q-36 -135 -99 -263.5t-143 -227.5zM403 424q0 -86 64.5 -137t165.5 -51q126 0 227 61l-332 330q-58 -44 -91.5 -92t-33.5 -111zM762 1133q0 53 -36 83.5t-93 30.5q-67 0 -105.5 -32t-38.5 -91q0 -88 95 -194q86 48 132 94.5t46 108.5z" />
    <glyph glyph-name="quotesingle" unicode="'" horiz-adv-x="545" 
d="M412 1462l-41 -528h-197l-41 528h279z" />
    <glyph glyph-name="parenleft" unicode="(" horiz-adv-x="694" 
d="M82 561q0 265 77.5 496t223.5 405h250q-141 -193 -213 -424t-72 -475q0 -245 73.5 -473.5t209.5 -413.5h-248q-147 170 -224 397t-77 488z" />
    <glyph glyph-name="parenright" unicode=")" horiz-adv-x="694" 
d="M612 561q0 -263 -77.5 -490t-223.5 -395h-248q135 184 209 412.5t74 474.5q0 244 -72 475t-213 424h250q147 -175 224 -406.5t77 -494.5z" />
    <glyph glyph-name="asterisk" unicode="*" horiz-adv-x="1116" 
d="M688 1556l-41 -368l373 104l33 -252l-340 -24l223 -297l-227 -121l-156 313l-137 -311l-236 119l221 297l-338 26l39 250l365 -104l-41 368h262z" />
    <glyph glyph-name="plus" unicode="+" horiz-adv-x="1169" 
d="M475 612h-387v219h387v390h219v-390h387v-219h-387v-385h-219v385z" />
    <glyph glyph-name="comma" unicode="," horiz-adv-x="594" 
d="M459 215q-52 -202 -176 -479h-220q65 266 101 502h280z" />
    <glyph glyph-name="hyphen" unicode="-" horiz-adv-x="659" 
d="M61 424v250h537v-250h-537z" />
    <glyph glyph-name="period" unicode="." horiz-adv-x="711" 
d="M180 176q0 74 51 125t125 51t125 -51t51 -125t-51 -125t-125 -51t-125 51t-51 125z" />
    <glyph glyph-name="slash" unicode="/" horiz-adv-x="846" 
d="M836 1462l-545 -1462h-277l545 1462h277z" />
    <glyph glyph-name="zero" unicode="0" horiz-adv-x="1169" 
d="M1096 731q0 -383 -125.5 -567t-386.5 -184q-253 0 -381.5 190t-128.5 561q0 387 125 570.5t385 183.5q253 0 382.5 -192t129.5 -562zM381 731q0 -269 46.5 -385.5t156.5 -116.5q108 0 156 118t48 384q0 269 -48.5 386.5t-155.5 117.5q-109 0 -156 -117.5t-47 -386.5z" />
    <glyph glyph-name="one" unicode="1" horiz-adv-x="1169" 
d="M846 0h-309v846l3 139l5 152q-77 -77 -107 -101l-168 -135l-149 186l471 375h254v-1462z" />
    <glyph glyph-name="two" unicode="2" horiz-adv-x="1169" 
d="M1104 0h-1022v215l367 371q163 167 213 231.5t72 119.5t22 114q0 88 -48.5 131t-129.5 43q-85 0 -165 -39t-167 -111l-168 199q108 92 179 130t155 58.5t188 20.5q137 0 242 -50t163 -140t58 -206q0 -101 -35.5 -189.5t-110 -181.5t-262.5 -265l-188 -177v-14h637v-260z
" />
    <glyph glyph-name="three" unicode="3" horiz-adv-x="1169" 
d="M1047 1135q0 -137 -83 -233t-233 -132v-6q177 -22 268 -107.5t91 -230.5q0 -211 -153 -328.5t-437 -117.5q-238 0 -422 79v263q85 -43 187 -70t202 -27q153 0 226 52t73 167q0 103 -84 146t-268 43h-111v237h113q170 0 248.5 44.5t78.5 152.5q0 166 -208 166
q-72 0 -146.5 -24t-165.5 -83l-143 213q200 144 477 144q227 0 358.5 -92t131.5 -256z" />
    <glyph glyph-name="four" unicode="4" horiz-adv-x="1169" 
d="M1137 303h-176v-303h-302v303h-624v215l641 944h285v-919h176v-240zM659 543v248q0 62 5 180t8 137h-8q-37 -82 -89 -160l-268 -405h352z" />
    <glyph glyph-name="five" unicode="5" horiz-adv-x="1169" 
d="M614 934q212 0 337.5 -119t125.5 -326q0 -245 -151 -377t-432 -132q-244 0 -394 79v267q79 -42 184 -68.5t199 -26.5q283 0 283 232q0 221 -293 221q-53 0 -117 -10.5t-104 -22.5l-123 66l55 745h793v-262h-522l-27 -287l35 7q61 14 151 14z" />
    <glyph glyph-name="six" unicode="6" horiz-adv-x="1169" 
d="M72 621q0 434 183.5 646t549.5 212q125 0 196 -15v-247q-89 20 -176 20q-159 0 -259.5 -48t-150.5 -142t-59 -267h13q99 170 317 170q196 0 307 -123t111 -340q0 -234 -132 -370.5t-366 -136.5q-162 0 -282.5 75t-186 219t-65.5 347zM600 227q99 0 152 66.5t53 189.5
q0 107 -49.5 168.5t-149.5 61.5q-94 0 -160.5 -61t-66.5 -142q0 -119 62.5 -201t158.5 -82z" />
    <glyph glyph-name="seven" unicode="7" horiz-adv-x="1169" 
d="M227 0l549 1200h-721v260h1049v-194l-553 -1266h-324z" />
    <glyph glyph-name="eight" unicode="8" horiz-adv-x="1169" 
d="M586 1481q210 0 338.5 -95.5t128.5 -257.5q0 -112 -62 -199.5t-200 -156.5q164 -88 235.5 -183.5t71.5 -209.5q0 -180 -141 -289.5t-371 -109.5q-240 0 -377 102t-137 289q0 125 66.5 222t213.5 171q-125 79 -180 169t-55 197q0 157 130 254t339 97zM358 389
q0 -86 60 -134t164 -48q115 0 172 49.5t57 130.5q0 67 -56.5 125.5t-183.5 124.5q-213 -98 -213 -248zM584 1255q-79 0 -127.5 -40.5t-48.5 -108.5q0 -60 38.5 -107.5t139.5 -97.5q98 46 137 94t39 111q0 69 -50 109t-128 40z" />
    <glyph glyph-name="nine" unicode="9" horiz-adv-x="1169" 
d="M1098 838q0 -432 -182 -645t-551 -213q-130 0 -197 14v248q84 -21 176 -21q155 0 255 45.5t153 143t61 268.5h-12q-58 -94 -134 -132t-190 -38q-191 0 -301 122.5t-110 340.5q0 235 133.5 371.5t363.5 136.5q162 0 283.5 -76t186.5 -220.5t65 -344.5zM569 1231
q-96 0 -150 -66t-54 -190q0 -106 49 -168t149 -62q94 0 161 61.5t67 141.5q0 119 -62.5 201t-159.5 82z" />
    <glyph glyph-name="colon" unicode=":" horiz-adv-x="712" 
d="M180 1018.5q0 73.5 51.5 125t125 51.5t124.5 -51.5t51 -125t-51 -124.5t-124.5 -51t-125 51t-51.5 124.5zM180 176q0 74 51.5 125t125 51t124.5 -51t51 -125t-51 -125t-124.5 -51t-125 51t-51.5 125z" />
    <glyph glyph-name="semicolon" unicode=";" horiz-adv-x="594" 
d="M444 238l15 -23q-52 -202 -176 -479h-220q65 266 101 502h280zM117 969q0 84 45 127t131 43q83 0 128.5 -44t45.5 -126q0 -81 -46.5 -125.5t-127.5 -44.5q-84 0 -130 44t-46 126z" />
    <glyph glyph-name="less" unicode="&#x3c;" horiz-adv-x="1169" 
d="M1081 203l-993 438v143l993 496v-240l-684 -317l684 -281v-239z" />
    <glyph glyph-name="equal" unicode="=" horiz-adv-x="1169" 
d="M88 805v219h993v-219h-993zM88 418v219h993v-219h-993z" />
    <glyph glyph-name="greater" unicode="&#x3e;" horiz-adv-x="1169" 
d="M88 442l684 281l-684 317v240l993 -496v-143l-993 -438v239z" />
    <glyph glyph-name="question" unicode="?" horiz-adv-x="977" 
d="M276 485v74q0 96 41 167t150 151q105 75 138.5 122t33.5 105q0 65 -48 99t-134 34q-150 0 -342 -98l-109 219q223 125 473 125q206 0 327.5 -99t121.5 -264q0 -110 -50 -190t-190 -180q-96 -71 -121.5 -108t-25.5 -97v-60h-265zM244 143q0 84 45 127t131 43
q83 0 128.5 -44t45.5 -126q0 -79 -46 -124.5t-128 -45.5q-84 0 -130 44.5t-46 125.5z" />
    <glyph glyph-name="at" unicode="@" horiz-adv-x="1837" 
d="M1735 752q0 -144 -46 -263.5t-130 -187.5t-195 -68q-74 0 -131 35.5t-82 93.5h-16q-108 -129 -275 -129q-177 0 -279 106.5t-102 291.5q0 211 134 340t350 129q86 0 189.5 -16.5t170.5 -39.5l-23 -489q0 -139 76 -139q64 0 102 93.5t38 244.5q0 161 -67 284.5
t-188.5 188.5t-277.5 65q-202 0 -351 -83t-228.5 -239.5t-79.5 -361.5q0 -276 147.5 -423.5t427.5 -147.5q106 0 233 23.5t250 68.5v-192q-214 -91 -475 -91q-380 0 -592.5 200t-212.5 556q0 247 108.5 448.5t309 316t461.5 114.5q220 0 393 -90t267 -256t94 -383zM711 627
q0 -211 172 -211q90 0 137 63.5t57 206.5l13 221q-51 11 -115 11q-125 0 -194.5 -78t-69.5 -213z" />
    <glyph glyph-name="A" unicode="A" horiz-adv-x="1413" 
d="M1079 0l-106 348h-533l-106 -348h-334l516 1468h379l518 -1468h-334zM899 608q-147 473 -165.5 535t-26.5 98q-33 -128 -189 -633h381z" />
    <glyph glyph-name="B" unicode="B" horiz-adv-x="1376" 
d="M184 1462h455q311 0 451.5 -88.5t140.5 -281.5q0 -131 -61.5 -215t-163.5 -101v-10q139 -31 200.5 -116t61.5 -226q0 -200 -144.5 -312t-392.5 -112h-547v1462zM494 883h180q126 0 182.5 39t56.5 129q0 84 -61.5 120.5t-194.5 36.5h-163v-325zM494 637v-381h202
q128 0 189 49t61 150q0 182 -260 182h-192z" />
    <glyph glyph-name="C" unicode="C" horiz-adv-x="1305" 
d="M805 1225q-175 0 -271 -131.5t-96 -366.5q0 -489 367 -489q154 0 373 77v-260q-180 -75 -402 -75q-319 0 -488 193.5t-169 555.5q0 228 83 399.5t238.5 263t364.5 91.5q213 0 428 -103l-100 -252q-82 39 -165 68t-163 29z" />
    <glyph glyph-name="D" unicode="D" horiz-adv-x="1516" 
d="M1397 745q0 -361 -205.5 -553t-593.5 -192h-414v1462h459q358 0 556 -189t198 -528zM1075 737q0 471 -416 471h-165v-952h133q448 0 448 481z" />
    <glyph glyph-name="E" unicode="E" horiz-adv-x="1147" 
d="M1026 0h-842v1462h842v-254h-532v-321h495v-254h-495v-377h532v-256z" />
    <glyph glyph-name="F" unicode="F" horiz-adv-x="1124" 
d="M489 0h-305v1462h838v-254h-533v-377h496v-253h-496v-578z" />
    <glyph glyph-name="G" unicode="G" horiz-adv-x="1483" 
d="M739 821h580v-758q-141 -46 -265.5 -64.5t-254.5 -18.5q-331 0 -505.5 194.5t-174.5 558.5q0 354 202.5 552t561.5 198q225 0 434 -90l-103 -248q-160 80 -333 80q-201 0 -322 -135t-121 -363q0 -238 97.5 -363.5t283.5 -125.5q97 0 197 20v305h-277v258z" />
    <glyph glyph-name="H" unicode="H" horiz-adv-x="1567" 
d="M1382 0h-309v631h-579v-631h-310v1462h310v-573h579v573h309v-1462z" />
    <glyph glyph-name="I" unicode="I" horiz-adv-x="678" 
d="M184 0v1462h310v-1462h-310z" />
    <glyph glyph-name="J" unicode="J" horiz-adv-x="678" 
d="M31 -430q-105 0 -183 22v258q80 -20 146 -20q102 0 146 63.5t44 198.5v1370h310v-1368q0 -256 -117 -390t-346 -134z" />
    <glyph glyph-name="K" unicode="K" horiz-adv-x="1360" 
d="M1360 0h-352l-383 616l-131 -94v-522h-310v1462h310v-669l122 172l396 497h344l-510 -647z" />
    <glyph glyph-name="L" unicode="L" horiz-adv-x="1157" 
d="M184 0v1462h310v-1206h593v-256h-903z" />
    <glyph glyph-name="M" unicode="M" horiz-adv-x="1931" 
d="M803 0l-352 1147h-9q19 -350 19 -467v-680h-277v1462h422l346 -1118h6l367 1118h422v-1462h-289v692q0 49 1.5 113t13.5 340h-9l-377 -1145h-284z" />
    <glyph glyph-name="N" unicode="N" horiz-adv-x="1665" 
d="M1481 0h-394l-636 1106h-9q19 -293 19 -418v-688h-277v1462h391l635 -1095h7q-15 285 -15 403v692h279v-1462z" />
    <glyph glyph-name="O" unicode="O" horiz-adv-x="1630" 
d="M1511 733q0 -363 -180 -558t-516 -195t-516 195t-180 560t180.5 557.5t517.5 192.5t515.5 -194t178.5 -558zM444 733q0 -245 93 -369t278 -124q371 0 371 493q0 494 -369 494q-185 0 -279 -124.5t-94 -369.5z" />
    <glyph glyph-name="P" unicode="P" horiz-adv-x="1286" 
d="M494 774h102q143 0 214 56.5t71 164.5q0 109 -59.5 161t-186.5 52h-141v-434zM1194 1006q0 -236 -147.5 -361t-419.5 -125h-133v-520h-310v1462h467q266 0 404.5 -114.5t138.5 -341.5z" />
    <glyph glyph-name="Q" unicode="Q" horiz-adv-x="1630" 
d="M1511 733q0 -258 -91.5 -432.5t-268.5 -255.5l352 -393h-397l-268 328h-23q-336 0 -516 195t-180 560t180.5 557.5t517.5 192.5t515.5 -194t178.5 -558zM444 733q0 -245 93 -369t278 -124q371 0 371 493q0 494 -369 494q-185 0 -279 -124.5t-94 -369.5z" />
    <glyph glyph-name="R" unicode="R" horiz-adv-x="1352" 
d="M494 813h100q147 0 217 49t70 154q0 104 -71.5 148t-221.5 44h-94v-395zM494 561v-561h-310v1462h426q298 0 441 -108.5t143 -329.5q0 -129 -71 -229.5t-201 -157.5q330 -493 430 -637h-344l-349 561h-165z" />
    <glyph glyph-name="S" unicode="S" horiz-adv-x="1128" 
d="M1047 406q0 -198 -142.5 -312t-396.5 -114q-234 0 -414 88v288q148 -66 250.5 -93t187.5 -27q102 0 156.5 39t54.5 116q0 43 -24 76.5t-70.5 64.5t-189.5 99q-134 63 -201 121t-107 135t-40 180q0 194 131.5 305t363.5 111q114 0 217.5 -27t216.5 -76l-100 -241
q-117 48 -193.5 67t-150.5 19q-88 0 -135 -41t-47 -107q0 -41 19 -71.5t60.5 -59t196.5 -102.5q205 -98 281 -196.5t76 -241.5z" />
    <glyph glyph-name="T" unicode="T" horiz-adv-x="1186" 
d="M748 0h-310v1204h-397v258h1104v-258h-397v-1204z" />
    <glyph glyph-name="U" unicode="U" horiz-adv-x="1548" 
d="M1374 1462v-946q0 -162 -72.5 -284t-209.5 -187t-324 -65q-282 0 -438 144.5t-156 395.5v942h309v-895q0 -169 68 -248t225 -79q152 0 220.5 79.5t68.5 249.5v893h309z" />
    <glyph glyph-name="V" unicode="V" horiz-adv-x="1331" 
d="M1018 1462h313l-497 -1462h-338l-496 1462h313l275 -870q23 -77 47.5 -179.5t30.5 -142.5q11 92 75 322z" />
    <glyph glyph-name="W" unicode="W" horiz-adv-x="1980" 
d="M1608 0h-353l-198 768q-11 41 -37.5 169.5t-30.5 172.5q-6 -54 -30 -173.5t-37 -170.5l-197 -766h-352l-373 1462h305l187 -798q49 -221 71 -383q6 57 27.5 176.5t40.5 185.5l213 819h293l213 -819q14 -55 35 -168t32 -194q10 78 32 194.5t40 188.5l186 798h305z" />
    <glyph glyph-name="X" unicode="X" horiz-adv-x="1366" 
d="M1366 0h-354l-340 553l-340 -553h-332l485 754l-454 708h342l315 -526l309 526h334l-459 -725z" />
    <glyph glyph-name="Y" unicode="Y" horiz-adv-x="1278" 
d="M639 860l305 602h334l-485 -893v-569h-308v559l-485 903h336z" />
    <glyph glyph-name="Z" unicode="Z" horiz-adv-x="1186" 
d="M1137 0h-1088v201l701 1005h-682v256h1050v-200l-700 -1006h719v-256z" />
    <glyph glyph-name="bracketleft" unicode="[" horiz-adv-x="678" 
d="M627 -324h-484v1786h484v-211h-224v-1364h224v-211z" />
    <glyph glyph-name="backslash" unicode="\" horiz-adv-x="846" 
d="M289 1462l545 -1462h-277l-545 1462h277z" />
    <glyph glyph-name="bracketright" unicode="]" horiz-adv-x="678" 
d="M51 -113h223v1364h-223v211h484v-1786h-484v211z" />
    <glyph glyph-name="asciicircum" unicode="^" horiz-adv-x="1090" 
d="M8 520l438 950h144l495 -950h-239l-322 643l-280 -643h-236z" />
    <glyph glyph-name="underscore" unicode="_" horiz-adv-x="842" 
d="M846 -324h-850v140h850v-140z" />
    <glyph glyph-name="grave" unicode="`" horiz-adv-x="1243" 
d="M707 1241q-63 44 -185 142.5t-190 164.5v21h342q63 -101 235 -301v-27h-202z" />
    <glyph glyph-name="a" unicode="a" horiz-adv-x="1237" 
d="M870 0l-59 152h-8q-77 -97 -158.5 -134.5t-212.5 -37.5q-161 0 -253.5 92t-92.5 262q0 178 124.5 262.5t375.5 93.5l194 6v49q0 170 -174 170q-134 0 -315 -81l-101 206q193 101 428 101q225 0 345 -98t120 -298v-745h-213zM780 518l-118 -4q-133 -4 -198 -48t-65 -134
q0 -129 148 -129q106 0 169.5 61t63.5 162v92z" />
    <glyph glyph-name="b" unicode="b" horiz-adv-x="1296" 
d="M782 1139q198 0 310 -154.5t112 -423.5q0 -277 -115.5 -429t-314.5 -152q-197 0 -309 143h-21l-51 -123h-233v1556h305v-362q0 -69 -12 -221h12q107 166 317 166zM684 895q-113 0 -165 -69.5t-54 -229.5v-33q0 -180 53.5 -258t169.5 -78q94 0 149.5 86.5t55.5 251.5
t-56 247.5t-153 82.5z" />
    <glyph glyph-name="c" unicode="c" horiz-adv-x="1053" 
d="M614 -20q-522 0 -522 573q0 285 142 435.5t407 150.5q194 0 348 -76l-90 -236q-72 29 -134 47.5t-124 18.5q-238 0 -238 -338q0 -328 238 -328q88 0 163 23.5t150 73.5v-261q-74 -47 -149.5 -65t-190.5 -18z" />
    <glyph glyph-name="d" unicode="d" horiz-adv-x="1296" 
d="M514 -20q-197 0 -309.5 153t-112.5 424q0 275 114.5 428.5t315.5 153.5q211 0 322 -164h10q-23 125 -23 223v358h306v-1556h-234l-59 145h-13q-104 -165 -317 -165zM621 223q117 0 171.5 68t59.5 231v33q0 180 -55.5 258t-180.5 78q-102 0 -158.5 -86.5t-56.5 -251.5
t57 -247.5t163 -82.5z" />
    <glyph glyph-name="e" unicode="e" horiz-adv-x="1210" 
d="M623 922q-97 0 -152 -61.5t-63 -174.5h428q-2 113 -59 174.5t-154 61.5zM666 -20q-270 0 -422 149t-152 422q0 281 140.5 434.5t388.5 153.5q237 0 369 -135t132 -373v-148h-721q5 -130 77 -203t202 -73q101 0 191 21t188 67v-236q-80 -40 -171 -59.5t-222 -19.5z" />
    <glyph glyph-name="f" unicode="f" horiz-adv-x="793" 
d="M778 889h-264v-889h-305v889h-168v147l168 82v82q0 191 94 279t301 88q158 0 281 -47l-78 -224q-92 29 -170 29q-65 0 -94 -38.5t-29 -98.5v-70h264v-229z" />
    <glyph glyph-name="g" unicode="g" horiz-adv-x="1157" 
d="M1133 1118v-155l-175 -45q48 -75 48 -168q0 -180 -125.5 -280.5t-348.5 -100.5l-55 3l-45 5q-47 -36 -47 -80q0 -66 168 -66h190q184 0 280.5 -79t96.5 -232q0 -196 -163.5 -304t-469.5 -108q-234 0 -357.5 81.5t-123.5 228.5q0 101 63 169t185 97q-47 20 -82 65.5
t-35 96.5q0 64 37 106.5t107 83.5q-88 38 -139.5 122t-51.5 198q0 183 119 283t340 100q47 0 111.5 -8.5t82.5 -12.5h390zM270 -158q0 -63 60.5 -99t169.5 -36q164 0 257 45t93 123q0 63 -55 87t-170 24h-158q-84 0 -140.5 -39.5t-56.5 -104.5zM381 752q0 -91 41.5 -144
t126.5 -53q86 0 126 53t40 144q0 202 -166 202q-168 0 -168 -202z" />
    <glyph glyph-name="h" unicode="h" horiz-adv-x="1346" 
d="M1192 0h-305v653q0 242 -180 242q-128 0 -185 -87t-57 -282v-526h-305v1556h305v-317q0 -37 -7 -174l-7 -90h16q102 164 324 164q197 0 299 -106t102 -304v-729z" />
    <glyph glyph-name="i" unicode="i" horiz-adv-x="625" 
d="M147 1407q0 149 166 149t166 -149q0 -71 -41.5 -110.5t-124.5 -39.5q-166 0 -166 150zM465 0h-305v1118h305v-1118z" />
    <glyph glyph-name="j" unicode="j" horiz-adv-x="625" 
d="M70 -492q-117 0 -201 25v240q70 -19 143 -19q77 0 112.5 43t35.5 127v1194h305v-1239q0 -178 -103 -274.5t-292 -96.5zM147 1407q0 149 166 149t166 -149q0 -71 -41.5 -110.5t-124.5 -39.5q-166 0 -166 150z" />
    <glyph glyph-name="k" unicode="k" horiz-adv-x="1270" 
d="M453 608l133 170l313 340h344l-444 -485l471 -633h-352l-322 453l-131 -105v-348h-305v1556h305v-694l-16 -254h4z" />
    <glyph glyph-name="l" unicode="l" horiz-adv-x="625" 
d="M465 0h-305v1556h305v-1556z" />
    <glyph glyph-name="m" unicode="m" horiz-adv-x="2011" 
d="M1161 0h-305v653q0 121 -40.5 181.5t-127.5 60.5q-117 0 -170 -86t-53 -283v-526h-305v1118h233l41 -143h17q45 77 130 120.5t195 43.5q251 0 340 -164h27q45 78 132.5 121t197.5 43q190 0 287.5 -97.5t97.5 -312.5v-729h-306v653q0 121 -40.5 181.5t-127.5 60.5
q-112 0 -167.5 -80t-55.5 -254v-561z" />
    <glyph glyph-name="n" unicode="n" horiz-adv-x="1346" 
d="M1192 0h-305v653q0 121 -43 181.5t-137 60.5q-128 0 -185 -85.5t-57 -283.5v-526h-305v1118h233l41 -143h17q51 81 140.5 122.5t203.5 41.5q195 0 296 -105.5t101 -304.5v-729z" />
    <glyph glyph-name="o" unicode="o" horiz-adv-x="1268" 
d="M403 561q0 -166 54.5 -251t177.5 -85q122 0 175.5 84.5t53.5 251.5q0 166 -54 249t-177 83q-122 0 -176 -82.5t-54 -249.5zM1176 561q0 -273 -144 -427t-401 -154q-161 0 -284 70.5t-189 202.5t-66 308q0 274 143 426t402 152q161 0 284 -70t189 -201t66 -307z" />
    <glyph glyph-name="p" unicode="p" horiz-adv-x="1296" 
d="M774 -20q-197 0 -309 143h-16q16 -140 16 -162v-453h-305v1610h248l43 -145h14q107 166 317 166q198 0 310 -153t112 -425q0 -179 -52.5 -311t-149.5 -201t-228 -69zM684 895q-113 0 -165 -69.5t-54 -229.5v-33q0 -180 53.5 -258t169.5 -78q205 0 205 338
q0 165 -50.5 247.5t-158.5 82.5z" />
    <glyph glyph-name="q" unicode="q" horiz-adv-x="1296" 
d="M623 219q116 0 170 66.5t59 232.5v37q0 180 -55.5 258t-178.5 78q-215 0 -215 -338q0 -168 53.5 -251t166.5 -83zM514 -20q-198 0 -310 152.5t-112 424.5q0 274 114.5 428t313.5 154q106 0 185 -40t139 -124h8l27 143h258v-1610h-306v469q0 61 13 168h-13
q-49 -81 -130 -123t-187 -42z" />
    <glyph glyph-name="r" unicode="r" horiz-adv-x="930" 
d="M784 1139q62 0 103 -9l-23 -286q-37 10 -90 10q-146 0 -227.5 -75t-81.5 -210v-569h-305v1118h231l45 -188h15q52 94 140.5 151.5t192.5 57.5z" />
    <glyph glyph-name="s" unicode="s" horiz-adv-x="1018" 
d="M940 332q0 -172 -119.5 -262t-357.5 -90q-122 0 -208 16.5t-161 48.5v252q85 -40 191.5 -67t187.5 -27q166 0 166 96q0 36 -22 58.5t-76 51t-144 66.5q-129 54 -189.5 100t-88 105.5t-27.5 146.5q0 149 115.5 230.5t327.5 81.5q202 0 393 -88l-92 -220q-84 36 -157 59
t-149 23q-135 0 -135 -73q0 -41 43.5 -71t190.5 -89q131 -53 192 -99t90 -106t29 -143z" />
    <glyph glyph-name="t" unicode="t" horiz-adv-x="889" 
d="M631 223q80 0 192 35v-227q-114 -51 -280 -51q-183 0 -266.5 92.5t-83.5 277.5v539h-146v129l168 102l88 236h195v-238h313v-229h-313v-539q0 -65 36.5 -96t96.5 -31z" />
    <glyph glyph-name="u" unicode="u" horiz-adv-x="1346" 
d="M952 0l-41 143h-16q-49 -78 -139 -120.5t-205 -42.5q-197 0 -297 105.5t-100 303.5v729h305v-653q0 -121 43 -181.5t137 -60.5q128 0 185 85.5t57 283.5v526h305v-1118h-234z" />
    <glyph glyph-name="v" unicode="v" horiz-adv-x="1165" 
d="M426 0l-426 1118h319l216 -637q36 -121 45 -229h6q5 96 45 229l215 637h319l-426 -1118h-313z" />
    <glyph glyph-name="w" unicode="w" horiz-adv-x="1753" 
d="M1079 0l-86 391l-116 494h-7l-204 -885h-328l-318 1118h304l129 -495q31 -133 63 -367h6q4 76 35 241l16 85l138 536h336l131 -536q4 -22 12.5 -65t16.5 -91.5t14.5 -95t7.5 -74.5h6q9 72 32 197.5t33 169.5l134 495h299l-322 -1118h-332z" />
    <glyph glyph-name="x" unicode="x" horiz-adv-x="1184" 
d="M389 571l-360 547h346l217 -356l219 356h346l-364 -547l381 -571h-347l-235 383l-236 -383h-346z" />
    <glyph glyph-name="y" unicode="y" horiz-adv-x="1165" 
d="M0 1118h334l211 -629q27 -82 37 -194h6q11 103 43 194l207 629h327l-473 -1261q-65 -175 -185.5 -262t-281.5 -87q-79 0 -155 17v242q55 -13 120 -13q81 0 141.5 49.5t94.5 149.5l18 55z" />
    <glyph glyph-name="z" unicode="z" horiz-adv-x="999" 
d="M938 0h-883v180l518 705h-487v233h834v-198l-504 -687h522v-233z" />
    <glyph glyph-name="braceleft" unicode="{" horiz-adv-x="807" 
d="M287 270q0 87 -65.5 133t-190.5 46v239q126 0 191 44t65 126v8v318q0 153 97 215.5t341 62.5v-225q-99 -3 -136.5 -38t-37.5 -103v-299q-6 -188 -234 -222v-12q234 -35 234 -212v-9v-299q0 -68 37 -103t137 -38v-226q-244 0 -341 62.5t-97 216.5v315z" />
    <glyph glyph-name="bar" unicode="|" horiz-adv-x="1128" 
d="M455 1550h219v-2015h-219v2015z" />
    <glyph glyph-name="braceright" unicode="}" horiz-adv-x="807" 
d="M520 -45q0 -112 -41 -169t-135.5 -83.5t-261.5 -26.5v226q99 2 136.5 36t37.5 105v299v11q0 86 59 139.5t174 70.5v12q-227 34 -233 222v299q0 70 -37 104t-137 37v225q167 0 262 -26.5t135.5 -84t40.5 -167.5v-318v-10q0 -84 61.5 -126t194.5 -42v-239
q-125 0 -190.5 -41t-65.5 -138v-315z" />
    <glyph glyph-name="asciitilde" unicode="~" horiz-adv-x="1169" 
d="M322 672q-55 0 -117.5 -33.5t-116.5 -87.5v231q103 109 256 109q73 0 137.5 -16t139.5 -48q129 -55 227 -55q53 0 116 32t117 89v-231q-101 -109 -256 -109q-66 0 -126 13t-150 50q-131 56 -227 56z" />
    <glyph glyph-name="uni00A0" unicode="&#xa0;" horiz-adv-x="646" 
 />
    <glyph glyph-name="exclamdown" unicode="&#xa1;" horiz-adv-x="586" 
d="M168 606h244l51 -975h-346zM467 948q0 -84 -45 -127t-131 -43q-83 0 -128.5 44t-45.5 126q0 81 46.5 125.5t127.5 44.5q84 0 130 -44t46 -126z" />
    <glyph glyph-name="cent" unicode="&#xa2;" horiz-adv-x="1169" 
d="M563 176q-420 59 -420 565q0 261 104.5 403t315.5 173v166h178v-158q166 -9 299 -74l-90 -235q-72 29 -134 47t-124 18q-121 0 -179 -83.5t-58 -254.5q0 -327 237 -327q82 0 148 15.5t166 60.5v-254q-127 -61 -265 -70v-188h-178v196z" />
    <glyph glyph-name="sterling" unicode="&#xa3;" horiz-adv-x="1169" 
d="M700 1483q195 0 390 -82l-93 -230q-157 64 -272 64q-78 0 -120 -44.5t-42 -127.5v-193h375v-219h-375v-143q0 -170 -151 -248h718v-260h-1048v248q103 44 141.5 101t38.5 157v145h-178v219h178v195q0 201 114.5 309.5t323.5 108.5z" />
    <glyph glyph-name="currency" unicode="&#xa4;" horiz-adv-x="1169" 
d="M188 723q0 102 54 197l-129 127l147 147l127 -127q91 53 197 53q105 0 196 -55l127 129l150 -143l-129 -129q53 -89 53 -199q0 -107 -53 -199l125 -125l-146 -145l-127 125q-95 -51 -196 -51q-115 0 -199 51l-125 -123l-145 145l127 125q-54 93 -54 197zM395 723
q0 -77 54.5 -132.5t134.5 -55.5q81 0 136.5 55t55.5 133q0 80 -56.5 135t-135.5 55q-78 0 -133.5 -56t-55.5 -134z" />
    <glyph glyph-name="yen" unicode="&#xa5;" horiz-adv-x="1169" 
d="M584 860l264 602h313l-383 -747h195v-178h-246v-138h246v-178h-246v-221h-287v221h-247v178h247v138h-247v178h190l-377 747h316z" />
    <glyph glyph-name="brokenbar" unicode="&#xa6;" horiz-adv-x="1128" 
d="M455 1550h219v-815h-219v815zM455 350h219v-815h-219v815z" />
    <glyph glyph-name="section" unicode="&#xa7;" horiz-adv-x="995" 
d="M121 805q0 79 36 144.5t97 105.5q-133 84 -133 233q0 131 111.5 210t293.5 79q170 0 363 -84l-82 -190q-68 32 -138.5 57.5t-148.5 25.5q-81 0 -118 -23t-37 -71q0 -49 49.5 -86t163.5 -82q163 -64 240 -148.5t77 -193.5q0 -177 -125 -260q62 -40 93.5 -92.5t31.5 -126.5
q0 -148 -119.5 -235.5t-320.5 -87.5q-203 0 -349 79v207q81 -41 180 -69.5t169 -28.5q194 0 194 117q0 39 -18.5 63t-63.5 49.5t-125 59.5q-183 74 -252 152.5t-69 195.5zM344 827q0 -67 65 -119t181 -98q78 57 78 146q0 68 -50.5 115t-183.5 96q-37 -14 -63.5 -53.5
t-26.5 -86.5z" />
    <glyph glyph-name="dieresis" unicode="&#xa8;" horiz-adv-x="1243" 
d="M279 1405q0 65 37.5 100t101.5 35q66 0 103.5 -37t37.5 -98q0 -60 -38 -96.5t-103 -36.5q-64 0 -101.5 35t-37.5 98zM682 1405q0 70 40.5 102.5t100.5 32.5q65 0 103.5 -36t38.5 -99q0 -61 -39 -97t-103 -36q-60 0 -100.5 32.5t-40.5 100.5z" />
    <glyph glyph-name="copyright" unicode="&#xa9;" horiz-adv-x="1704" 
d="M895 1010q-97 0 -150 -74t-53 -205q0 -280 203 -280q57 0 123 15t123 44v-191q-120 -57 -252 -57q-204 0 -316 125t-112 346q0 220 110.5 342.5t309.5 122.5q149 0 305 -78l-74 -168q-113 58 -217 58zM100 731q0 200 100 375t275 276t377 101q200 0 375 -100t276 -275
t101 -377q0 -197 -97 -370t-272 -277t-383 -104q-207 0 -382 103.5t-272.5 276.5t-97.5 371zM242 731q0 -164 82 -305.5t224 -223t304 -81.5q164 0 305.5 82t223 224t81.5 304q0 164 -82 305.5t-224 223t-304 81.5q-164 0 -305.5 -82t-223 -224t-81.5 -304z" />
    <glyph glyph-name="ordfeminine" unicode="&#xaa;" horiz-adv-x="784" 
d="M561 764l-31 110q-43 -58 -105 -90t-136 -32q-117 0 -179.5 58.5t-62.5 164.5q0 109 82.5 163.5t267.5 63.5l99 4q0 117 -127 117q-81 0 -217 -61l-66 135q66 32 145.5 57t178.5 25q137 0 211.5 -71t74.5 -202v-442h-135zM252 977q0 -38 23 -56t55 -18q77 0 121.5 41.5
t44.5 106.5v36l-99 -6q-145 -10 -145 -104z" />
    <glyph glyph-name="guillemotleft" unicode="&#xab;" horiz-adv-x="1340" 
d="M961 -10q-345 476 -344 548q0 84 344 559h245l-50 -72q-280 -404 -281 -487q0 -72 281 -476l50 -72h-245zM471 -10q-345 476 -344 548q0 84 344 559h245l-50 -72q-280 -404 -281 -487q0 -72 281 -476l50 -72h-245z" />
    <glyph glyph-name="logicalnot" unicode="&#xac;" horiz-adv-x="1169" 
d="M1081 248h-219v364h-774v219h993v-583z" />
    <glyph glyph-name="uni00AD" unicode="&#xad;" horiz-adv-x="659" 
d="M61 424v250h537v-250h-537z" />
    <glyph glyph-name="registered" unicode="&#xae;" horiz-adv-x="1704" 
d="M1157 905q0 -170 -143 -233l237 -400h-254l-178 338h-47v-338h-229v916h264q181 0 265.5 -70t84.5 -213zM772 778h31q66 0 94.5 28.5t28.5 94.5q0 65 -28 92t-97 27h-29v-242zM100 731q0 200 100 375t275 276t377 101q200 0 375 -100t276 -275t101 -377q0 -197 -97 -370
t-272 -277t-383 -104q-207 0 -382 103.5t-272.5 276.5t-97.5 371zM242 731q0 -164 82 -305.5t224 -223t304 -81.5q164 0 305.5 82t223 224t81.5 304q0 164 -82 305.5t-224 223t-304 81.5q-164 0 -305.5 -82t-223 -224t-81.5 -304z" />
    <glyph glyph-name="overscore" unicode="&#xaf;" horiz-adv-x="1024" 
d="M1030 1556h-1036v201h1036v-201z" />
    <glyph glyph-name="degree" unicode="&#xb0;" horiz-adv-x="877" 
d="M92 1137q0 92 46 172t126 127t174 47q92 0 172.5 -46t127 -127t46.5 -173q0 -93 -46.5 -173.5t-126.5 -125.5t-173 -45q-145 0 -245.5 99.5t-100.5 244.5zM283 1137q0 -64 44.5 -109t110.5 -45t111 46t45 108q0 63 -45.5 110t-110.5 47q-64 0 -109.5 -46t-45.5 -111z" />
    <glyph glyph-name="plusminus" unicode="&#xb1;" horiz-adv-x="1169" 
d="M475 674h-387v219h387v389h219v-389h387v-219h-387v-385h-219v385zM88 0v219h993v-219h-993z" />
    <glyph glyph-name="twosuperior" unicode="&#xb2;" horiz-adv-x="776" 
d="M702 586h-647v168l224 219q102 100 130.5 144.5t28.5 94.5q0 38 -24 58t-64 20q-81 0 -180 -88l-123 152q147 129 336 129q137 0 216 -66.5t79 -183.5q0 -85 -47 -160t-176 -192l-105 -95h352v-200z" />
    <glyph glyph-name="threesuperior" unicode="&#xb3;" horiz-adv-x="776" 
d="M666 1249q0 -143 -170 -198v-13q94 -20 146 -75t52 -134q0 -121 -88 -190.5t-274 -69.5q-143 0 -273 70v190q148 -90 271 -90q143 0 143 107q0 53 -44 79.5t-122 26.5h-112v160h92q83 0 123.5 26t40.5 83q0 38 -25 63t-76 25q-47 0 -89 -19t-99 -59l-101 141
q62 47 137.5 78t178.5 31q127 0 208 -64t81 -168z" />
    <glyph glyph-name="acute" unicode="&#xb4;" horiz-adv-x="1243" 
d="M332 1241v27q172 200 235 301h342v-21q-52 -52 -177.5 -154.5t-196.5 -152.5h-203z" />
    <glyph glyph-name="mu" unicode="&#xb5;" horiz-adv-x="1352" 
d="M465 465q0 -121 44 -181.5t138 -60.5q126 0 183 86.5t57 282.5v526h305v-1118h-231l-43 150h-15q-42 -85 -102 -127.5t-148 -42.5q-62 0 -114 23t-84 67l5 -85l5 -157v-320h-305v1610h305v-653z" />
    <glyph glyph-name="paragraph" unicode="&#xb6;" horiz-adv-x="1341" 
d="M1167 -260h-161v1616h-166v-1616h-162v819q-62 -18 -146 -18q-216 0 -317.5 125t-101.5 376q0 260 109 387t341 127h604v-1816z" />
    <glyph glyph-name="periodcentered" unicode="&#xb7;" horiz-adv-x="584" 
d="M117 723q0 84 45 127t131 43q83 0 128.5 -44t45.5 -126q0 -81 -46.5 -125.5t-127.5 -44.5q-84 0 -130 44t-46 126z" />
    <glyph glyph-name="cedilla" unicode="&#xb8;" horiz-adv-x="420" 
d="M418 -250q0 -128 -75.5 -185t-233.5 -57q-78 0 -146 21v168q27 -7 72.5 -14t70.5 -7q72 0 72 62q0 83 -166 108l78 154h193l-27 -61q74 -24 118 -74.5t44 -114.5z" />
    <glyph glyph-name="onesuperior" unicode="&#xb9;" horiz-adv-x="776" 
d="M584 586h-238v446l3 112l5 95q-27 -36 -75 -78l-78 -61l-109 127l301 235h191v-876z" />
    <glyph glyph-name="ordmasculine" unicode="&#xba;" horiz-adv-x="795" 
d="M737 1116q0 -171 -91.5 -267.5t-250.5 -96.5q-153 0 -245.5 98.5t-92.5 265.5q0 169 89.5 266t252.5 97q152 0 245 -98.5t93 -264.5zM260 1116q0 -100 32.5 -150.5t104.5 -50.5t103.5 50.5t31.5 150.5t-31.5 149.5t-103.5 49.5t-104.5 -49.5t-32.5 -149.5z" />
    <glyph glyph-name="guillemotright" unicode="&#xbb;" horiz-adv-x="1340" 
d="M372 -10h-245l50 72q281 404 281 476q-1 83 -281 487l-50 72h245q344 -475 344 -559q1 -72 -344 -548zM862 -10h-245l50 72q281 404 281 476q-1 83 -281 487l-50 72h245q344 -475 344 -559q1 -72 -344 -548z" />
    <glyph glyph-name="onequarter" unicode="&#xbc;" horiz-adv-x="1804" 
d="M538 586h-238v446l3 112l5 95q-27 -36 -75 -78l-78 -61l-109 127l301 235h191v-876zM1370 1462l-811 -1462h-239l811 1462h239zM1682 152h-125v-151h-238v151h-383v154l385 577h236v-563h125v-168zM1319 320v164q0 86 6 184q-9 -26 -35.5 -80t-41.5 -77l-127 -191h198z
" />
    <glyph glyph-name="onehalf" unicode="&#xbd;" horiz-adv-x="1804" 
d="M538 586h-238v446l3 112l5 95q-27 -36 -75 -78l-78 -61l-109 127l301 235h191v-876zM1370 1462l-811 -1462h-239l811 1462h239zM1716 1h-647v168l224 219q102 100 130.5 144.5t28.5 94.5q0 38 -24 58t-64 20q-81 0 -180 -88l-123 152q147 129 336 129q137 0 216 -66.5
t79 -183.5q0 -85 -47 -160t-176 -192l-105 -95h352v-200z" />
    <glyph glyph-name="threequarters" unicode="&#xbe;" horiz-adv-x="1804" 
d="M697 1249q0 -143 -170 -198v-13q94 -20 146 -75t52 -134q0 -121 -88 -190.5t-274 -69.5q-143 0 -273 70v190q148 -90 271 -90q143 0 143 107q0 53 -44 79.5t-122 26.5h-112v160h92q83 0 123.5 26t40.5 83q0 38 -25 63t-76 25q-47 0 -89 -19t-99 -59l-101 141
q62 47 137.5 78t178.5 31q127 0 208 -64t81 -168zM1441 1462l-811 -1462h-239l811 1462h239zM1712 152h-125v-151h-238v151h-383v154l385 577h236v-563h125v-168zM1349 320v164q0 86 6 184q-9 -26 -35.5 -80t-41.5 -77l-127 -191h198z" />
    <glyph glyph-name="questiondown" unicode="&#xbf;" horiz-adv-x="977" 
d="M713 606v-74q0 -98 -44.5 -169t-152.5 -148q-109 -78 -137.5 -122t-28.5 -107q0 -57 43.5 -94t132.5 -37q79 0 169 29t186 71l102 -221q-98 -56 -221.5 -90.5t-229.5 -34.5q-220 0 -345.5 96.5t-125.5 265.5q0 108 48.5 187t191.5 184q95 70 121.5 107t26.5 98v59h264z
M745 948q0 -84 -45 -127t-131 -43q-83 0 -128.5 44t-45.5 126q0 81 46.5 125.5t127.5 44.5q84 0 130 -44t46 -126z" />
    <glyph glyph-name="uni02BC" unicode="&#x2bc;" horiz-adv-x="444" 
d="M406 1462l14 -22q-50 -197 -176 -479h-219q69 296 100 501h281z" />
    <glyph glyph-name="circumflex" unicode="&#x2c6;" horiz-adv-x="1243" 
d="M852 1241q-157 93 -234 176q-78 -81 -229 -176h-203v27q189 189 256 301h357q31 -52 107.5 -141.5t148.5 -159.5v-27h-203z" />
    <glyph glyph-name="caron" unicode="&#x2c7;" horiz-adv-x="1243" 
d="M1055 1569v-27q-84 -84 -154.5 -167.5t-101.5 -133.5h-357q-29 47 -83 112.5t-173 188.5v27h203q147 -93 229 -176q84 87 234 176h203z" />
    <glyph glyph-name="macron" unicode="&#x2c9;" horiz-adv-x="1243" 
d="M283 1452h678v-211h-678v211z" />
    <glyph glyph-name="breve" unicode="&#x2d8;" horiz-adv-x="1243" 
d="M1014 1579q-12 -154 -122 -246t-276 -92q-174 0 -277.5 91t-111.5 247h170q4 -47 27.5 -74t66 -39t127.5 -12q206 0 222 125h174z" />
    <glyph glyph-name="dotaccent" unicode="&#x2d9;" horiz-adv-x="625" 
d="M147 1407q0 149 166 149t166 -149q0 -71 -41.5 -110.5t-124.5 -39.5q-166 0 -166 150z" />
    <glyph glyph-name="ring" unicode="&#x2da;" horiz-adv-x="1182" 
d="M842 1479q0 -108 -71 -174t-183 -66t-180 64t-68 174q0 108 67.5 172.5t180.5 64.5q110 0 182 -66t72 -169zM684 1477q0 45 -27 70.5t-69 25.5t-69 -25.5t-27 -70.5t24 -71t72 -26q42 0 69 26t27 71z" />
    <glyph glyph-name="ogonek" unicode="&#x2db;" horiz-adv-x="422" 
d="M221 -227q0 -42 22.5 -62t57.5 -20q55 0 115 18v-178q-82 -23 -156 -23q-113 0 -181.5 63.5t-68.5 166.5q0 67 38 126t142 136h179q-70 -66 -109 -120.5t-39 -106.5z" />
    <glyph glyph-name="tilde" unicode="&#x2dc;" horiz-adv-x="1243" 
d="M457 1346q-31 0 -59.5 -26.5t-41.5 -80.5h-149q11 145 82.5 227t189.5 82q41 0 80.5 -16.5t78 -36t75.5 -35.5t73 -16q31 0 59.5 26t41.5 80h149q-11 -145 -83.5 -227t-188.5 -82q-41 0 -80.5 16.5t-78 36t-75.5 36t-73 16.5z" />
    <glyph glyph-name="hungarumlaut" unicode="&#x2dd;" horiz-adv-x="1204" 
d="M156 1241v27q62 85 117.5 172.5t76.5 128.5h301v-21q-32 -53 -146 -153t-188 -154h-161zM553 1241v27q139 192 195 301h301v-21q-25 -43 -125.5 -134.5t-208.5 -172.5h-162z" />
    <glyph glyph-name="uni02F3" unicode="&#x2f3;" horiz-adv-x="682" 
d="M590 -360q0 -108 -71 -174t-183 -66t-180 64t-68 174q0 108 67.5 172.5t180.5 64.5q110 0 182 -66t72 -169zM432 -362q0 45 -27 70.5t-69 25.5t-69 -25.5t-27 -70.5t24 -71t72 -26q42 0 69 26t27 71z" />
    <glyph glyph-name="hook" unicode="&#x309;" 
d="M-352 1487q0 -156 -162 -197l-10 -71h-174l-23 147q75 12 102 37.5t27 62.5q0 32 -21 49t-55 17q-65 0 -139 -23v168q30 10 82.5 16.5t93.5 6.5q140 0 209.5 -55.5t69.5 -157.5z" />
    <glyph glyph-name="uni030F" unicode="&#x30f;" 
d="M-442 1241q-62 49 -171 150.5t-143 156.5v21h301q33 -72 83 -158.5t91 -142.5v-27h-161zM-840 1241q-73 57 -177.5 157t-135.5 150v21h301q33 -72 83 -158.5t91 -142.5v-27h-162z" />
    <glyph glyph-name="dotbelow" unicode="&#x323;" 
d="M-807 -281q0 150 166 150t166 -150q0 -71 -42 -110t-124 -39q-166 0 -166 149z" />
    <glyph glyph-name="tonos" unicode="&#x384;" horiz-adv-x="1182" 
d="M471 1272q18 54 44.5 164t37.5 194h283v-24q-78 -186 -187 -365h-178v31z" />
    <glyph glyph-name="afii57388" unicode="&#x60c;" horiz-adv-x="747" 
d="M362 348q101 -15 136 -72q30 -48 30 -96q0 -174 -168 -176q-200 -2 -179 240q23 277 319 458q48 30 68 5q18 -26 -12 -49q-139 -104 -182 -232q-13 -37 -12 -78z" />
    <glyph glyph-name="uni0615" unicode="&#x615;" 
d="M696 2136h81q96 0 160 18q16 5 30 11t26 13t22.5 15t18.5 17q25 28 26 72q0 20 -4 34.5t-13.5 23.5t-24 12.5t-35.5 2.5q-13 0 -28 -4.5t-32 -12.5q-8 -4 -17 -9.5t-18 -11.5t-19 -13.5t-20 -15.5q-71 -58 -138 -135zM1161 2191q-68 -175 -434 -175h-313l-63 120h144v671
h121v-599l19 26q54 71 114 130q45 44 87 72.5t80 42.5t73 13q73 -1 120 -33q16 -10 28 -23.5t21 -30.5t15 -37q13 -41 10 -85q-1 -15 -4 -30t-7.5 -30.5t-10.5 -31.5z" />
    <glyph glyph-name="uni061B" unicode="&#x61b;" horiz-adv-x="748" 
d="M182 176q0 74 51 125t124.5 51t125 -51t51.5 -125t-51.5 -125t-125 -51t-124.5 51t-51 125zM361 901q101 -16 137 -72q29 -48 30 -96q-1 -174 -169 -176q-200 -2 -179 240q23 272 320 458q48 30 67 4q18 -25 -12 -48q-138 -105 -182 -232q-13 -37 -12 -78z" />
    <glyph glyph-name="uni061F" unicode="&#x61f;" horiz-adv-x="1095" 
d="M472 176q0 74 51 125t124.5 51t125 -51t51.5 -125t-51.5 -125t-125 -51t-124.5 51t-51 125zM841 1102q-26 208 -236 208q-119 1 -166 -72q-50 -75 -15 -157q34 -82 119 -140l58 -39q163 -111 163 -270v-26q0 -52 -41 -52h-133q-50 0 -50 51v41q0 64 -143 174l-84 64
q-172 132 -173 302q0 223 187 330q97 56 236 56q217 0 331 -160q68 -96 68 -229q0 -47 -3 -81h-118z" />
    <glyph glyph-name="uni0621" unicode="&#x621;" horiz-adv-x="891" 
d="M678 533q-42 15 -78.5 24.5t-65.5 13.5t-52 2q-33 -3 -61 -15t-51 -33q-14 -14 -25 -26q-5 -6 -8.5 -11t-5.5 -8q-5 -8 -5 -13v-1v-1q2 -24 20 -47.5t52 -45.5q20 -14 37 -25q9 -5 16.5 -9.5t13 -8t10 -6t7.5 -3.5l2 -1h3q41 2 138 27l102 26q1 0 2.5 0.5l3 1t4 1t4.5 1
t4.5 1.5t4 1.5t3.5 1t3 0.5q5 1 13 2q7 1 11 0q4 0 8 -3q2 -1 3.5 -3t2.5 -4q2 -3 2.5 -5t0.5 -5q1 -6 1 -9t-2 -14q-1 -6 -1.5 -10t-1.5 -7l-17 -116l-686 -189l76 206l87 24l-12 13q-118 121 -56 310q46 142 187 193q45 16 92 18.5t96 -8.5q24 -5 48.5 -14t50.5 -21
q35 -18 69 -51l4 -4l-1 -6q-4 -22 -14 -56.5t-25 -80.5l-4 -10z" />
    <glyph glyph-name="uni0627" unicode="&#x627;" horiz-adv-x="555" 
d="M185 -5q-1 1084 -54 1421l218 130q62 38 65 -18q12 -234 12 -480q0 -293 -11 -604q-12 -318 -50 -394q-35 -69 -180 -65v10z" />
    <glyph glyph-name="uni0628" unicode="&#x628;" horiz-adv-x="1843" 
d="M971 -173l178 -178l-178 -178l-178 178zM304 840q-63 -251 4 -354q101 -154 491 -164q111 -3 203 -1q394 7 518 133q30 31 20 65q-40 128 -99 253l145 182q31 38 58 -11q99 -177 98 -356q-1 -158 -61 -283q-145 -304 -824 -304q-378 0 -560 100q-211 116 -211 391
q1 195 100 391z" />
    <glyph glyph-name="uni0629" unicode="&#x629;" horiz-adv-x="893" 
d="M247 1445l170 -171l-170 -170l-171 170zM590 1445l170 -171l-170 -170l-170 170zM377 630q-155 -206 -98 -271q42 -49 170 -48q168 0 190 95q10 41 -20 85q-32 47 -116 87q-5 1 -93 39q-12 5 -33 13zM814 448q8 -207 -97 -327q-104 -119 -271 -115q-174 4 -262 100
q-91 99 -92 289q-1 204 228 491q32 40 75 25q268 -97 374 -307q43 -84 45 -156z" />
    <glyph glyph-name="uni062A" unicode="&#x62a;" horiz-adv-x="1843" 
d="M731 1253l170 -171l-170 -170l-171 170zM1074 1253l170 -171l-170 -170l-170 170zM304 840q-63 -251 4 -354q101 -154 491 -164q111 -3 203 -1q394 7 518 133q30 31 20 65q-40 128 -99 253l145 182q31 38 58 -11q99 -177 98 -356q-1 -158 -61 -283q-145 -304 -824 -304
q-378 0 -560 100q-211 116 -211 391q1 195 100 391z" />
    <glyph glyph-name="uni062B" unicode="&#x62b;" horiz-adv-x="1843" 
d="M909 1430l162 -162l-162 -162l-163 162zM895 1012l-162 -163l-162 163l162 162zM922 1012l163 162l162 -162l-162 -163zM304 840q-63 -251 4 -354q101 -154 491 -164q111 -3 203 -1q394 7 518 133q30 31 20 65q-40 128 -99 253l145 182q31 38 58 -11q99 -177 98 -356
q-1 -158 -61 -283q-145 -304 -824 -304q-378 0 -560 100q-211 116 -211 391q1 195 100 391z" />
    <glyph glyph-name="uni062C" unicode="&#x62c;" horiz-adv-x="1336" 
d="M798 208l178 -178l-178 -178l-178 178zM1150 486q-306 -41 -506 -143q-341 -172 -341 -426q0 -275 473 -275q165 0 286 15q148 19 151 19q12 1 10 -31q-17 -263 -54 -270q-125 -24 -420 -24q-312 0 -462 141q-160 150 -160 383q0 436 329 638q139 84 263 107q-4 0 -99 22
q-149 34 -219 34q-98 0 -198 -119q-57 35 -113 71q41 106 107 184q103 123 232 123q76 0 567 -147q93 -28 237 -31q18 0 13 -16z" />
    <glyph glyph-name="uni062D" unicode="&#x62d;" horiz-adv-x="1336" 
d="M1150 486q-306 -41 -506 -143q-341 -172 -341 -426q0 -275 473 -275q165 0 286 15q148 19 151 19q12 1 10 -31q-17 -263 -54 -270q-125 -24 -420 -24q-312 0 -462 141q-160 150 -160 383q0 436 329 638q139 84 263 107q-4 0 -99 22q-149 34 -219 34q-98 0 -198 -119
q-57 35 -113 71q41 106 107 184q103 123 232 123q76 0 567 -147q93 -28 237 -31q18 0 13 -16z" />
    <glyph glyph-name="uni062E" unicode="&#x62e;" horiz-adv-x="1336" 
d="M623 1484l178 -178l-178 -178l-178 178zM1150 486q-306 -41 -506 -143q-341 -172 -341 -426q0 -275 473 -275q165 0 286 15q148 19 151 19q12 1 10 -31q-17 -263 -54 -270q-125 -24 -420 -24q-312 0 -462 141q-160 150 -160 383q0 436 329 638q139 84 263 107
q-4 0 -99 22q-149 34 -219 34q-98 0 -198 -119q-57 35 -113 71q41 106 107 184q103 123 232 123q76 0 567 -147q93 -28 237 -31q18 0 13 -16z" />
    <glyph glyph-name="uni062F" unicode="&#x62f;" horiz-adv-x="1027" 
d="M757 418q-49 128 -436 421l95 235q9 23 25 23q14 1 36 -19q364 -297 430 -480q33 -91 33 -190q-1 -104 -36 -180q-106 -226 -474 -226q-341 0 -344 312q-1 47 24 146l126 -13l-1 -37q-2 -85 219 -85q187 0 283 58q27 16 20 35z" />
    <glyph glyph-name="uni0630" unicode="&#x630;" horiz-adv-x="1027" 
d="M395 1651l178 -178l-178 -178l-178 178zM757 418q-49 128 -436 421l95 235q9 23 25 23q14 1 36 -19q364 -297 430 -480q33 -91 33 -190q-1 -104 -36 -180q-106 -226 -474 -226q-341 0 -344 312q-1 47 24 146l126 -13l-1 -37q-2 -85 219 -85q187 0 283 58q27 16 20 35z
" />
    <glyph glyph-name="uni0631" unicode="&#x631;" horiz-adv-x="807" 
d="M583 623q36 -57 63 -115q155 -333 30 -655q-112 -300 -481 -444q-24 -10 -37 8q-132 179 -143 203q-14 28 20 41q471 179 470 405q0 91 -143 339q142 182 173 222q24 32 48 -4z" />
    <glyph glyph-name="uni0632" unicode="&#x632;" horiz-adv-x="807" 
d="M467 1206l178 -178l-178 -178l-178 178zM583 623q36 -57 63 -115q155 -333 30 -655q-112 -300 -481 -444q-24 -10 -37 8q-132 179 -143 203q-14 28 20 41q471 179 470 405q0 91 -143 339q142 182 173 222q24 32 48 -4z" />
    <glyph glyph-name="uni0633" unicode="&#x633;" horiz-adv-x="2375" 
d="M1944 -2q-201 0 -284 166q-108 -167 -205 -164q-70 1 -143 47q-11 -307 -221 -464q-159 -118 -410 -118q-312 -1 -456 154q-166 179 -128 489q17 141 103 330l138 -39q-108 -359 10 -506q105 -129 339 -128q296 2 413 181q42 65 21 133q-43 143 -122 281l137 205
q21 33 47 -16l16 -30q60 -116 104 -156q44 -38 121 -37q142 3 162 177l15 127h142l15 -138q18 -172 189 -169q99 1 119 75q12 44 -3 95q-22 69 -79 196l145 185q31 39 55 0q100 -168 100 -338q0 -244 -118 -398q-106 -139 -222 -140z" />
    <glyph glyph-name="uni0634" unicode="&#x634;" horiz-adv-x="2375" 
d="M1642 1450l162 -162l-162 -162l-163 162zM1628 1032l-162 -163l-162 163l162 162zM1655 1032l163 162l162 -162l-162 -163zM1944 -2q-201 0 -284 166q-108 -167 -205 -164q-70 1 -143 47q-11 -307 -221 -464q-159 -118 -410 -118q-312 -1 -456 154q-166 179 -128 489
q17 141 103 330l138 -39q-108 -359 10 -506q105 -129 339 -128q296 2 413 181q42 65 21 133q-43 143 -122 281l137 205q21 33 47 -16l16 -30q60 -116 104 -156q44 -38 121 -37q142 3 162 177l15 127h142l15 -138q18 -172 189 -169q99 1 119 75q12 44 -3 95q-22 69 -79 196
l145 185q31 39 55 0q100 -168 100 -338q0 -244 -118 -398q-106 -139 -222 -140z" />
    <glyph glyph-name="uni0635" unicode="&#x635;" horiz-adv-x="2623" 
d="M1816 0h-234q-167 0 -270 44q-11 -305 -221 -461q-159 -118 -410 -118q-313 0 -456 154q-166 179 -128 489q17 141 102 330l139 -38q-108 -360 10 -507q105 -129 339 -128q298 2 413 181q41 64 21 133q-39 140 -123 281l140 210q19 28 38 -10l27 -52q89 -175 225 -181h17
q115 156 198 247q289 318 552 318q214 -1 303 -167q23 -42 31 -97q26 -180 -64 -326q-189 -302 -649 -302zM1607 326h300q343 0 402 55q38 34 28 91q-25 141 -221 138q-228 -3 -509 -284z" />
    <glyph glyph-name="uni0636" unicode="&#x636;" horiz-adv-x="2623" 
d="M2108 1476l178 -178l-178 -178l-178 178zM1816 0h-234q-167 0 -270 44q-11 -305 -221 -461q-159 -118 -410 -118q-313 0 -456 154q-166 179 -128 489q17 141 102 330l139 -38q-108 -360 10 -507q105 -129 339 -128q298 2 413 181q41 64 21 133q-39 140 -123 281l140 210
q19 28 38 -10l27 -52q89 -175 225 -181h17q115 156 198 247q289 318 552 318q214 -1 303 -167q23 -42 31 -97q26 -180 -64 -326q-189 -302 -649 -302zM1607 326h300q343 0 402 55q38 34 28 91q-25 141 -221 138q-228 -3 -509 -284z" />
    <glyph glyph-name="uni0637" unicode="&#x637;" horiz-adv-x="1637" 
d="M623 326h300q341 0 403 55q37 34 27 91q-25 141 -221 138q-227 -3 -509 -284zM675 571q296 321 536 321q214 -1 303 -167q23 -42 31 -97q27 -180 -64 -326q-189 -302 -648 -302h-235l-306 -1q-130 133 -192 229q-61 96 58 96h307q-2 299 -26 682q-19 297 -42 412l220 128
q58 35 58 -39v-936z" />
    <glyph glyph-name="uni0638" unicode="&#x638;" horiz-adv-x="1637" 
d="M1146 1477l178 -178l-178 -178l-178 178zM623 326h300q341 0 403 55q37 34 27 91q-25 141 -221 138q-227 -3 -509 -284zM675 571q296 321 536 321q214 -1 303 -167q23 -42 31 -97q27 -180 -64 -326q-189 -302 -648 -302h-235l-306 -1q-130 133 -192 229q-61 96 58 96h307
q-2 299 -26 682q-19 297 -42 412l220 128q58 35 58 -39v-936z" />
    <glyph glyph-name="uni0639" unicode="&#x639;" horiz-adv-x="1289" 
d="M95 -125q0 386 304 575l-29 32q-102 119 -102 258q1 87 23 143q76 195 249 260q59 23 139 23q181 0 346 -159l-54 -154q-102 49 -246 52q-153 2 -225 -66q-59 -55 -59 -95q0 -58 92 -123q93 -64 120 -64q28 0 279 43l156 18q31 3 36 -11q6 -13 0 -35l-63 -241
q-347 -5 -581 -122q-209 -104 -209 -292q0 -275 473 -275q165 0 286 15q148 19 151 19q12 1 10 -31q-13 -262 -54 -270q-125 -24 -420 -24q-312 0 -462 141q-160 150 -160 383zM370 482v0v0z" />
    <glyph glyph-name="uni063A" unicode="&#x63a;" horiz-adv-x="1289" 
d="M685 1729l178 -178l-178 -178l-178 178zM95 -125q0 386 304 575l-29 32q-102 119 -102 258q1 87 23 143q76 195 249 260q59 23 139 23q181 0 346 -159l-54 -154q-102 49 -246 52q-153 2 -225 -66q-59 -55 -59 -95q0 -58 92 -123q93 -64 120 -64q28 0 279 43l156 18
q31 3 36 -11q6 -13 0 -35l-63 -241q-347 -5 -581 -122q-209 -104 -209 -292q0 -275 473 -275q165 0 286 15q148 19 151 19q12 1 10 -31q-13 -262 -54 -270q-125 -24 -420 -24q-312 0 -462 141q-160 150 -160 383zM370 482v0v0z" />
    <glyph glyph-name="afii57440" unicode="&#x640;" horiz-adv-x="245" 
d="M-22 0v324h291v-324h-291z" />
    <glyph glyph-name="uni0641" unicode="&#x641;" horiz-adv-x="1737" 
d="M1286 1688l178 -178l-178 -178l-178 178zM1466 729q-45 190 -187 186q-72 -2 -101 -80q-22 -57 1 -90q26 -36 128 -35q104 0 159 19zM836 0q-349 0 -536 104q-272 152 -198 548q19 101 84 230l118 -42q-66 -244 4 -354q106 -164 481 -164h75q382 0 484 27q108 29 115 92
l2 15q-119 -20 -193 -19q-235 2 -262 167q-12 80 7 199q28 180 111 279q74 86 188 86q113 0 182 -87q161 -199 144 -607q-10 -237 -175 -356q-166 -118 -565 -118h-66z" />
    <glyph glyph-name="uni0642" unicode="&#x642;" horiz-adv-x="1396" 
d="M792 1338l170 -171l-170 -170l-171 170zM1135 1338l170 -171l-170 -170l-170 170zM1131 373q-45 190 -187 185q-72 -2 -101 -80q-22 -57 1 -90q26 -35 128 -35q104 1 159 20zM1300 164q-8 -194 -51 -299q-124 -299 -558 -299q-323 0 -466 155q-167 179 -128 488
q17 141 103 331l138 -40q-109 -358 10 -505q105 -129 359 -128q335 2 418 171q10 20 14 61q-118 -19 -201 -19q-236 1 -261 167q-13 80 6 199q27 179 112 279q73 86 187 86q113 1 183 -87q150 -189 135 -560z" />
    <glyph glyph-name="uni0643" unicode="&#x643;" horiz-adv-x="1979" 
d="M900 0q-421 0 -603 100q-270 148 -195 552q19 101 84 230l118 -42q-67 -248 4 -354q106 -155 491 -164q536 -13 766 136q42 27 49 101q9 122 -9 492q-15 288 -28 377l213 128q50 31 50 -38v-799q18 -421 -198 -562q-238 -157 -742 -157zM1189 832q-105 -167 -419 -94
q-26 6 -65 18l16 161q118 -42 249.5 -40.5t141.5 62.5q6 38 -128 67q-181 39 -177 216q6 191 327 231q38 7 49.5 -10.5t3.5 -36.5l-39 -111q-121 -12 -181.5 -32.5t-61.5 -57.5q-1 -23 34 -36.5t108 -26.5q168 -29 171 -192q2 -68 -29 -118z" />
    <glyph glyph-name="uni0644" unicode="&#x644;" horiz-adv-x="1404" 
d="M1275 96q5 -246 -129 -418q-147 -187 -452 -187q-325 -1 -469 155q-166 179 -128 488q17 141 103 331l138 -39q-109 -361 10 -506q106 -130 359 -128q235 2 325 150q34 57 29 153q-30 562 -93 1312l201 125q80 50 81 -44z" />
    <glyph glyph-name="uni0645" unicode="&#x645;" horiz-adv-x="1175" 
d="M702 862zM306 90l15 -507q5 -133 -145 -272q-63 -59 -66 27l-14 339q-14 352 17 473q47 183 221 248q60 229 148 341q98 124 220 123q271 -1 386 -399q13 -47 -13 -142q-32 -114 -81 -179q-52 -68 -89 -86q-16 -7 -44 -2q-445 76 -555 36zM911 368q-6 91 -97 180
q-78 77 -167 60q-52 -10 -100 -75q-52 -72 -69 -126q157 -10 246 -25q117 -19 134 -21q31 -5 32 -5q21 1 21 12z" />
    <glyph glyph-name="uni0646" unicode="&#x646;" horiz-adv-x="1406" 
d="M671 1079l178 -178l-178 -178l-178 178zM1091 -281q-159 -118 -410 -118q-313 0 -456 155q-166 179 -128 488q17 141 102 331l139 -39q-109 -359 10 -506q105 -129 339 -128q298 2 413 180q41 64 21 133q-38 136 -124 281l142 210q20 30 47 -13q152 -243 141 -529
q-10 -277 -236 -445z" />
    <glyph glyph-name="uni0647" unicode="&#x647;" horiz-adv-x="893" 
d="M377 630q-155 -206 -98 -271q42 -49 170 -48q168 0 190 95q10 41 -20 85q-32 47 -116 87q-5 1 -93 39q-12 5 -33 13zM814 448q8 -207 -97 -327q-104 -119 -271 -115q-174 4 -262 100q-91 99 -92 289q-1 204 228 491q32 40 75 25q268 -97 374 -307q43 -84 45 -156z" />
    <glyph glyph-name="uni0648" unicode="&#x648;" horiz-adv-x="864" 
d="M722 -146q-99 -296 -477 -445q-24 -10 -37 8q-142 200 -143 203q-14 28 20 41q393 150 456 337l-82 -1q-206 -1 -290 98q-104 122 -22 407q46 158 124 231q63 58 155 60q179 5 270 -196q79 -174 78 -425q0 -162 -52 -318zM588 320q-57 230 -213 206q-62 -10 -87 -83
q-35 -107 94 -121q69 -8 125 -5z" />
    <glyph glyph-name="uni0649" unicode="&#x649;" horiz-adv-x="1523" 
d="M699 -503q-317 -3 -475 162q-128 134 -129 356q-2 248 112 454l138 -36q-104 -309 -37 -452q84 -180 411 -182q332 -2 481 190q22 28 -6 33l-196 36q-125 21 -178 34q-85 22 -94 96q-10 86 30 235q78 288 293 389q184 86 403 14q-22 -212 -41 -290l-54 6
q-312 30 -431 -153l-11 -17l321 -58q151 -27 164 -172q19 -221 -139 -403q-208 -239 -562 -242z" />
    <glyph glyph-name="uni064A" unicode="&#x64a;" horiz-adv-x="1523" 
d="M545 -609l170 -171l-170 -170l-171 170zM888 -609l170 -171l-170 -170l-170 170zM699 -503q-317 -3 -475 162q-128 134 -129 356q-2 248 112 454l138 -36q-104 -309 -37 -452q84 -180 411 -182q332 -2 481 190q22 28 -6 33l-196 36q-125 21 -178 34q-85 22 -94 96
q-10 86 30 235q78 288 293 389q184 86 403 14q-22 -212 -41 -290l-54 6q-312 30 -431 -153l-11 -17l321 -58q151 -27 164 -172q19 -221 -139 -403q-208 -239 -562 -242z" />
    <glyph glyph-name="uni064B" unicode="&#x64b;" 
d="M317 1106v118l524 214v-117zM317 1392v118l524 214v-118z" />
    <glyph glyph-name="uni064C" unicode="&#x64c;" 
d="M682 1806q-21 0 -37 -4t-26 -14q-20 -17 -20 -56q0 -28 19 -49l6.5 -6.5t8 -6.5t9 -5.5t10 -5.5t11.5 -5t12 -5q16 -6 45 -15l9 -3l12 29q2 4 3.5 8.5l3 9t2.5 8.5q3 13 3 25q0 40 -14 61q-14 23 -42 31l-8 2q-2 0 -3.5 0.5t-3.5 0.5zM341 1577q2 -32 4.5 -57t5.5 -43
t6 -29q16 -51 41 -74q26 -24 63 -23q13 1 26 3t26 6.5t26 11.5q38 18 77 56q23 22 41 46t31 50l8 17l-18 3q-131 28 -175 135q-4 10 -6 22q0 7 -0.5 14.5t-0.5 16.5v9.5t0.5 9l1 9l1 9t1.5 8.5t2.5 8t2.5 8q9 28 24.5 49.5t36.5 35.5q7 5 14.5 9t16 7t17.5 6q26 7 58 7
q16 0 30.5 -1.5t27.5 -5t25 -9t23 -12.5q22 -14 37.5 -34.5t26.5 -48.5q13 -34 13 -78q0 -22 -3.5 -43.5t-10.5 -42.5l-5 -18l18 -1h7t9 -1q9 0 20 -0.5t24 -0.5h10v-102h-11q-6 0 -11.5 0.5t-10.5 0.5h-9q-13 1 -21 2l-72 6l-3 -6q-31 -66 -76 -120q-11 -13 -23 -25.5
t-25 -24.5t-27 -23t-29 -21q-22 -16 -44 -26t-45 -15t-47 -5q-51 0 -88.5 20t-62.5 61q-53 84 -56 243v11h77z" />
    <glyph glyph-name="uni064D" unicode="&#x64d;" 
d="M292 -501v122l498 203v-122zM292 -237v122l498 204v-122z" />
    <glyph glyph-name="uni064E" unicode="&#x64e;" 
d="M258 1285v122l497 203v-122z" />
    <glyph glyph-name="uni064F" unicode="&#x64f;" 
d="M801 1417l-130 8q-136 -180 -375 -193v97q158 7 252 109l14 15q-71 24 -94 44q-65 57 -65 113q-1 97 67 152q37 30 100 30q66 0 118 -51q48 -48 49 -130q-1 -34 -20 -95l84 -3v-96zM619 1532q58 152 -45 159q-29 2 -41 -8q-26 -25 -32.5 -55t16 -49.5t47 -28t28.5 -9.5
q8 -3 27 -9z" />
    <glyph glyph-name="uni0650" unicode="&#x650;" 
d="M303 -344v122l497 204v-122z" />
    <glyph glyph-name="uni0651" unicode="&#x651;" 
d="M333 1621l1 -79q3 -102 87 -99q81 2 82 118v121q36 12 94 18l2 -88q2 -93 85 -93q85 0 81 106l-2 71q78 51 93 61l5 -58q25 -319 -161 -318q-77 0 -130 54q-48 -116 -163 -115q-182 1 -163 262l5 73q64 -25 84 -34z" />
    <glyph glyph-name="uni0652" unicode="&#x652;" 
d="M811 1670q10 10 17.5 21t12.5 23q10 24 10 53q0 57 -40 97t-98 40q-14 0 -27.5 -2.5t-25.5 -7.5t-23 -12.5t-21 -17.5q-20 -19 -29.5 -43.5t-9.5 -53.5q0 -58 39 -97q19 -20 43.5 -29.5t53.5 -9.5t53.5 10t44.5 29zM948 1768q0 -25 -4.5 -47.5t-13 -43.5t-21 -40
t-29.5 -36q-34 -34 -76 -51q-20 -9 -43 -13t-47 -4q-33 0 -62 7.5t-55.5 23t-48.5 37.5q-68 68 -68 166.5t68 166.5t166 68q24 0 47 -4.5t44 -12.5q41 -18 75 -51q5 -5 9.5 -10t8.5 -10q8 -11 15 -21q2 -4 4.5 -8t4.5 -7.5t4 -7.5q2 -6 4.5 -12t4.5 -12l4 -12t3 -13l4 -26
q1 -3 1 -5.5t0.5 -5t0.5 -5.5v-6v-5z" />
    <glyph glyph-name="uni0653" unicode="&#x653;" 
d="M362 1668q-86 -1 -184 -89q-33 21 -51 45q60 155 97 190q47 46 103 46t167 -14q159 -21 274 8q63 16 70 1q5 -10 -13 -38q-51 -78 -108 -124.5t-355 -24.5z" />
    <glyph glyph-name="uni0654" unicode="&#x654;" 
d="M448 1627l25 168q7 3 63 29l22 10l-22 10q-127 53 -73 232q54 180 224 179q99 0 167 -63l16 -15l-43 -96q-233 63 -265 -63q-4 -15 1 -27q43 -100 240 -52q51 13 60 7t8 -44l-1 -100q-194 -65 -422 -175z" />
    <glyph glyph-name="uni0655" unicode="&#x655;" 
d="M448 -428l25 168q7 3 63 29l22 10l-22 10q-127 53 -73 232q54 180 224 179q99 0 167 -63l16 -15l-43 -96q-233 63 -265 -63q-4 -15 1 -27q43 -100 240 -52q51 13 60 7t8 -44l-1 -100q-194 -65 -422 -175z" />
    <glyph glyph-name="uni0657" unicode="&#x657;" 
d="M331 2368l175 -11q72 98 177.5 162t162.5 89.5t83 34.5q51 17 102 22v-126q-129 -8 -297 -139q-34 -26 -64 -58l-22 -23l31 -7q13 -2 63 -29q97 -51 120 -146q4 -18 4 -36q0 -232 -225 -230q-155 1 -207 139q-33 87 4 205l7 22l-23 2q-44 2 -91 3v126zM627 1998
q110 0 110 91q0 76 -163 127l-15 -35q-15 -35 -15 -72q0 -76 60 -105q13 -6 23 -6z" />
    <glyph glyph-name="uni065A" unicode="&#x65a;" horiz-adv-x="1473" 
d="M645 1876l-266 445h163l202 -303l202 303h163l-266 -445h-198z" />
    <glyph glyph-name="afii57392" unicode="&#x660;" horiz-adv-x="973" 
d="M491 895l267 -268l-273 -273l-267 268z" />
    <glyph glyph-name="afii57393" unicode="&#x661;" horiz-adv-x="835" 
d="M631 301q3 -202 -9 -255q-5 -17 -30 -22q-24 -5 -151 -26l-1 14q-35 560 -307 1309l184 163q18 15 22 14q13 -4 20 -23q264 -758 272 -1174z" />
    <glyph glyph-name="afii57394" unicode="&#x662;" horiz-adv-x="1175" 
d="M416 -2q-36 579 -307 1327l184 162q27 23 39 -4q6 -14 19 -54t48 -129q62 -155 260 -153q235 4 270 297l5 38l153 -20l-2 -28q-23 -617 -415 -628q-72 -2 -152 6q112 -544 78 -768q-2 -14 -24 -19t-156 -27z" />
    <glyph glyph-name="afii57395" unicode="&#x663;" horiz-adv-x="1364" 
d="M417 -2q-35 578 -308 1327l184 162q23 20 31 8q10 -15 15 -32q36 -113 57 -162q66 -157 184 -156q15 0 32 2q94 9 109 150l15 143l154 -6l5 -146q5 -154 119 -153q62 0 83 83q17 63 24 179l4 68l152 -7l1 -57q10 -577 -283 -578q-132 -1 -208 144q-58 -164 -270 -149
q114 -561 80 -774q-2 -15 -24 -19q-22 -5 -156 -27z" />
    <glyph glyph-name="afii57396" unicode="&#x664;" horiz-adv-x="1002" 
d="M439 989q155 -94 292 -154q3 -38 5 -74.5t5 -74.5q-41 -18 -78 -35.5t-70 -35t-61.5 -34.5t-53.5 -34.5t-46 -34.5q-20 -16 -31.5 -30t-14.5 -28q-5 -21 10.5 -34.5t46.5 -20.5q207 -44 432 -36h11l-5 -254q-1 -32 -17 -50q-14 -17 -41 -16q-451 18 -597 109l-12 8t-12 9
q-35 27 -51 60t-13.5 72.5t25 86t64.5 100.5q100 129 232 209l17 10l-18 9q-200 91 -282 186q-106 125 2 249q17 19 37.5 39t45.5 40t54 41t62 42t70 42t78 43t86 44t94 44q11 6 21 9q28 8 33 -9q3 -12 1 -24q-29 -161 -59 -322q-20 -1 -40.5 -3t-41 -5.5t-41.5 -7.5t-43 -9
t-44 -11.5t-45 -13.5q-19 -6 -31.5 -13.5t-18.5 -16.5q-20 -33 43 -71z" />
    <glyph glyph-name="afii57397" unicode="&#x665;" horiz-adv-x="1236" 
d="M584 1067q-273 -335 -271 -490q1 -104 57 -153q72 -62 215 -61q183 2 250 55q89 67 86 178q-3 162 -337 471zM181 241q-58 97 -60 238q-4 307 317 681l21 25l-82 62l143 261q457 -423 544 -740q124 -447 -151 -641q-126 -87 -335 -86q-278 0 -397 200z" />
    <glyph glyph-name="afii57398" unicode="&#x666;" horiz-adv-x="1308" 
d="M1004 618q14 -91 57 -154t114 -97l5 -3l17 -369l-13 1q-300 30 -363 347q-59 305 -68 817v12l-13 -2q-184 -34 -394 -28q-146 3 -196 53q-49 48 -49 309q0 33 20 36q9 1 20 -3q315 -121 802 -49q21 -604 61 -870z" />
    <glyph glyph-name="afii57399" unicode="&#x667;" horiz-adv-x="1376" 
d="M1110 1482l199 -178q-389 -779 -519 -1307h-194q-167 642 -530 1307l178 178q16 17 28 8l6 -6q3 -2 5 -6q191 -329 388 -1019l10 -38l10 39q140 555 379 1013q11 21 21 20l4 -2t5 -1l4 -2q1 -2 3 -3z" />
    <glyph glyph-name="afii57400" unicode="&#x668;" horiz-adv-x="1376" 
d="M1110 8l-3 -3q-2 -1 -3 -3l-4 -2q-3 0 -5 -1l-4 -2q-10 -1 -21 20q-239 458 -379 1013l-10 39l-10 -38q-197 -690 -388 -1019q-2 -4 -5 -6l-6 -6q-12 -9 -28 8l-178 178q363 665 530 1307h194q130 -528 519 -1307z" />
    <glyph glyph-name="afii57401" unicode="&#x669;" horiz-adv-x="1097" 
d="M642 664q-299 -44 -433 45q-115 77 -111 260q5 272 110 419q93 132 229 142q156 11 264 -111q124 -141 129 -424q14 -617 182 -781l-180 -214q-187 192 -190 664zM354 939q91 -31 277 5l-6 54q-27 276 -179 274q-105 -2 -139 -148q-37 -157 47 -185z" />
    <glyph glyph-name="afii57381" unicode="&#x66a;" horiz-adv-x="1517" 
d="M254 1270.5q0 74.5 52 127t127 52.5t127 -52.5t52 -127t-52 -127t-127 -52.5t-127 52.5t-52 127zM898 412q0 75 52.5 127t127 52t127 -52t52.5 -127t-52.5 -127t-127 -52t-127 52t-52.5 127zM986 1545l186 -109l-732 -1417l-189 103z" />
    <glyph glyph-name="uni066B" unicode="&#x66b;" horiz-adv-x="938" 
d="M636 661l136 -85l-584 -973l-138 92z" />
    <glyph glyph-name="uni066C" unicode="&#x66c;" horiz-adv-x="539" 
d="M240 -1l-19 3q-72 6 -107 56q-37 54 -21 131q13 64 67 102q53 36 121 24q16 -3 30.5 -8.5t27.5 -14t24.5 -19.5t20.5 -25q37 -53 29 -152q-23 -262 -301 -427q-39 -23 -59 -8q-3 2 -5 5l-4 6q-2 5 -2 10t3 11l2 4t2.5 4t2.5 3q4 6 10 10q77 57 131 142q47 74 47 134v9z
" />
    <glyph glyph-name="afii63167" unicode="&#x66d;" horiz-adv-x="1734" 
d="M189 1176h518l162 493l162 -493h518l-419 -306l160 -492l-421 305l-422 -305l161 492z" />
    <glyph glyph-name="uni066E" unicode="&#x66e;" horiz-adv-x="1843" 
d="M304 840q-63 -251 4 -354q101 -154 491 -164q111 -3 203 -1q394 7 518 133q30 31 20 65q-40 128 -99 253l145 182q31 38 58 -11q99 -177 98 -356q-1 -158 -61 -283q-145 -304 -824 -304q-378 0 -560 100q-211 116 -211 391q1 195 100 391z" />
    <glyph glyph-name="uni066F" unicode="&#x66f;" horiz-adv-x="1396" 
d="M1131 373q-45 190 -187 185q-72 -2 -101 -80q-22 -57 1 -90q26 -35 128 -35q104 1 159 20zM1300 164q-8 -194 -51 -299q-124 -299 -558 -299q-323 0 -466 155q-167 179 -128 488q17 141 103 331l138 -40q-109 -358 10 -505q105 -129 359 -128q335 2 418 171q10 20 14 61
q-118 -19 -201 -19q-236 1 -261 167q-13 80 6 199q27 179 112 279q73 86 187 86q113 1 183 -87q150 -189 135 -560z" />
    <glyph glyph-name="uni0670" unicode="&#x670;" 
d="M730 1804l-56 368l140 84v-424z" />
    <glyph glyph-name="uni0674" unicode="&#x674;" horiz-adv-x="802" 
d="M193 1765l25 168q7 3 63 29l22 10l-22 10q-127 53 -73 232q54 180 224 179q99 0 167 -63l16 -15l-43 -96q-233 63 -265 -63q-4 -15 1 -27q43 -100 240 -52q51 13 60 7t8 -44l-1 -100q-194 -65 -422 -175z" />
    <glyph glyph-name="afii57506" unicode="&#x67e;" horiz-adv-x="1864" 
d="M910 -743l-162 162l162 162l162 -162zM923 -324l163 162l162 -162l-162 -163zM896 -324l-162 -163l-162 163l162 162zM305 840q-63 -251 4 -354q101 -154 491 -164q111 -3 203 -1q394 7 518 133q30 31 20 65q-40 128 -99 253l145 182q31 38 58 -11q99 -177 98 -356
q-1 -158 -61 -283q-145 -304 -824 -304q-378 0 -560 100q-211 116 -211 391q1 195 100 391z" />
    <glyph glyph-name="afii57507" unicode="&#x686;" horiz-adv-x="1336" 
d="M789.468 -240.213l-136.846 136.846l136.846 136.846l136.846 -136.846zM800.449 113.728l137.69 136.846l136.846 -136.846l-136.846 -137.69zM777.642 113.728l-136.846 -137.69l-136.846 137.69l136.846 136.846zM1150 486q-306 -41 -506 -143q-341 -172 -341 -426
q0 -275 473 -275q165 0 286 15q148 19 151 19q12 1 10 -31q-17 -263 -54 -270q-125 -24 -420 -24q-312 0 -462 141q-160 150 -160 383q0 436 329 638q139 84 263 107q-4 0 -99 22q-149 34 -219 34q-98 0 -198 -119q-57 35 -113 71q41 106 107 184q103 123 232 123
q76 0 567 -147q93 -28 237 -31q18 0 13 -16z" />
    <glyph glyph-name="afii57508" unicode="&#x698;" horiz-adv-x="807" 
d="M464 1349l162 -162l-162 -162l-163 162zM450 931l-162 -163l-162 163l162 162zM477 931l163 162l162 -162l-162 -163zM583 623q36 -57 63 -115q155 -333 30 -655q-112 -300 -481 -444q-24 -10 -37 8q-132 179 -143 203q-14 28 20 41q471 179 470 405q0 91 -143 339
q142 182 173 222q24 32 48 -4z" />
    <glyph glyph-name="uni06A1" unicode="&#x6a1;" horiz-adv-x="1737" 
d="M1466 729q-45 190 -187 186q-72 -2 -101 -80q-22 -57 1 -90q26 -36 128 -35q104 0 159 19zM836 0q-349 0 -536 104q-272 152 -198 548q19 101 84 230l118 -42q-66 -244 4 -354q106 -164 481 -164h75q382 0 484 27q108 29 115 92l2 15q-119 -20 -193 -19q-235 2 -262 167
q-12 80 7 199q28 180 111 279q74 86 188 86q113 0 182 -87q161 -199 144 -607q-10 -237 -175 -356q-166 -118 -565 -118h-66z" />
    <glyph glyph-name="uni06A9" unicode="&#x6a9;" horiz-adv-x="1908" 
d="M1175 1065q338 -295 401 -443q25 -57 26 -128q1 -155 -117 -276q-211 -218 -672 -218q-331 0 -513 100q-211 115 -210 393q1 197 99 388l118 -43q-63 -251 4 -352q110 -166 491 -164q438 3 615 123q14 10 -27 68q-85 116 -475 446l75 295l828 296q49 18 41 -39l-34 -221z
" />
    <glyph glyph-name="afii57509" unicode="&#x6af;" horiz-adv-x="1929" 
d="M1196 1005q199 -156 286 -284q92 -136 85 -264q-6 -130 -119 -246q-205 -211 -640 -211q-325 0 -507 100q-269 146 -195 552q19 102 84 229l118 -43q-63 -251 4 -352q111 -164 471 -164q437 1 600 123q10 8 8 14q-21 66 -178 215q-140 131 -275 230l73 290l828 296
q49 18 41 -39l-34 -221zM1893 1710l-21 -104l-831 -288l40 141l785 277q34 12 27 -26z" />
    <glyph glyph-name="afii57514" unicode="&#x6ba;" horiz-adv-x="1406" 
d="M1091 -281q-159 -118 -410 -118q-313 0 -456 155q-166 179 -128 488q17 141 102 331l139 -39q-109 -359 10 -506q105 -129 339 -128q298 2 413 180q41 64 21 133q-38 136 -124 281l142 210q20 30 47 -13q152 -243 141 -529q-10 -277 -236 -445z" />
    <glyph glyph-name="uni06BE" unicode="&#x6be;" horiz-adv-x="1257" 
d="M659 428q190 -69 259 -75q134 198 -141 320l-14 6q-2 -140 -104 -251zM508 175q-207 -175 -460 -175h-60v324h292q-84 30 -115 71q-52 69 -19 221q43 190 188 284l17 11l-144 61l78 235l398 -193q558 -270 441 -647q-5 -18 -12 -36q-88 -227 -169 -232q-161 -10 -435 76z
M523 479q71 40 92 121q21 80 3 123q-16 38 -76 59q-112 40 -203 -96q-97 -142 184 -207z" />
    <glyph glyph-name="uni06C1" unicode="&#x6c1;" horiz-adv-x="992" 
d="M249 384q96 142 180 205q106 80 226 67q144 -15 159 -259q2 -34 31 -54q26 -18 81 -18h107v-325h-130q-233 0 -288 160q-17 49 -26 189q-3 49 -37 24q-27 -20 -61 -63q-63 -81 -127 -207q-106 -202 -114 -226l-194 101q99 268 193 406z" />
    <glyph glyph-name="uni06CA" unicode="&#x6ca;" horiz-adv-x="864" 
d="M265 1353l170 -171l-170 -170l-171 170zM608 1353l170 -171l-170 -170l-170 170zM722 -146q-99 -296 -477 -445q-24 -10 -37 8q-142 200 -143 203q-14 28 20 41q393 150 456 337l-82 -1q-206 -1 -290 98q-104 122 -22 407q46 158 124 231q63 58 155 60q179 5 270 -196
q79 -174 78 -425q0 -162 -52 -318zM588 320q-57 230 -213 206q-62 -10 -87 -83q-35 -107 94 -121q69 -8 125 -5z" />
    <glyph glyph-name="uni06CC" unicode="&#x6cc;" horiz-adv-x="1523" 
d="M699 -503q-317 -3 -475 162q-128 134 -129 356q-2 248 112 454l138 -36q-104 -309 -37 -452q84 -180 411 -182q332 -2 481 190q22 28 -6 33l-196 36q-125 21 -178 34q-85 22 -94 96q-10 86 30 235q78 288 293 389q184 86 403 14q-22 -212 -41 -290l-54 6
q-312 30 -431 -153l-11 -17l321 -58q151 -27 164 -172q19 -221 -139 -403q-208 -239 -562 -242z" />
    <glyph glyph-name="afii57534" unicode="&#x6d5;" horiz-adv-x="893" 
d="M377 630q-155 -206 -98 -271q42 -49 170 -48q168 0 190 95q10 41 -20 85q-32 47 -116 87q-5 1 -93 39q-12 5 -33 13zM814 448q8 -207 -97 -327q-104 -119 -271 -115q-174 4 -262 100q-91 99 -92 289q-1 204 228 491q32 40 75 25q268 -97 374 -307q43 -84 45 -156z" />
    <glyph glyph-name="uni06F0" unicode="&#x6f0;" horiz-adv-x="973" 
d="M491 895l267 -268l-273 -273l-267 268z" />
    <glyph glyph-name="uni06F1" unicode="&#x6f1;" horiz-adv-x="835" 
d="M631 301q3 -202 -9 -255q-5 -17 -30 -22q-24 -5 -151 -26l-1 14q-35 560 -307 1309l184 163q18 15 22 14q13 -4 20 -23q264 -758 272 -1174z" />
    <glyph glyph-name="uni06F2" unicode="&#x6f2;" horiz-adv-x="1175" 
d="M416 -2q-36 579 -307 1327l184 162q27 23 39 -4q6 -14 19 -54t48 -129q62 -155 260 -153q235 4 270 297l5 38l153 -20l-2 -28q-23 -617 -415 -628q-72 -2 -152 6q112 -544 78 -768q-2 -14 -24 -19t-156 -27z" />
    <glyph glyph-name="uni06F3" unicode="&#x6f3;" horiz-adv-x="1364" 
d="M417 -2q-35 578 -308 1327l184 162q23 20 31 8q10 -15 15 -32q36 -113 57 -162q66 -157 184 -156q15 0 32 2q94 9 109 150l15 143l154 -6l5 -146q5 -154 119 -153q62 0 83 83q17 63 24 179l4 68l152 -7l1 -57q10 -577 -283 -578q-132 -1 -208 144q-58 -164 -270 -149
q114 -561 80 -774q-2 -15 -24 -19q-22 -5 -156 -27z" />
    <glyph glyph-name="uni06F4" unicode="&#x6f4;" horiz-adv-x="1228" 
d="M411 8q-33 565 -309 1312l185 162q31 27 42 -8l28 -92q54 -177 162 -256l29 -22q-16 42 7 159q17 88 81 157q83 89 217 88q154 0 263 -132l-49 -113q-213 83 -321 -32q-44 -47 -48 -132q-3 -40 48 -66q159 -80 377 18l29 -186q-138 -92 -299 -91q-222 0 -344 78
q129 -543 80 -797q-3 -16 -25 -20q-21 -4 -153 -27z" />
    <glyph glyph-name="uni06F5" unicode="&#x6f5;" horiz-adv-x="1290" 
d="M681 561q62 -269 234 -259q4 0 9 1q101 20 76 156q-40 227 -405 608q-274 -397 -316 -628q-26 -141 109 -140q144 2 208 263zM366 9q-265 0 -269 313q-4 346 373 918l-42 49l125 194q14 21 37 -2q597 -617 597 -1101q-1 -371 -268 -370q-179 1 -265 165l-10 19l-9 -20
q-76 -165 -269 -165z" />
    <glyph glyph-name="uni06F6" unicode="&#x6f6;" horiz-adv-x="1074" 
d="M438 681q-316 57 -316 386q0 80 35 163q122 288 397 288q157 0 289 -117l-57 -157q-146 39 -207 39q-160 0 -240 -101q-77 -96 -31 -163q83 -120 370 -121h4q132 78 267 138q37 17 33 -42l-15 -209q-180 -102 -441 -408q-187 -219 -293 -386l-109 103q-26 23 -1 70
q136 260 334 514z" />
    <glyph glyph-name="uni06F7" unicode="&#x6f7;" horiz-adv-x="1376" 
d="M1110 1482l199 -178q-389 -779 -519 -1307h-194q-167 642 -530 1307l178 178q16 17 28 8l6 -6q3 -2 5 -6q191 -329 388 -1019l10 -38l10 39q140 555 379 1013q11 21 21 20l4 -2t5 -1l4 -2q1 -2 3 -3z" />
    <glyph glyph-name="uni06F8" unicode="&#x6f8;" horiz-adv-x="1376" 
d="M1110 8l-3 -3q-2 -1 -3 -3l-4 -2q-3 0 -5 -1l-4 -2q-10 -1 -21 20q-239 458 -379 1013l-10 39l-10 -38q-197 -690 -388 -1019q-2 -4 -5 -6l-6 -6q-12 -9 -28 8l-178 178q363 665 530 1307h194q130 -528 519 -1307z" />
    <glyph glyph-name="uni06F9" unicode="&#x6f9;" horiz-adv-x="1097" 
d="M642 664q-299 -44 -433 45q-115 77 -111 260q5 272 110 419q93 132 229 142q156 11 264 -111q124 -141 129 -424q14 -617 182 -781l-180 -214q-187 192 -190 664zM354 939q91 -31 277 5l-6 54q-27 276 -179 274q-105 -2 -139 -148q-37 -157 47 -185z" />
    <glyph glyph-name="uni2000" unicode="&#x2000;" horiz-adv-x="1024" 
 />
    <glyph glyph-name="uni2001" unicode="&#x2001;" horiz-adv-x="2048" 
 />
    <glyph glyph-name="uni2002" unicode="&#x2002;" horiz-adv-x="1024" 
 />
    <glyph glyph-name="uni2003" unicode="&#x2003;" horiz-adv-x="2048" 
 />
    <glyph glyph-name="uni2004" unicode="&#x2004;" horiz-adv-x="682" 
 />
    <glyph glyph-name="uni2005" unicode="&#x2005;" horiz-adv-x="512" 
 />
    <glyph glyph-name="uni2006" unicode="&#x2006;" horiz-adv-x="342" 
 />
    <glyph glyph-name="uni2007" unicode="&#x2007;" horiz-adv-x="1145" 
 />
    <glyph glyph-name="uni2008" unicode="&#x2008;" horiz-adv-x="584" 
 />
    <glyph glyph-name="uni2009" unicode="&#x2009;" horiz-adv-x="410" 
 />
    <glyph glyph-name="uni200A" unicode="&#x200a;" horiz-adv-x="205" 
 />
    <glyph glyph-name="uni200B" unicode="&#x200b;" 
 />
    <glyph glyph-name="afii61664" unicode="&#x200c;" 
 />
    <glyph glyph-name="afii301" unicode="&#x200d;" 
 />
    <glyph glyph-name="endash" unicode="&#x2013;" horiz-adv-x="1024" 
d="M82 436v230h860v-230h-860z" />
    <glyph glyph-name="emdash" unicode="&#x2014;" horiz-adv-x="2048" 
d="M82 436v230h1884v-230h-1884z" />
    <glyph glyph-name="afii00208" unicode="&#x2015;" horiz-adv-x="2048" 
d="M82 436v230h1884v-230h-1884z" />
    <glyph glyph-name="underscoredbl" unicode="&#x2017;" horiz-adv-x="842" 
d="M846 -463h-850v139h850v-139zM846 -184h-850v139h850v-139z" />
    <glyph glyph-name="quoteleft" unicode="&#x2018;" horiz-adv-x="444" 
d="M39 961l-14 22q22 91 72.5 228.5t103.5 250.5h219q-66 -267 -101 -501h-280z" />
    <glyph glyph-name="quoteright" unicode="&#x2019;" horiz-adv-x="444" 
d="M406 1462l14 -22q-50 -197 -176 -479h-219q69 296 100 501h281z" />
    <glyph glyph-name="quotesinglbase" unicode="&#x201a;" horiz-adv-x="596" 
d="M459 215q-52 -202 -176 -479h-220q65 266 101 502h280z" />
    <glyph glyph-name="quotereversed" unicode="&#x201b;" horiz-adv-x="442" 
d="M319 1462q37 -245 101 -501h-219q-59 127 -107.5 260.5t-68.5 218.5l14 22h280z" />
    <glyph glyph-name="quotedblleft" unicode="&#x201c;" horiz-adv-x="911" 
d="M492 983q22 91 72.5 228.5t103.5 250.5h219q-66 -267 -101 -501h-280zM25 983q22 91 72.5 228.5t103.5 250.5h219q-66 -267 -101 -501h-280z" />
    <glyph glyph-name="quotedblright" unicode="&#x201d;" horiz-adv-x="911" 
d="M420 1440q-50 -197 -176 -479h-219q69 296 100 501h281zM887 1440q-50 -197 -176 -479h-219q69 296 100 501h280z" />
    <glyph glyph-name="quotedblbase" unicode="&#x201e;" horiz-adv-x="1061" 
d="M459 215q-52 -202 -176 -479h-220q65 266 101 502h280zM926 215q-52 -202 -176 -479h-220q65 266 101 502h280z" />
    <glyph glyph-name="dagger" unicode="&#x2020;" horiz-adv-x="1057" 
d="M934 928l-332 30l55 -958h-278l55 958l-311 -30v241l311 -30l-55 417h278l-55 -417l332 30v-241z" />
    <glyph glyph-name="daggerdbl" unicode="&#x2021;" horiz-adv-x="1077" 
d="M623 557l331 31v-242l-331 31l55 -377h-279l56 377l-332 -31v242l332 -31l-47 229l47 213l-332 -30v241l332 -30l-56 376h279l-55 -376l331 30v-241l-331 30l47 -213z" />
    <glyph glyph-name="bullet" unicode="&#x2022;" horiz-adv-x="770" 
d="M98 748q0 154 74 235.5t213 81.5q137 0 212 -82t75 -235q0 -152 -75.5 -235t-211.5 -83q-138 0 -212.5 83t-74.5 235z" />
    <glyph glyph-name="ellipsis" unicode="&#x2026;" horiz-adv-x="1751" 
d="M117 143q0 84 45 127t131 43q83 0 128.5 -44t45.5 -126q0 -79 -46 -124.5t-128 -45.5q-84 0 -130 44.5t-46 125.5zM700 143q0 84 45 127t132 43q83 0 128.5 -44t45.5 -126q0 -79 -46 -124.5t-128 -45.5q-85 0 -131 44.5t-46 125.5zM1284 143q0 84 45 127t131 43
q83 0 128.5 -44t45.5 -126q0 -79 -46 -124.5t-128 -45.5q-84 0 -130 44.5t-46 125.5z" />
    <glyph glyph-name="uni202F" unicode="&#x202f;" horiz-adv-x="148" 
 />
    <glyph glyph-name="perthousand" unicode="&#x2030;" horiz-adv-x="2623" 
d="M315 1024q0 -127 22.5 -189.5t72.5 -62.5q96 0 96 252q0 250 -96 250q-50 0 -72.5 -61.5t-22.5 -188.5zM758 1026q0 -230 -89 -345.5t-261 -115.5q-165 0 -255 118.5t-90 342.5q0 457 345 457q169 0 259.5 -118.5t90.5 -338.5zM1446 1462l-811 -1462h-240l811 1462h240z
M1339 440q0 -127 22.5 -189.5t72.5 -62.5q96 0 96 252q0 250 -96 250q-50 0 -72.5 -61.5t-22.5 -188.5zM1782 442q0 -229 -89 -344.5t-261 -115.5q-165 0 -255 118.5t-90 341.5q0 457 345 457q169 0 259.5 -118.5t90.5 -338.5zM2118 440q0 -127 22 -189.5t72 -62.5
q96 0 96 252q0 250 -96 250q-50 0 -72 -61.5t-22 -188.5zM2560 442q0 -228 -88 -344t-262 -116q-164 0 -254 118.5t-90 341.5q0 457 344 457q169 0 259.5 -118.5t90.5 -338.5zM1845 0z" />
    <glyph glyph-name="minute" unicode="&#x2032;" horiz-adv-x="545" 
d="M412 1462l-41 -528h-197l-41 528h279z" />
    <glyph glyph-name="second" unicode="&#x2033;" horiz-adv-x="967" 
d="M412 1462l-41 -528h-197l-41 528h279zM834 1462l-41 -528h-197l-41 528h279z" />
    <glyph glyph-name="guilsinglleft" unicode="&#x2039;" horiz-adv-x="754" 
d="M82 573l371 455l219 -119l-279 -348l279 -348l-219 -119l-371 453v26z" />
    <glyph glyph-name="guilsinglright" unicode="&#x203a;" horiz-adv-x="754" 
d="M672 547l-371 -453l-219 119l278 348l-278 348l219 119l371 -455v-26z" />
    <glyph glyph-name="exclamdbl" unicode="&#x203c;" horiz-adv-x="1167" 
d="M416 485h-244l-51 977h346zM117 143q0 84 45 127t131 43q83 0 128.5 -44t45.5 -126q0 -79 -46 -124.5t-128 -45.5q-84 0 -130 44.5t-46 125.5zM1000 485h-244l-51 977h346zM701 143q0 84 45 127t131 43q83 0 128.5 -44t45.5 -126q0 -79 -46 -124.5t-128 -45.5
q-84 0 -130 44.5t-46 125.5z" />
    <glyph glyph-name="fraction" unicode="&#x2044;" horiz-adv-x="266" 
d="M657 1462l-811 -1462h-239l811 1462h239z" />
    <glyph glyph-name="zerosuperior" unicode="&#x2070;" horiz-adv-x="776" 
d="M293 1024q0 -127 22.5 -189.5t71.5 -62.5q50 0 73 62t23 190q0 127 -23 188.5t-73 61.5q-49 0 -71.5 -61.5t-22.5 -188.5zM735 1026q0 -461 -350 -461q-164 0 -254 118.5t-90 342.5q0 457 344 457q169 0 259.5 -118.5t90.5 -338.5z" />
    <glyph glyph-name="foursuperior" unicode="&#x2074;" horiz-adv-x="776" 
d="M758 737h-125v-151h-238v151h-383v154l385 577h236v-563h125v-168zM395 905v164q0 86 6 184q-9 -26 -35.5 -80t-41.5 -77l-127 -191h198z" />
    <glyph glyph-name="fivesuperior" unicode="&#x2075;" horiz-adv-x="776" 
d="M397 1151q143 0 230.5 -74.5t87.5 -202.5q0 -145 -95 -225t-278 -80q-158 0 -258 52v192q50 -32 116.5 -53t121.5 -21q172 0 172 131q0 63 -43.5 95t-124.5 32q-63 0 -119 -18l-109 43l37 440h520v-184h-356l-16 -135q56 8 114 8z" />
    <glyph glyph-name="sixsuperior" unicode="&#x2076;" horiz-adv-x="776" 
d="M729 877q0 -144 -87.5 -228t-242.5 -84q-158 0 -256 95.5t-98 252.5q0 418 547 582l67 -162q-175 -53 -266 -119t-117 -153h11q31 43 75.5 66.5t118.5 23.5q116 0 182 -70t66 -204zM385 743q59 0 90 35.5t31 98.5q0 54 -30 88t-87 34q-129 0 -129 -106q0 -66 34 -108
t91 -42z" />
    <glyph glyph-name="sevensuperior" unicode="&#x2077;" horiz-adv-x="776" 
d="M154 586l340 692h-435v184h668v-149l-321 -727h-252z" />
    <glyph glyph-name="eightsuperior" unicode="&#x2078;" horiz-adv-x="776" 
d="M389 1483q141 0 225 -60.5t84 -165.5q0 -63 -33.5 -113t-109.5 -93q75 -42 108 -72.5t50.5 -67t17.5 -80.5q0 -117 -95.5 -191.5t-246.5 -74.5q-161 0 -252.5 70t-91.5 190q0 65 35.5 118t122.5 99q-127 89 -127 215q0 104 87 165t226 61zM270 825q0 -45 29 -73.5
t86 -28.5q59 0 89 28.5t30 73.5q0 81 -133 125q-101 -44 -101 -125zM387 1325q-43 0 -65.5 -23.5t-22.5 -52.5q0 -41 26 -66t64 -46q38 19 63 44t25 68q0 29 -21 52.5t-69 23.5z" />
    <glyph glyph-name="ninesuperior" unicode="&#x2079;" horiz-adv-x="776" 
d="M725 1075q0 -254 -123 -380t-354 -126q-73 0 -127 15v188q49 -22 100 -22q140 0 209.5 56t77.5 187h-8q-71 -98 -197 -98q-122 0 -191 74t-69 205q0 137 91 222t239 85q164 0 258 -106.5t94 -299.5zM385 1303q-53 0 -86 -35.5t-33 -100.5q0 -55 28 -87.5t87 -32.5
q55 0 90 31.5t35 74.5q0 67 -34 108.5t-87 41.5z" />
    <glyph glyph-name="nsuperior" unicode="&#x207f;" horiz-adv-x="866" 
d="M580 764v401q0 76 -30 108t-87 32q-90 0 -126 -48t-36 -161v-332h-199v698h162l27 -84h14q73 101 215 101q258 0 258 -250v-465h-198z" />
    <glyph glyph-name="franc" unicode="&#x20a3;" horiz-adv-x="1169" 
d="M489 440h316v-178h-316v-262h-305v262h-149v178h149v1022h879v-254h-574v-336h537v-254h-537v-178z" />
    <glyph glyph-name="afii08941" unicode="&#x20a4;" horiz-adv-x="1169" 
d="M705 1483q190 0 385 -82l-93 -230q-78 29 -143.5 46.5t-134.5 17.5q-80 0 -118 -43t-38 -129v-113h359v-176h-359v-115h359v-178h-361q-5 -74 -40 -128t-109 -93h718v-260h-1048v248q100 42 137.5 95t42.5 138h-178v178h178v115h-178v176h178v115q0 206 114 312t329 106z
" />
    <glyph glyph-name="peseta" unicode="&#x20a7;" horiz-adv-x="1827" 
d="M473 774h66q139 0 209.5 52t70.5 169q0 109 -63 161t-199 52h-84v-434zM1112 1006q0 -236 -152.5 -361t-433.5 -125h-53v-520h-289v1462h373q272 0 413.5 -114.5t141.5 -341.5zM1608 203q78 0 161 35v-207q-97 -51 -235 -51q-163 0 -238 83t-75 256v318h-146v108l168 103
l88 235h154v-237h272v-209h-272v-307q0 -60 36 -93.5t87 -33.5z" />
    <glyph glyph-name="uni20AB" unicode="&#x20ab;" horiz-adv-x="1329" 
d="M504 -20q-192 0 -302 144t-110 402q0 282 99 416.5t323 134.5q108 0 192.5 -42t137.5 -122h10q-23 131 -23 232v51h-315v199h315v161h306v-161h155v-199h-155v-1196h-248l-64 145h-12q-104 -165 -309 -165zM633 223q110 0 162.5 61.5t56.5 211.5v28q0 176 -50.5 240.5
t-183.5 64.5q-111 0 -152.5 -69t-41.5 -238q0 -149 50 -224t159 -75zM1063 -324h-850v140h850v-140z" />
    <glyph glyph-name="Euro" unicode="&#x20ac;" horiz-adv-x="1169" 
d="M803 1225q-122 0 -201 -70.5t-102 -204.5h403v-176h-418l-2 -35v-47l2 -33h355v-178h-338q51 -243 321 -243q143 0 275 57v-256q-116 -59 -293 -59q-245 0 -403 133t-199 368h-137v178h118q-4 23 -4 62l2 53h-116v176h133q37 242 199 382.5t405 140.5q188 0 352 -82
l-98 -232q-69 31 -129 48.5t-125 17.5z" />
    <glyph glyph-name="afii61248" unicode="&#x2105;" horiz-adv-x="1628" 
d="M1311 1462l-811 -1462h-240l811 1462h240zM1565 344q0 -172 -90.5 -268t-247.5 -96q-149 0 -240.5 98t-91.5 266q0 170 89 266.5t249 96.5q150 0 241 -99.5t91 -263.5zM1098 344q0 -100 31 -150.5t102 -50.5q68 0 98.5 50.5t30.5 150.5t-30.5 149.5t-98.5 49.5
q-71 0 -102 -49.5t-31 -149.5zM420 756q-167 0 -262 92t-95 262q0 178 91 270.5t264 92.5q117 0 217 -50l-55 -155q-102 41 -166 41q-73 0 -109.5 -51t-36.5 -146q0 -190 140 -190q116 0 206 43v-164q-79 -45 -194 -45z" />
    <glyph glyph-name="afii61289" unicode="&#x2113;" horiz-adv-x="1065" 
d="M641 190q60 0 98.5 49.5t44.5 151.5h207q-11 -220 -103 -314.5t-278 -94.5q-183 0 -285 103.5t-102 299.5v127l-182 -49v196q98 26 182 54v411q0 184 94 270.5t291 86.5q163 0 258 -87t95 -237q0 -180 -101.5 -308.5t-343.5 -240.5v-233q0 -185 125 -185zM698 1151
q0 139 -90 139q-53 0 -72.5 -38t-19.5 -101v-328q88 39 135 123t47 205z" />
    <glyph glyph-name="afii61352" unicode="&#x2116;" horiz-adv-x="2105" 
d="M1231 0h-328l-510 1047h-14q24 -257 24 -418v-629h-268v1462h330l506 -1040h18q-24 233 -24 403v637h266v-1462zM1370 0v188h639v-188h-639zM2030 639q0 -171 -92 -268t-250 -97q-154 0 -246 99t-92 266q0 168 90 265t252 97q154 0 246 -99.5t92 -262.5zM1552 639
q0 -100 32.5 -150.5t105.5 -50.5q71 0 103 50.5t32 150.5t-32 149.5t-103 49.5q-73 0 -105.5 -49.5t-32.5 -149.5z" />
    <glyph glyph-name="uni2120" unicode="&#x2120;" horiz-adv-x="1505" 
d="M537 946q0 -100 -69.5 -156.5t-186.5 -56.5q-111 0 -199 43v144q115 -54 203 -54q45 0 68.5 19.5t23.5 54.5q0 27 -17.5 46t-54.5 37q-108 53 -144 83t-55.5 69t-19.5 91q0 93 64 150t178 57q95 0 207 -52l-52 -125q-56 27 -86 35t-69 8q-37 0 -59.5 -16.5t-22.5 -50.5
q0 -31 21 -53t95 -58q105 -51 140 -97.5t35 -117.5zM928 741l-166 529h-6l4 -111v-418h-164v721h248l160 -510l170 510h239v-721h-168v408l4 121h-6l-174 -529h-141z" />
    <glyph glyph-name="trademark" unicode="&#x2122;" horiz-adv-x="1534" 
d="M381 741h-168v572h-197v149h564v-149h-199v-572zM956 741l-165 529h-7l4 -111v-418h-163v721h247l160 -510l170 510h240v-721h-168v408l4 121h-6l-174 -529h-142z" />
    <glyph glyph-name="Omega" unicode="&#x2126;" horiz-adv-x="1610" 
d="M805 1227q-181 0 -279 -110t-98 -310q0 -203 66 -329.5t200 -198.5v-279h-639v260h371q-152 93 -234.5 253.5t-82.5 358.5q0 184 85.5 323.5t243.5 214.5t367 75q319 0 507.5 -167t188.5 -448q0 -198 -83 -356t-238 -254h374v-260h-643v279q139 72 205 201t66 329
q0 199 -98.5 308.5t-278.5 109.5z" />
    <glyph glyph-name="estimated" unicode="&#x212e;" horiz-adv-x="1268" 
d="M633 -35q-157 0 -277.5 73.5t-187 204t-66.5 287.5q0 171 69 298.5t191 197.5t271 70q152 0 273.5 -71t189 -200.5t67.5 -294.5h-827v-356q49 -53 132 -88t165 -35q131 0 222.5 52.5t172.5 181.5l72 -41q-98 -155 -206.5 -217t-260.5 -62zM932 616v277q-50 53 -131.5 86
t-169.5 33q-173 0 -295 -117v-279h596z" />
    <glyph glyph-name="oneeighth" unicode="&#x215b;" horiz-adv-x="1804" 
d="M1347 1462l-811 -1462h-239l811 1462h239zM1368 894q141 0 225 -60.5t84 -165.5q0 -63 -33.5 -113t-109.5 -93q75 -42 108 -72.5t50.5 -67t17.5 -80.5q0 -117 -95.5 -191.5t-246.5 -74.5q-161 0 -252.5 70t-91.5 190q0 65 35.5 118t122.5 99q-127 89 -127 215
q0 104 87 165t226 61zM1249 236q0 -45 29 -73.5t86 -28.5q59 0 89 28.5t30 73.5q0 81 -133 125q-101 -44 -101 -125zM1366 736q-43 0 -65.5 -23.5t-22.5 -52.5q0 -41 26 -66t64 -46q38 19 63 44t25 68q0 29 -21 52.5t-69 23.5zM550 586h-238v446l3 112l5 95q-27 -36 -75 -78
l-78 -61l-109 127l301 235h191v-876z" />
    <glyph glyph-name="threeeighths" unicode="&#x215c;" horiz-adv-x="1804" 
d="M1417 1462l-811 -1462h-239l811 1462h239zM1403 894q141 0 225 -60.5t84 -165.5q0 -63 -33.5 -113t-109.5 -93q75 -42 108 -72.5t50.5 -67t17.5 -80.5q0 -117 -95.5 -191.5t-246.5 -74.5q-161 0 -252.5 70t-91.5 190q0 65 35.5 118t122.5 99q-127 89 -127 215
q0 104 87 165t226 61zM1284 236q0 -45 29 -73.5t86 -28.5q59 0 89 28.5t30 73.5q0 81 -133 125q-101 -44 -101 -125zM1401 736q-43 0 -65.5 -23.5t-22.5 -52.5q0 -41 26 -66t64 -46q38 19 63 44t25 68q0 29 -21 52.5t-69 23.5zM666 1249q0 -143 -170 -198v-13
q94 -20 146 -75t52 -134q0 -121 -88 -190.5t-274 -69.5q-143 0 -273 70v190q148 -90 271 -90q143 0 143 107q0 53 -44 79.5t-122 26.5h-112v160h92q83 0 123.5 26t40.5 83q0 38 -25 63t-76 25q-47 0 -89 -19t-99 -59l-101 141q62 47 137.5 78t178.5 31q127 0 208 -64
t81 -168z" />
    <glyph glyph-name="fiveeighths" unicode="&#x215d;" horiz-adv-x="1804" 
d="M1417 1462l-811 -1462h-239l811 1462h239zM1403 894q141 0 225 -60.5t84 -165.5q0 -63 -33.5 -113t-109.5 -93q75 -42 108 -72.5t50.5 -67t17.5 -80.5q0 -117 -95.5 -191.5t-246.5 -74.5q-161 0 -252.5 70t-91.5 190q0 65 35.5 118t122.5 99q-127 89 -127 215
q0 104 87 165t226 61zM1284 236q0 -45 29 -73.5t86 -28.5q59 0 89 28.5t30 73.5q0 81 -133 125q-101 -44 -101 -125zM1401 736q-43 0 -65.5 -23.5t-22.5 -52.5q0 -41 26 -66t64 -46q38 19 63 44t25 68q0 29 -21 52.5t-69 23.5zM403 1151q143 0 230.5 -74.5t87.5 -202.5
q0 -145 -95 -225t-278 -80q-158 0 -258 52v192q50 -32 116.5 -53t121.5 -21q172 0 172 131q0 63 -43.5 95t-124.5 32q-63 0 -119 -18l-109 43l37 440h520v-184h-356l-16 -135q56 8 114 8z" />
    <glyph glyph-name="seveneighths" unicode="&#x215e;" horiz-adv-x="1804" 
d="M1327 1462l-811 -1462h-239l811 1462h239zM1347 894q141 0 225 -60.5t84 -165.5q0 -63 -33.5 -113t-109.5 -93q75 -42 108 -72.5t50.5 -67t17.5 -80.5q0 -117 -95.5 -191.5t-246.5 -74.5q-161 0 -252.5 70t-91.5 190q0 65 35.5 118t122.5 99q-127 89 -127 215
q0 104 87 165t226 61zM1228 236q0 -45 29 -73.5t86 -28.5q59 0 89 28.5t30 73.5q0 81 -133 125q-101 -44 -101 -125zM1345 736q-43 0 -65.5 -23.5t-22.5 -52.5q0 -41 26 -66t64 -46q38 19 63 44t25 68q0 29 -21 52.5t-69 23.5zM162 586l340 692h-435v184h668v-149l-321 -727
h-252z" />
    <glyph glyph-name="partialdiff" unicode="&#x2202;" horiz-adv-x="1190" 
d="M1122 920q0 -260 -86.5 -484t-232.5 -340t-334 -116q-199 0 -304.5 106t-105.5 313q0 174 74.5 329t199 232.5t283.5 77.5q105 0 189 -41q-23 236 -201 236q-54 0 -130.5 -27t-162.5 -84v271q170 90 336 90q234 0 354.5 -145t120.5 -418zM481 223q103 0 187 138t116 346
q-14 52 -53 78t-92 26q-70 0 -127.5 -54t-94 -162t-36.5 -220q0 -152 100 -152z" />
    <glyph glyph-name="Delta" unicode="&#x2206;" horiz-adv-x="1348" 
d="M57 178l443 1290h350l440 -1292v-176h-1233v178zM674 1214q-2 -15 -12.5 -58.5t-30.5 -112.5t-258 -785h602l-252 768l-11 39q-36 129 -38 149z" />
    <glyph glyph-name="product" unicode="&#x220f;" horiz-adv-x="1518" 
d="M1034 -457v1661h-551v-1661h-317v1919h1186v-1919h-318z" />
    <glyph glyph-name="summation" unicode="&#x2211;" horiz-adv-x="1292" 
d="M41 -457v170l575 834l-559 749v166h1166v-252h-756l494 -657l-519 -756h840v-254h-1241z" />
    <glyph glyph-name="minus" unicode="&#x2212;" horiz-adv-x="1169" 
d="M88 612v219h993v-219h-993z" />
    <glyph glyph-name="radical" unicode="&#x221a;" horiz-adv-x="1124" 
d="M664 -14h-183l-268 737h-176v213h325l205 -567l490 1388h219z" />
    <glyph glyph-name="infinity" unicode="&#x221e;" horiz-adv-x="1448" 
d="M1335 717q0 -142 -91 -240t-226 -98q-176 0 -299 176q-59 -77 -132.5 -123.5t-152.5 -46.5q-141 0 -231 92t-90 246q0 144 90.5 240t230.5 96q176 0 291 -174q125 170 293 170q140 0 228.5 -92.5t88.5 -245.5zM444 588q88 0 166 135q-38 68 -78 101.5t-90 33.5
q-56 0 -90.5 -38.5t-34.5 -98.5t34.5 -96.5t92.5 -36.5zM1004 852q-87 0 -168 -133q80 -137 170 -137q56 0 90 40t34 97q0 58 -35 95.5t-91 37.5z" />
    <glyph glyph-name="integral" unicode="&#x222b;" horiz-adv-x="844" 
d="M686 1300q-51 0 -81 -36t-30 -101v-1276q0 -187 -98 -283t-282 -96q-109 0 -195 41v254q91 -39 158 -39q110 0 110 142v1272q0 185 97 281.5t284 96.5q109 0 195 -40v-254q-89 38 -158 38z" />
    <glyph glyph-name="approxequal" unicode="&#x2248;" horiz-adv-x="1169" 
d="M322 869q-55 0 -117.5 -33.5t-116.5 -87.5v231q103 109 256 109q73 0 137.5 -16t139.5 -48q129 -55 227 -55q53 0 116 32t117 89v-231q-101 -109 -256 -109q-66 0 -126 13t-150 50q-131 56 -227 56zM322 470q-55 0 -117.5 -33.5t-116.5 -87.5v231q103 109 256 109
q73 0 137.5 -16t139.5 -48q129 -55 227 -55q53 0 116 32t117 89v-231q-101 -109 -256 -109q-66 0 -126 13t-150 50q-131 56 -227 56z" />
    <glyph glyph-name="notequal" unicode="&#x2260;" horiz-adv-x="1169" 
d="M561 418l-127 -275l-201 84l89 191h-234v219h336l80 170h-416v217h516l131 281l201 -86l-92 -195h237v-217h-338l-79 -170h417v-219h-520z" />
    <glyph glyph-name="lessequal" unicode="&#x2264;" horiz-adv-x="1169" 
d="M86 0v219h993v-219h-993zM1081 264l-993 438v144l993 495v-239l-684 -318l684 -280v-240z" />
    <glyph glyph-name="greaterequal" unicode="&#x2265;" horiz-adv-x="1169" 
d="M88 0v219h993v-219h-993zM88 504l684 280l-684 318v239l993 -495v-144l-993 -438v240z" />
    <glyph glyph-name="null" unicode="&#x2400;" 
 />
    <glyph glyph-name="lozenge" unicode="&#x25ca;" horiz-adv-x="1194" 
d="M1104 735l-451 -735h-114l-451 735l451 738h114zM840 735l-244 410l-244 -410l244 -409z" />
    <glyph glyph-name="uniFD3E" unicode="&#xfd3e;" horiz-adv-x="1478" 
d="M772 725q-69 0 -69 -64q0 -42 39 -58q11 -5 24 -5q64 0 64 74q0 23 -21.5 38t-36.5 15zM864 832q99 -57 99 -183q0 -69 -57.5 -126.5t-139 -57.5t-139 57.5t-57.5 139t57.5 139t125 57.5t111.5 -26zM721 197q54 -241 216 -413l42 -44l-24 56q-88 200 -122 399
q-5 34 19 58l42 41q19 20 47 20h180v711h-180q-28 0 -47 20l-45 44q-24 25 -19 58q40 245 138 461l25 54l-42 -42q-177 -179 -241 -486q-4 -21 -18 -35l-54 -54q-19 -20 -47 -20h-181v-180q0 -28 -20 -48l-127 -127l127 -128q20 -20 20 -47v-181h181q28 0 47 -20l65 -65
q14 -14 18 -32zM595 149l-32 32h-220q-23 -1 -45 19q-21 18 -21 47v220l-156 156q-47 46 0 94l156 155v220q-1 24 19 45q19 22 47 22h220l20 20q120 593 614 736q47 14 67 -33q10 -25 0 -78q-71 -64 -108 -127t-54 -99q-95 -195 -135 -419h221q35 -1 51 -24q16 -24 16 -43
v-845q-1 -23 -19 -45q-19 -21 -48 -21h-217q82 -422 287 -588q66 -53 -56 -117q-480 141 -607 673z" />
    <glyph glyph-name="uniFD3F" unicode="&#xfd3f;" horiz-adv-x="1489" 
d="M661 653q0 -18 18.5 -36.5t44.5 -18.5q64 0 64 63q0 43 -39 59q-11 5 -24.5 5t-21.5 -4q-42 -17 -42 -68zM528 661.5q0 81.5 57.5 139t150.5 57.5t152 -88q33 -48 33 -119t-57.5 -128.5t-139 -57.5t-139 57.5t-57.5 139zM770 197q4 19 18 32l65 65q20 20 47 20h181v181
q0 27 19 47l128 128l-128 127q-19 20 -19 48v180h-181q-27 0 -47 20l-54 54q-15 15 -32 109q-18 95 -78 219q-41 84 -149 193l-42 42l25 -54q102 -226 138 -461q5 -34 -19 -58l-45 -44q-19 -20 -47 -20h-181v-711h181q28 0 47 -20l42 -41q24 -25 18 -58q-33 -198 -121 -399
l-24 -56l42 44q160 170 216 413zM896 149q-128 -532 -607 -673q-75 39 -75 82q-1 20 18 35q205 166 287 588h-216q-31 -1 -62 43q-5 6 -5 23v845q0 49 44 62q18 5 23 5h221q-80 448 -297 645q-17 87 28 110q17 9 38 1q494 -146 615 -736l20 -20h220q56 -1 64 -51
q2 -15 2 -16v-220l156 -155q26 -27 19 -54q-7 -28 -19 -40l-156 -156v-220q0 -30 -43 -62q-7 -4 -23 -4h-220z" />
    <glyph glyph-name="uniFE73" unicode="&#xfe73;" horiz-adv-x="895" 
d="M461 564q0 -13 1 -25.5t4 -25.5q5 -24 16 -48q22 -47 64 -90q43 -43 109 -64.5t154 -21.5h101v-259h-194q-228 0 -371 143.5t-143 369.5v48h259v-27z" />
    <glyph glyph-name="uniFEFF" unicode="&#xfeff;" 
 />
    <glyph glyph-name="uniFFFC" unicode="&#xfffc;" horiz-adv-x="2048" 
d="M84 1214v304h303v-111h-192v-193h-111zM1681 1407v111h304v-304h-109v193h-195zM84 -383v303h111v-194h192v-109h-303zM1681 -383v109h195v194h109v-303h-304zM1290 -383v109h273v-109h-273zM508 -383v109h270v-109h-270zM508 1407v111h270v-111h-270zM1985 39h-109v270
h109v-270zM1985 823h-109v271h109v-271zM899 -383v109h272v-109h-272zM195 39h-111v270h111v-270zM899 1407v111h272v-111h-272zM1290 1407v111h273v-111h-273zM195 430h-111v272h111v-272zM195 823h-111v271h111v-271zM1985 430h-109v272h109v-272zM864 629
q0 -145 -67.5 -223t-194.5 -78t-194.5 78t-67.5 223q0 146 67.5 223.5t194.5 77.5q126 0 194 -77t68 -224zM467 629q0 -197 135 -197t135 197q0 196 -135 196t-135 -196zM948 922h172q109 0 165 -33.5t56 -116.5q0 -49 -23 -83t-67 -42v-4q59 -13 83 -47t24 -90
q0 -81 -54.5 -125.5t-148.5 -44.5h-207v586zM1071 690h66q46 0 64 17t18 49q0 34 -21 48.5t-68 14.5h-59v-129zM1071 592v-154h74q49 0 67.5 21.5t18.5 58.5q0 74 -90 74h-70zM1491 330q-52 0 -80 10v102q43 -8 68 -8q86 0 86 86v402h125v-398q0 -95 -52.5 -144.5
t-146.5 -49.5z" />
    <glyph glyph-name="uniFFFD" unicode="&#xfffd;" horiz-adv-x="2048" 
d="M1022 1556l940 -938l-940 -937l-938 937zM1087 367v47q0 50 22 82.5t87 81.5q103 82 139.5 145t36.5 151q0 135 -93.5 212t-258.5 77q-79 0 -172 -28t-164 -70l82 -178q160 80 250 80q63 0 94 -29t31 -76q0 -53 -24.5 -90.5t-96.5 -91.5q-84 -68 -113.5 -124t-29.5 -130
v-59h210zM850 92q0 -63 35.5 -99t105.5 -36q66 0 102.5 36.5t36.5 98.5q0 64 -36 100.5t-103 36.5q-72 0 -106.5 -36t-34.5 -101z" />
    <glyph glyph-name="arabic_dot" horiz-adv-x="233" 
d="M116 305l178 -178l-178 -178l-178 178z" />
    <glyph glyph-name="arabic_2dots" horiz-adv-x="612" 
d="M134 293l170 -171l-170 -170l-171 170zM477 293l170 -171l-170 -170l-170 170z" />
    <glyph glyph-name="arabic_3dots" horiz-adv-x="590" 
d="M296 516l162 -162l-162 -162l-163 162zM282 98l-162 -163l-162 163l162 162zM309 98l163 162l162 -162l-162 -163z" />
    <glyph glyph-name="arabic_3dots_a" horiz-adv-x="636" 
d="M319 -282l-162 162l162 162l162 -162zM332 137l163 162l162 -162l-162 -163zM305 137l-162 -163l-162 163l162 162z" />
    <glyph glyph-name="arabic_gaf_bar" horiz-adv-x="788" 
d="M779 2040l-18 -92l-733 -254l36 124l692 244q30 11 23 -22z" />
    <glyph glyph-name="NameMe.303" horiz-adv-x="612" 
d="M249 617q-14 311 -56 742l218 138q59 38 60 -18l13 -886q4 -250 -58 -378q-105 -215 -415 -215h-22v324h28q178 0 218 64q22 35 14 229z" />
    <glyph glyph-name="NameMe.304" horiz-adv-x="708" 
d="M354 169q-101 -169 -334 -169h-31v324h19q146 0 195 44q60 54 54 251q-7 265 -23 532l202 122q55 32 55 -27v-604q0 -216 33 -264q38 -54 159 -54h37v-324h-48q-229 0 -318 169z" />
    <glyph glyph-name="NameMe.305" horiz-adv-x="555" 
d="M186.297 -5.5q-0.980469 975.561 -52.9199 1278.85l213.637 116.996q60.7578 34.1982 63.6982 -16.1992q11.7598 -210.592 11.7598 -431.982q0 -263.689 -10.7803 -543.578q-11.7598 -286.188 -48.998 -354.586q-34.2998 -62.0977 -176.396 -58.4971v8.99902z" />
    <glyph glyph-name="NameMe.306" horiz-adv-x="626" 
d="M423 1362q13 -246 -1 -639q-9 -264 43 -344q36 -55 160 -55h13v-324h-39q-187 0 -262 64q-149 129 -145 505q5 483 -45 676l225 135q48 29 51 -18z" />
    <glyph glyph-name="NameMe.65564" horiz-adv-x="678" 
d="M116 -17q58 -28 134 -27q147 1 207 71q10 11 -2 16q-41 16 -94 34q-128 43 -83 161q62 160 185 210q78 32 184 -1q-5 -57 -28 -151l-27 3q-117 9 -178 -75l107 -35q73 -25 72.5 -110t-49.5 -150q-95 -124 -295 -124q-106 0 -206 41l53 147z" />
    </font>
</defs>
</svg>
