<?xml version="1.0" standalone="no"?>
<!DOCTYPE svg PUBLIC "-//W3C//DTD SVG 1.1//EN" "http://www.w3.org/Graphics/SVG/1.1/DTD/svg11.dtd" >
<svg xmlns="http://www.w3.org/2000/svg" xmlns:xlink="http://www.w3.org/1999/xlink" version="1.1">
<metadata>
Created by FontForge 20161003 at Tue Aug 22 06:42:15 2017
 By www-data
Copyright (c) 2016 by Saber Rastikerdar. All Rights Reserved.
Based on DejaVu font.
Non-Arabic(latin) glyphs and data are imported from Open Sans font under the Apache License, Version 2.0.
</metadata>
<defs>
<font id="Sahel" horiz-adv-x="1171" >
  <font-face 
    font-family="Sahel"
    font-weight="400"
    font-stretch="normal"
    units-per-em="2048"
    panose-1="2 11 6 3 3 8 4 2 2 4"
    ascent="1638"
    descent="-410"
    x-height="1096"
    cap-height="1462"
    bbox="-1051 -1000.5 3865.86 2789"
    underline-thickness="100"
    underline-position="-600"
    unicode-range="U+001D-FFFD"
  />
<missing-glyph horiz-adv-x="1229" 
d="M193 1462h841v-1462h-841v1462zM297 104h633v1254h-633v-1254z" />
    <glyph glyph-name="uni0622" unicode="&#x627;&#x653;" horiz-adv-x="609" 
d="M248.128 -12.8301q-10.8896 1165.68 -35.6396 1312.18l147.509 60.9688q25.7393 10.9189 27.7197 -25.4795q16.8301 -289.372 8.91016 -776.207q-8.91016 -491.386 -12.8701 -498.666q-36.6299 -71.8877 -135.629 -72.7979zM187 1547q-94 -8 -185 -88q-27 18 -43 39
q81 210 181 210q69 0 151 -10.5t117 -10.5q125 0 175 13q53 13 63 6q12 -13 -20 -60q-25 -36 -72 -70q-76 -54 -367 -29z" />
    <glyph glyph-name="uni0623" unicode="&#x627;&#x654;" horiz-adv-x="526" 
d="M207.128 -12.8301q-10.8896 1165.68 -35.6396 1312.18l147.509 60.9688q25.7393 10.9189 27.7197 -25.4795q16.8301 -289.372 8.91016 -776.207q-8.91016 -491.386 -12.8701 -498.666q-36.6299 -71.8877 -135.629 -72.7979zM62 1454l21 145q62 29 110 49
q-151 31 -134 166q33 243 233 241q95 0 170 -72l-35 -81q-214 56 -268 -54q-14 -29 -4 -51q47 -108 252 -57q36 10 42 5q14 -12 14 -33l-1 -92q-110 -30 -400 -166z" />
    <glyph glyph-name="uni0624" unicode="&#x648;&#x654;" horiz-adv-x="823" 
d="M200 810l21 145q62 29 110 49q-151 31 -134 166q33 243 233 241q95 0 170 -72l-35 -81q-214 56 -268 -54q-14 -29 -4 -51q47 -108 252 -57q36 10 42 5q14 -12 14 -33l-1 -92q-110 -30 -400 -166zM75 -401q450 117 502 402l-141 -4q-197 -6 -272 90q-76 97 -49 264
q25 159 108 254q82 93 182 93q168 -1 260 -183q68 -134 70 -347q1 -89 -12 -167q-16 -98 -54 -177q-83 -173 -272 -274q-125 -70 -209 -89q-51 -12 -69 9q-37 44 -50 70q-25 50 6 59zM584 177q-13 204 -70 277q-46 58 -119 58q-85 0 -122 -106q-25 -70 -19 -133
q15 -130 330 -96z" />
    <glyph glyph-name="uni0625" unicode="&#x627;&#x655;" horiz-adv-x="484" 
d="M44 -712l21 145q62 29 110 49q-151 31 -134 166q33 243 233 241q95 0 170 -72l-35 -81q-214 56 -268 -54q-14 -29 -4 -51q47 -108 252 -57q36 10 42 5q14 -12 14 -33l-1 -92q-110 -30 -400 -166zM187 -13q-11 1281 -36 1442l149 67q26 12 28 -28q17 -318 9 -853
q-9 -540 -13 -548q-37 -79 -137 -80z" />
    <glyph glyph-name="uni0626" unicode="&#x64a;&#x654;" horiz-adv-x="1474" 
d="M270.082 528.829l23.3721 161.381q69.0049 32.2764 122.428 54.5361q-168.06 34.502 -149.139 184.754q36.7285 270.453 259.323 268.228q105.732 0 189.206 -80.1348l-38.9541 -90.1504q-238.177 62.3262 -298.277 -60.1006q-15.582 -32.2764 -4.45215 -56.7617
q52.3096 -120.202 280.47 -63.4404q40.0674 11.1299 46.7451 5.56543q15.582 -13.3555 15.582 -36.7285l-1.11328 -102.394q-122.428 -33.3896 -445.19 -184.754zM1386 712q-6 -61 -38 -195l-46 2q-192 9 -284 -82q-87 -87 -118 -232l262 -50q153 -30 152 -151
q-1 -142 -86 -254q-180 -233 -542 -235q-314 -2 -461 151q-154 162 -108 454q26 169 98 306l111 -31q-114 -352 -31 -518q92 -183 396 -181q309 2 457 174q81 92 9 104l-244 43q-123 21 -147 84q-23 60 24 219q85 289 315 382q134 55 281 10z" />
    <glyph glyph-name="uni06C0" unicode="&#x647;&#x654;" horiz-adv-x="873" 
d="M143 1129q62 -30 145 -29q154 1 221 78q24 29 -6 45q-31 18 -116 42q-86 23 -54 131q44 144 174 198q71 29 155 3q-4 -40 -22 -116l-31 2q-92 4 -148 -52q-30 -30 -40 -54l129 -43q60 -20 59.5 -94.5t-45.5 -133.5q-89 -117 -279 -117q-102 0 -181 32zM368 597
q-123 -166 -124 -285q-1 -126 204 -126q173 0 195 108q26 130 -206 266q-55 32 -69 37zM313 776q19 26 35.5 26t26.5 -4q401 -152 401 -465q0 -152 -92 -239.5t-251.5 -87.5t-258.5 113q-65 72 -65 177q0 197 204 480z" />
    <glyph glyph-name="uniFB00" unicode="ff" horiz-adv-x="1389" 
d="M1364 967h-279v-967h-166v967h-196v75l196 60v61q0 404 353 404q87 0 204 -35l-43 -133q-96 31 -164 31q-94 0 -139 -62.5t-45 -200.5v-71h279v-129zM670 967h-279v-967h-166v967h-196v75l196 60v61q0 404 353 404q87 0 204 -35l-43 -133q-96 31 -164 31
q-94 0 -139 -62.5t-45 -200.5v-71h279v-129z" />
    <glyph glyph-name="uniFB01" unicode="fi" horiz-adv-x="1212" 
d="M670 967h-279v-967h-166v967h-196v75l196 60v61q0 404 353 404q87 0 204 -35l-43 -133q-96 31 -164 31q-94 0 -139 -62.5t-45 -200.5v-71h279v-129zM1036 0h-166v1096h166v-1096zM856 1393q0 57 28 83.5t70 26.5q40 0 69 -27t29 -83t-29 -83.5t-69 -27.5q-42 0 -70 27.5
t-28 83.5z" />
    <glyph glyph-name="uniFB02" unicode="fl" horiz-adv-x="1212" 
d="M670 967h-279v-967h-166v967h-196v75l196 60v61q0 404 353 404q87 0 204 -35l-43 -133q-96 31 -164 31q-94 0 -139 -62.5t-45 -200.5v-71h279v-129zM1036 0h-166v1556h166v-1556z" />
    <glyph glyph-name="uniFB03" unicode="ffi" horiz-adv-x="1909" 
d="M1358 967h-279v-967h-166v967h-196v75l196 60v61q0 404 353 404q87 0 204 -35l-43 -133q-96 31 -164 31q-94 0 -139 -62.5t-45 -200.5v-71h279v-129zM670 967h-279v-967h-166v967h-196v75l196 60v61q0 404 353 404q87 0 204 -35l-43 -133q-96 31 -164 31
q-94 0 -139 -62.5t-45 -200.5v-71h279v-129zM1731 0h-166v1096h166v-1096zM1551 1393q0 57 28 83.5t70 26.5q40 0 69 -27t29 -83t-29 -83.5t-69 -27.5q-42 0 -70 27.5t-28 83.5z" />
    <glyph glyph-name="uniFB04" unicode="ffl" horiz-adv-x="1909" 
d="M1358 967h-279v-967h-166v967h-196v75l196 60v61q0 404 353 404q87 0 204 -35l-43 -133q-96 31 -164 31q-94 0 -139 -62.5t-45 -200.5v-71h279v-129zM670 967h-279v-967h-166v967h-196v75l196 60v61q0 404 353 404q87 0 204 -35l-43 -133q-96 31 -164 31
q-94 0 -139 -62.5t-45 -200.5v-71h279v-129zM1731 0h-166v1556h166v-1556z" />
    <glyph glyph-name="uniFBA5" unicode="&#xfeea;&#x654;" horiz-adv-x="1016" arabic-form="final" 
d="M243 1269q62 -30 145 -29q154 1 221 78q24 29 -6 45q-31 18 -116 42q-86 23 -54 131q44 144 174 198q71 29 155 3q-4 -40 -22 -116l-31 2q-92 4 -148 -52q-30 -30 -40 -54l129 -43q60 -20 59.5 -94.5t-45.5 -133.5q-89 -117 -279 -117q-102 0 -181 32zM234 393
q32 -67 279 -63l142 3l-67 300q-269 -84 -322 -140t-32 -100zM1010 0q-241 0 -326 237l-172 -102h-1q-94 2 -196 20.5t-136 31.5q-70 28 -77 74q-21 141 4 227q53 180 449 315l-13 67l81 96q47 55 64 -26l110 -530q48 -230 194 -230h38v-180h-19z" />
    <glyph glyph-name="uniFDF2" unicode="&#x627;&#xfedf;&#xfee0;&#xfeea;" horiz-adv-x="2727" arabic-form="isolated" 
d="M1932 367q3 48 2 118q0 78 -7 187q-19 340 -50 680l136 64q41 19 42 -20l24 -856q8 -272 -44 -377q-81 -163 -355 -163h-23v180h29q101 0 161 28q79 36 85 159zM1343 138q-96 -138 -270 -138h-60v180h33q86 0 142 32q75 42 87 134q7 51 4 132q-11 317 -33 632v2l141 94
q37 25 37 -23v-700q0 -221 95 -274q53 -29 140 -29h15v-180h-52q-183 0 -279 138zM1255 1805l-55 484l121 71v-534zM1328 1624q-1 -109 104 -109q41 0 61 21.5t20 65.5q0 89 -6 131l-1 2l1 1q36 34 77 1l1 -1v-1q11 -78 10 -138q1 -99 -38.5 -149.5t-118.5 -50.5
q-94 0 -133 71q-36 -142 -155 -142q-6 0 -11 0.5t-11 0.5q-159 14 -139 238q2 16 4.5 36.5t6.5 45.5l1 1v1q40 38 73 -1l1 -1v-2q-6 -41 -9 -68.5t-3 -39.5q0 -50 23.5 -74t72.5 -24q43 0 66 31.5t25 96.5q2 46 2 134v1l1 1q39 33 72 0l1 -1v-1q1 -36 2 -77zM236 393
q32 -67 279 -63l142 3l-67 300q-269 -84 -322 -140t-32 -100zM1012 0q-241 0 -326 237l-172 -102h-1q-94 2 -196 20.5t-136 31.5q-70 28 -77 74q-21 141 4 227q53 180 449 315l-13 67l81 96q47 55 64 -26l110 -530q48 -230 194 -230h38v-180h-19zM2399 -29
q-11 1281 -36 1442l149 67q26 12 28 -28q17 -318 9 -853q-9 -540 -13 -548q-37 -79 -137 -80z" />
    <glyph glyph-name="uniFE70" unicode="&#x20;&#x64b;" horiz-adv-x="769" arabic-form="isolated" 
d="M54 1113v97l505 206v-97zM54 1399v97l505 206v-97z" />
    <glyph glyph-name="uniFE72" unicode="&#x20;&#x64c;" horiz-adv-x="769" arabic-form="isolated" 
d="M410 1808q-47 0 -69.5 -20.5t-22.5 -62.5q0 -63 82 -93q20 -7 63 -20l15 36q3 7 5.5 14.5t4 14.5t2.5 13.5t1 13.5q0 27 -7 48q-10 28 -28.5 42t-45.5 14zM59 1567q7 -97 17 -129q32 -106 113 -104q41 1 81.5 21t80.5 59q47 45 73 98l14 28l-30 6q-126 27 -168 129
q-7 17 -7 49t9 58q36 108 157.5 108t161.5 -105q12 -33 12 -75t-13 -83l-9 -30l30 -1q21 -1 59 -2h3v-83h-3q-36 1 -50 3l-79 7q-61 -138 -183 -223q-62 -44 -130 -44q-190 -1 -197 313v3h58v-3z" />
    <glyph glyph-name="uniFE74" unicode="&#x20;&#x64d;" horiz-adv-x="769" arabic-form="isolated" 
d="M30 -495v102l478 195v-101zM30 -230v101l478 196v-101z" />
    <glyph glyph-name="uniFE76" unicode="&#x20;&#x64e;" horiz-adv-x="769" arabic-form="isolated" 
d="M-5 1292v101l478 195v-101z" />
    <glyph glyph-name="uniFE78" unicode="&#x20;&#x64f;" horiz-adv-x="769" arabic-form="isolated" 
d="M520 1419q-55 1 -126 9q-52 -74 -142.5 -130t-217.5 -63v77q153 8 249 112l26 27q-98 27 -137 75q-32 39 -32 97q0 76 58 120q63 48 140 26q39 -10 68 -39q49 -49 49 -126q0 -33 -14 -78l-9 -27l28 -1q32 -2 60 -2v-77zM352 1513q26 60 25 101q-2 60 -45 75
q-39 13 -68 -1q-35 -18 -43 -55q-16 -73 107 -113q11 -3 24 -7z" />
    <glyph glyph-name="uniFE7A" unicode="&#x20;&#x650;" horiz-adv-x="769" arabic-form="isolated" 
d="M40 -337v101l478 195v-101z" />
    <glyph glyph-name="uniFE7C" unicode="&#x20;&#x651;" horiz-adv-x="769" arabic-form="isolated" 
d="M318 1610q-1 -109 104 -109q41 0 61 21.5t20 65.5q0 89 -6 131l-1 2l1 1q36 34 77 1l1 -1v-1q11 -78 10 -138q1 -99 -38.5 -149.5t-118.5 -50.5q-94 0 -133 71q-36 -142 -155 -142q-6 0 -11 0.5t-11 0.5q-159 14 -139 238q2 16 4.5 36.5t6.5 45.5l1 1v1q40 38 73 -1l1 -1
v-2q-6 -41 -9 -68.5t-3 -39.5q0 -50 23.5 -74t72.5 -24q43 0 66 31.5t25 96.5q2 46 2 134v1l1 1q39 33 72 0l1 -1v-1q1 -36 2 -77z" />
    <glyph glyph-name="uniFE7E" unicode="&#x20;&#x652;" horiz-adv-x="769" arabic-form="isolated" 
d="M441 1613q62 0 104.5 42.5t42.5 104t-42.5 104t-104.5 42.5t-104 -42t-42 -104.5t42 -104.5t104 -42zM666 1760q0 -94 -65 -159.5t-159 -65.5t-159 65.5t-65 159.5t65 159t159 65t159 -65t65 -159z" />
    <glyph glyph-name="uniFEF5" unicode="&#xfedf;&#xfe82;" horiz-adv-x="1217" arabic-form="isolated" 
d="M189 1572q-94 -8 -185 -88q-27 18 -43 39q81 210 181 210q69 0 151 -10.5t117 -10.5q125 0 175 13q53 13 63 6q12 -13 -20 -60q-25 -36 -72 -70q-76 -54 -367 -29zM227 -24q-36 77 -45 145q-1 11 5 11q301 20 438 67l-535 1045l142 104l512 -1093q156 84 174 235
q24 205 -53 939l150 74q29 14 30 -19l24 -840q9 -322 -170 -495q-179 -171 -669 -173h-3z" />
    <glyph glyph-name="uniFEF6" unicode="&#xfee0;&#xfe82;" horiz-adv-x="1321" arabic-form="final" 
d="M196 1572q-94 -8 -185 -88q-27 18 -43 39q81 210 181 210q69 0 151 -10.5t117 -10.5q125 0 175 13q53 13 63 6q12 -13 -20 -60q-25 -36 -72 -70q-76 -54 -367 -29zM1297 0q-265 0 -326 265q-189 -290 -744 -291q-34 75 -43 133q-4 23 3 23q300 19 435 67l-532 1047
l142 104l509 -1095q163 94 177 267q18 215 -53 909l151 77q28 14 29 -26l28 -938q11 -361 224 -361h38v-181h-38z" />
    <glyph glyph-name="uniFEF7" unicode="&#xfedf;&#xfe84;" horiz-adv-x="1217" arabic-form="isolated" 
d="M25 1497l21 145q62 29 110 49q-151 31 -134 166q33 243 233 241q95 0 170 -72l-35 -81q-214 56 -268 -54q-14 -29 -4 -51q47 -108 252 -57q36 10 42 5q14 -12 14 -33l-1 -92q-110 -30 -400 -166zM227 -24q-36 77 -45 145q-1 11 5 11q301 20 438 67l-535 1045l142 104
l512 -1093q156 84 174 235q24 205 -53 939l150 74q29 14 30 -19l24 -840q9 -322 -170 -495q-179 -171 -669 -173h-3z" />
    <glyph glyph-name="uniFEF8" unicode="&#xfee0;&#xfe84;" horiz-adv-x="1321" arabic-form="final" 
d="M25 1507l21 145q62 29 110 49q-151 31 -134 166q33 243 233 241q95 0 170 -72l-35 -81q-214 56 -268 -54q-14 -29 -4 -51q47 -108 252 -57q36 10 42 5q14 -12 14 -33l-1 -92q-110 -30 -400 -166zM1297 0q-265 0 -326 265q-189 -290 -744 -291q-34 75 -43 133q-4 23 3 23
q300 19 435 67l-532 1047l142 104l509 -1095q163 94 177 267q18 215 -53 909l151 77q28 14 29 -26l28 -938q11 -361 224 -361h38v-181h-38z" />
    <glyph glyph-name="uniFEF9" unicode="&#xfedf;&#xfe88;" horiz-adv-x="1217" arabic-form="isolated" 
d="M146 -720l21 145q62 29 110 49q-151 31 -134 166q33 243 233 241q95 0 170 -72l-35 -81q-214 56 -268 -54q-14 -29 -4 -51q47 -108 252 -57q36 10 42 5q14 -12 14 -33l-1 -92q-110 -30 -400 -166zM227 -24q-36 77 -45 145q-1 11 5 11q301 20 438 67l-535 1045l142 104
l512 -1093q156 84 174 235q24 205 -53 939l150 74q29 14 30 -19l24 -840q9 -322 -170 -495q-179 -171 -669 -173h-3z" />
    <glyph glyph-name="uniFEFA" unicode="&#xfee0;&#xfe88;" horiz-adv-x="1321" arabic-form="final" 
d="M169 -712l21 145q62 29 110 49q-151 31 -134 166q33 243 233 241q95 0 170 -72l-35 -81q-214 56 -268 -54q-14 -29 -4 -51q47 -108 252 -57q36 10 42 5q14 -12 14 -33l-1 -92q-110 -30 -400 -166zM1297 0q-265 0 -326 265q-189 -290 -744 -291q-34 75 -43 133q-4 23 3 23
q300 19 435 67l-532 1047l142 104l509 -1095q163 94 177 267q18 215 -53 909l151 77q28 14 29 -26l28 -938q11 -361 224 -361h38v-181h-38z" />
    <glyph glyph-name="uniFEFB" unicode="&#xfedf;&#xfe8e;" horiz-adv-x="1217" arabic-form="isolated" 
d="M227 -24q-36 77 -45 145q-1 11 5 11q301 20 438 67l-535 1045l142 104l512 -1093q156 84 174 235q24 205 -53 939l150 74q29 14 30 -19l24 -840q9 -322 -170 -495q-179 -171 -669 -173h-3z" />
    <glyph glyph-name="uniFEFC" unicode="&#xfee0;&#xfe8e;" horiz-adv-x="1321" arabic-form="final" 
d="M1297 0q-265 0 -326 265q-189 -290 -744 -291q-34 75 -43 133q-4 23 3 23q300 19 435 67l-532 1047l142 104l509 -1095q163 94 177 267q18 215 -53 909l151 77q28 14 29 -26l28 -938q11 -361 224 -361h38v-181h-38z" />
    <glyph glyph-name="uni064B_uni0651.rlig" unicode="&#x64b;&#x651;" horiz-adv-x="0" 
d="M351 1087v97l505 206v-97zM351 1373v97l505 206v-97zM618 908q-1 -109 104 -109q41 0 61 21.5t20 65.5q0 89 -6 131l-1 2l1 1q36 34 77 1l1 -1v-1q11 -78 10 -138q1 -99 -38.5 -149.5t-118.5 -50.5q-94 0 -133 71q-36 -142 -155 -142q-6 0 -11 0.5t-11 0.5
q-159 14 -139 238q2 16 4.5 36.5t6.5 45.5l1 1v1q40 38 73 -1l1 -1v-2q-6 -41 -9 -68.5t-3 -39.5q0 -50 23.5 -74t72.5 -24q43 0 66 31.5t25 96.5q2 46 2 134v1l1 1q39 33 72 0l1 -1v-1q1 -36 2 -77z" />
    <glyph glyph-name="uni064C_uni0651.rlig" unicode="&#x64c;&#x651;" horiz-adv-x="0" 
d="M610 1675q-47 0 -69.5 -20.5t-22.5 -62.5q0 -63 82 -93q20 -7 63 -20l15 36q3 7 5.5 14.5t4 14.5t2.5 13.5t1 13.5q0 27 -7 48q-10 28 -28.5 42t-45.5 14zM259 1434q7 -97 17 -129q32 -106 113 -104q41 1 81.5 21t80.5 59q47 45 73 98l14 28l-30 6q-126 27 -168 129
q-7 17 -7 49t9 58q36 108 157.5 108t161.5 -105q12 -33 12 -75t-13 -83l-9 -30l30 -1q21 -1 59 -2h3v-83h-3q-36 1 -50 3l-79 7q-61 -138 -183 -223q-62 -44 -130 -44q-190 -1 -197 313v3h58v-3zM606 922q-1 -109 104 -109q41 0 61 21.5t20 65.5q0 89 -6 131l-1 2l1 1
q36 34 77 1l1 -1v-1q11 -78 10 -138q1 -99 -38.5 -149.5t-118.5 -50.5q-94 0 -133 71q-36 -142 -155 -142q-6 0 -11 0.5t-11 0.5q-159 14 -139 238q2 16 4.5 36.5t6.5 45.5l1 1v1q40 38 73 -1l1 -1v-2q-6 -41 -9 -68.5t-3 -39.5q0 -50 23.5 -74t72.5 -24q43 0 66 31.5
t25 96.5q2 46 2 134v1l1 1q39 33 72 0l1 -1v-1q1 -36 2 -77z" />
    <glyph glyph-name="uni064D_uni0651.rlig" unicode="&#x64d;&#x651;" horiz-adv-x="0" 
d="M568 1626q-1 -109 104 -109q41 0 61 21.5t20 65.5q0 89 -6 131l-1 2l1 1q36 34 77 1l1 -1v-1q11 -78 10 -138q1 -99 -38.5 -149.5t-118.5 -50.5q-94 0 -133 71q-36 -142 -155 -142q-6 0 -11 0.5t-11 0.5q-159 14 -139 238q2 16 4.5 36.5t6.5 45.5l1 1v1q40 38 73 -1l1 -1
v-2q-6 -41 -9 -68.5t-3 -39.5q0 -50 23.5 -74t72.5 -24q43 0 66 31.5t25 96.5q2 46 2 134v1l1 1q39 33 72 0l1 -1v-1q1 -36 2 -77zM318 718v97l505 206v-97zM318 1004v97l505 206v-97z" />
    <glyph glyph-name="uni064E_uni0651.rlig" unicode="&#x64e;&#x651;" horiz-adv-x="0" 
d="M307 1273v101l478 195v-101zM624 1106q-1 -109 104 -109q41 0 61 21.5t20 65.5q0 89 -6 131l-1 2l1 1q36 34 77 1l1 -1v-1q11 -78 10 -138q1 -99 -38.5 -149.5t-118.5 -50.5q-94 0 -133 71q-36 -142 -155 -142q-6 0 -11 0.5t-11 0.5q-159 14 -139 238q2 16 4.5 36.5
t6.5 45.5l1 1v1q40 38 73 -1l1 -1v-2q-6 -41 -9 -68.5t-3 -39.5q0 -50 23.5 -74t72.5 -24q43 0 66 31.5t25 96.5q2 46 2 134v1l1 1q39 33 72 0l1 -1v-1q1 -36 2 -77z" />
    <glyph glyph-name="uni064F_uni0651.rlig" unicode="&#x64f;&#x651;" horiz-adv-x="0" 
d="M789 1278q-55 1 -126 9q-52 -74 -142.5 -130t-217.5 -63v77q153 8 249 112l26 27q-98 27 -137 75q-32 39 -32 97q0 76 58 120q63 48 140 26q39 -10 68 -39q49 -49 49 -126q0 -33 -14 -78l-9 -27l28 -1q32 -2 60 -2v-77zM621 1372q26 60 25 101q-2 60 -45 75
q-39 13 -68 -1q-35 -18 -43 -55q-16 -73 107 -113q11 -3 24 -7zM607 946q-1 -109 104 -109q41 0 61 21.5t20 65.5q0 89 -6 131l-1 2l1 1q36 34 77 1l1 -1v-1q11 -78 10 -138q1 -99 -38.5 -149.5t-118.5 -50.5q-94 0 -133 71q-36 -142 -155 -142q-6 0 -11 0.5t-11 0.5
q-159 14 -139 238q2 16 4.5 36.5t6.5 45.5l1 1v1q40 38 73 -1l1 -1v-2q-6 -41 -9 -68.5t-3 -39.5q0 -50 23.5 -74t72.5 -24q43 0 66 31.5t25 96.5q2 46 2 134v1l1 1q39 33 72 0l1 -1v-1q1 -36 2 -77z" />
    <glyph glyph-name="uni0650_uni0651.rlig" unicode="&#x650;&#x651;" horiz-adv-x="0" 
d="M608 1539q-1 -109 104 -109q41 0 61 21.5t20 65.5q0 89 -6 131l-1 2l1 1q36 34 77 1l1 -1v-1q11 -78 10 -138q1 -99 -38.5 -149.5t-118.5 -50.5q-94 0 -133 71q-36 -142 -155 -142q-6 0 -11 0.5t-11 0.5q-159 14 -139 238q2 16 4.5 36.5t6.5 45.5l1 1v1q40 38 73 -1l1 -1
v-2q-6 -41 -9 -68.5t-3 -39.5q0 -50 23.5 -74t72.5 -24q43 0 66 31.5t25 96.5q2 46 2 134v1l1 1q39 33 72 0l1 -1v-1q1 -36 2 -77zM357 901v101l478 195v-101z" />
    <glyph glyph-name="uni064E_uni0654.rlig" unicode="&#x64e;&#x654;" horiz-adv-x="0" 
d="M381 1688v101l478 195v-101zM457 1097l21 145q62 29 110 49q-151 31 -134 166q33 243 233 241q95 0 170 -72l-35 -81q-214 56 -268 -54q-14 -29 -4 -51q47 -108 252 -57q36 10 42 5q14 -12 14 -33l-1 -92q-110 -30 -400 -166z" />
    <glyph glyph-name="uni064F_uni0654.rlig" unicode="&#x64f;&#x654;" horiz-adv-x="0" 
d="M898 1747q-55 1 -126 9q-52 -74 -142.5 -130t-217.5 -63v77q153 8 249 112l26 27q-98 27 -137 75q-32 39 -32 97q0 76 58 120q63 48 140 26q39 -10 68 -39q49 -49 49 -126q0 -33 -14 -78l-9 -27l28 -1q32 -2 60 -2v-77zM730 1841q26 60 25 101q-2 60 -45 75
q-39 13 -68 -1q-35 -18 -43 -55q-16 -73 107 -113q11 -3 24 -7zM467 984l21 145q62 29 110 49q-151 31 -134 166q33 243 233 241q95 0 170 -72l-35 -81q-214 56 -268 -54q-14 -29 -4 -51q47 -108 252 -57q36 10 42 5q14 -12 14 -33l-1 -92q-110 -30 -400 -166z" />
    <glyph glyph-name="uniFE97_uniFB91_uniFEE8_uniFE8E_uniFEE3_uniFEEA_period.rlig" unicode="&#xfe97;&#xfb91;&#xfee8;&#xfe8e;&#xfee3;&#xfeea;&#x2e;" horiz-adv-x="3985" 
d="M3745 975q-13 -13 -27 0l-111 112q-13 13 1 27l113 113q11 11 22 0l119 -119q9 -8 -3 -19zM3442 1227l118 -118q8 -10 -3 -20l-113 -114q-14 -13 -27 0l-112 112q-13 13 1 27l113 113q11 11 23 0zM3680 347q0 114 -78 330l111 128q15 17 35 -25q87 -179 84 -401
q-2 -145 -81 -241q-114 -138 -343 -138h-114v180h111q276 0 275 167zM3003 1h-136q-199 -2 -264 70q-90 96 -62 274q27 164 111 260q112 129 267 79q115 -38 182 -184q54 -119 58 -321l140 1v-180l-150 1q-16 -98 -54 -177q-82 -171 -272 -274q-130 -71 -209 -89
q-51 -12 -69 9q-37 44 -50 70q-25 50 6 59q450 117 502 402zM3010 181q-15 188 -69 267q-43 63 -115 63q-90 0 -126 -109q-57 -175 44 -212q45 -16 266 -9zM1685 -193l124 -124q8 -9 -3 -21l-118 -119q-15 -13 -29 1l-116 116q-14 14 0 28l119 119q12 11 23 0zM2026 426
q-59 13 -304 108q-142 56 -228 56q-107 0 -217 -134l-83 41l9 22q104 260 323 259q84 -1 281 -93q341 -158 543 -159q28 0 19 -30l-45 -151q-158 -4 -480 -187q-279 -158 -575 -158h-174v180h208q249 0 533 148zM300 393q32 -67 279 -63l142 3l-67 300q-269 -84 -322 -140
t-32 -100zM1076 0q-241 0 -326 237l-172 -102h-1q-94 2 -196 20.5t-136 31.5q-70 28 -77 74q-21 141 4 227q53 180 449 315l-13 67l81 96q47 55 64 -26l110 -530q48 -230 194 -230h38v-180h-19z" />
    <glyph glyph-name="uniFEE3_uniFEE8_uniFE92_uniFECA_equal.rlig" unicode="&#xfee3;&#xfee8;&#xfe92;&#xfeca;&#x3d;" horiz-adv-x="1231" 
d="M226 -193l124 -124q8 -9 -3 -21l-118 -119q-15 -13 -29 1l-116 116q-14 14 0 28l119 119q12 11 23 0zM374 347q0 114 -78 330l111 128q15 17 35 -25q87 -179 84 -401q-2 -145 -81 -241q-114 -138 -343 -138h-114v180h111q276 0 275 167zM-420 885q6 391 -10 544l136 67
q27 13 30 -29q9 -153 4 -487q-6 -385 -5 -508q1 -182 41 -235q44 -57 182 -57h36v-180h-71q-313 0 -335 350q-13 203 -8 535z" />
    <glyph glyph-name="uniFEDF_uniFEEE_uniFB94_uniFEEE_exclam.rlig" unicode="&#xfedf;&#xfeee;&#xfb94;&#xfeee;&#x21;" horiz-adv-x="2998" 
d="M1374 1398v-220h12h197h12v220h-221zM1711 1398v-719h-441v719h-539v-719h-534v-1079h12h2563h12v1079h-534v719h-539zM1090 1212v-713h801v713h179v-893h-1160v893h180zM354 980v-214h220v214h-220zM2395 766h221v214h-221v-214zM557 493v-533h11h1845h11v533h180v-713
h-12h-2215v713h180z" />
    <glyph glyph-name="uni066E.init" unicode="&#x66e;" horiz-adv-x="645" 
d="M374 347q0 114 -78 330l111 128q15 17 35 -25q87 -179 84 -401q-2 -145 -81 -241q-114 -138 -343 -138h-114v180h111q276 0 275 167z" />
    <glyph glyph-name="uni066E.medi" unicode="&#x66e;" horiz-adv-x="781" 
d="M111 0h-122v180h97q245 0 259 167l18 223h125l19 -220q14 -170 219 -170h16v-180h-25q-210 0 -292 130q-94 -130 -314 -130z" />
    <glyph glyph-name="uni066E.fina" unicode="&#x66e;" horiz-adv-x="1972" 
d="M1959 0q-286 0 -340 226q-169 -224 -793 -224q-349 0 -521 97q-202 112 -201 359q1 149 81 309l101 -35q-69 -253 9 -370q114 -169 459 -178q91 -2 163 -2q52 0 132 6q79 5 146 16q348 58 401 297l17 76l117 -13l-2 -35q-14 -348 223 -348h34v-181h-26z" />
    <glyph glyph-name="uni066F.init" unicode="&#x66f;" horiz-adv-x="967" 
d="M409 863q-116 0 -150 -139q-29 -122 67 -148q70 -18 166 -3q61 9 94 25q-10 139 -57 201q-48 64 -120 64zM160 180q430 0 427 217v7q-209 -45 -338 9q-128 53 -128 204q1 113 35 204q88 231 261 231q116 0 185 -86q125 -155 131 -502q0 -30 -2 -61q-15 -403 -547 -403
h-195v180h171z" />
    <glyph glyph-name="uni066F.medi" unicode="&#x66f;" horiz-adv-x="1066" 
d="M531 118q-177 -118 -502 -118h-40v180h40q167 0 332 43q-141 108 -141 268q1 107 70 211q104 155 245 155t246 -152q66 -97 65 -196q1 -171 -162 -294q153 -35 295 -35h42v-180h-36q-265 0 -454 118zM667 565q-64 97 -134 97q-86 0 -147 -118q-19 -37 -19 -72
q0 -59 57 -115q86 -84 120 -82q33 1 98 81q56 69 56 125q0 39 -31 84z" />
    <glyph glyph-name="uni066F.fina" unicode="&#x66f;" horiz-adv-x="1443" 
d="M1303 179l153 1v-180h-159q-41 -542 -617 -540q-214 1 -367 93q-204 124 -204 407q0 200 101 424l110 -33q-57 -187 -57 -339q0 -372 425 -372q317 0 435 200q32 54 36 162l-136 -1q-199 -1 -265 70q-89 96 -61 274q27 164 111 260q112 129 267 79q102 -34 171 -183
q54 -120 57 -322zM1166 181q-15 188 -69 267q-43 63 -115 63q-90 0 -126 -109q-57 -175 44 -211q45 -17 266 -10z" />
    <glyph glyph-name="uni06A1.init" unicode="&#x6a1;" horiz-adv-x="841" 
d="M409 863q-116 0 -150 -139q-29 -122 67 -148q70 -18 166 -3q61 9 94 25q-10 139 -57 201q-48 64 -120 64zM160 180q430 0 427 217v7q-209 -45 -338 9q-128 53 -128 204q1 113 35 204q88 231 261 231q116 0 185 -86q125 -155 131 -502q0 -30 -2 -61q-15 -403 -547 -403
h-195v180h171z" />
    <glyph glyph-name="uni06A1.medi" unicode="&#x6a1;" horiz-adv-x="1007" 
d="M531 118q-177 -118 -502 -118h-40v180h40q167 0 332 43q-141 108 -141 268q1 107 70 211q104 155 245 155t246 -152q66 -97 65 -196q1 -171 -162 -294q153 -35 295 -35h42v-180h-36q-265 0 -454 118zM667 565q-64 97 -134 97q-86 0 -147 -118q-19 -37 -19 -72
q0 -59 57 -115q86 -84 120 -82q33 1 98 81q56 69 56 125q0 39 -31 84z" />
    <glyph glyph-name="uni06A1.fina" unicode="&#x6a1;" horiz-adv-x="1953" 
d="M1613 567q-64 96 -134 96q-86 0 -147 -118q-19 -37 -19 -72q0 -59 57 -114q86 -85 120 -83q33 1 97 81q57 69 57 125q0 39 -31 85zM1480 118q-211 -116 -629 -116q-363 0 -544 99q-202 111 -203 357q0 147 81 309l101 -35q-69 -257 9 -370q128 -184 604 -184
q196 0 409 47q-51 39 -101 128q-91 163 35 357q97 149 239 149q143 0 247 -152q66 -97 66 -196q0 -49 -16 -98q-32 -99 -146 -196q141 -36 313 -36h20v-181h-36q-282 0 -449 118z" />
    <glyph glyph-name="uni06CA.fina" unicode="&#x6ca;" horiz-adv-x="870" 
d="M593 903q-13 -13 -27 0l-111 112q-13 13 1 27l113 113q11 11 22 0l119 -119q9 -8 -3 -19zM290 1155l118 -118q8 -10 -3 -20l-113 -114q-14 -13 -27 0l-112 112q-13 13 1 27l113 113q11 11 23 0zM577 1h-136q-199 -2 -264 70q-90 96 -62 274q27 164 111 260
q112 129 267 79q115 -38 182 -184q54 -119 58 -321l140 1v-180l-150 1q-16 -98 -54 -177q-82 -171 -272 -274q-130 -71 -209 -89q-51 -12 -69 9q-37 44 -50 70q-25 50 6 59q450 117 502 402zM584 181q-15 188 -69 267q-43 63 -115 63q-90 0 -126 -109q-57 -175 44 -212
q45 -16 266 -9z" />
    <glyph glyph-name="uni06D5.fina" unicode="&#x6d5;" horiz-adv-x="1016" 
d="M234 393q32 -67 279 -63l142 3l-67 300q-269 -84 -322 -140t-32 -100zM1010 0q-241 0 -326 237l-172 -102h-1q-94 2 -196 20.5t-136 31.5q-70 28 -77 74q-21 141 4 227q53 180 449 315l-13 67l81 96q47 55 64 -26l110 -530q48 -230 194 -230h38v-180h-19z" />
    <glyph glyph-name="uniFB56" unicode="&#x67e;" horiz-adv-x="1834" arabic-form="isolated" 
d="M936 -665q-5 -5 -11 0l-109 109q-8 8 0 16l107 107q8 8 15 0l110 -109q5 -6 -1 -12zM1082 -439q-5 -5 -11 0l-109 110q-8 8 0 15l107 108q8 8 15 0l110 -110q5 -5 0 -10zM902 -316q5 -5 -1 -11l-111 -112q-4 -4 -11 1l-109 109q-8 8 0 15l107 108q8 8 16 -1zM287 732
q-33 -124 -33 -216q0 -91 47 -160q113 -167 504 -171q537 -5 723 146q58 48 -59 393l109 129q17 20 39 -23q81 -155 81 -359q0 -114 -43 -203q-128 -266 -810 -266q-358 0 -537 99q-203 112 -203 357q1 149 81 309z" />
    <glyph glyph-name="uniFB57" unicode="&#x67e;" horiz-adv-x="1972" arabic-form="final" 
d="M920 -665q-5 -5 -11 0l-109 109q-8 8 0 16l107 107q8 8 15 0l110 -109q5 -6 -1 -12zM1066 -439q-5 -5 -11 0l-109 110q-8 8 0 15l107 108q8 8 15 0l110 -110q5 -5 0 -10zM886 -316q5 -5 -1 -11l-111 -112q-4 -4 -11 1l-109 109q-8 8 0 15l107 108q8 8 16 -1zM1959 0
q-286 0 -340 226q-169 -224 -793 -224q-349 0 -521 97q-202 112 -201 359q1 149 81 309l101 -35q-69 -253 9 -370q114 -169 459 -178q91 -2 163 -2q52 0 132 6q79 5 146 16q348 58 401 297l17 76l117 -13l-2 -35q-14 -348 223 -348h34v-181h-26z" />
    <glyph glyph-name="uniFB58" unicode="&#x67e;" horiz-adv-x="633" arabic-form="initial" 
d="M259 -635q-5 -5 -11 0l-109 109q-8 8 0 16l107 107q8 8 15 0l110 -109q5 -6 -1 -12zM405 -409q-5 -5 -11 0l-109 110q-8 8 0 15l107 108q8 8 15 0l110 -110q5 -5 0 -10zM225 -286q5 -5 -1 -11l-111 -112q-4 -4 -11 1l-109 109q-8 8 0 15l107 108q8 8 16 -1zM374 347
q0 114 -78 330l111 128q15 17 35 -25q87 -179 84 -401q-2 -145 -81 -241q-114 -138 -343 -138h-114v180h111q276 0 275 167z" />
    <glyph glyph-name="uniFB59" unicode="&#x67e;" horiz-adv-x="728" arabic-form="medial" 
d="M302 -635q-5 -5 -11 0l-109 109q-8 8 0 16l107 107q8 8 15 0l110 -109q5 -6 -1 -12zM448 -409q-5 -5 -11 0l-109 110q-8 8 0 15l107 108q8 8 15 0l110 -110q5 -5 0 -10zM268 -286q5 -5 -1 -11l-111 -112q-4 -4 -11 1l-109 109q-8 8 0 15l107 108q8 8 16 -1zM111 0h-122
v180h97q245 0 259 167l18 223h125l19 -220q14 -170 219 -170h16v-180h-25q-210 0 -292 130q-94 -130 -314 -130z" />
    <glyph glyph-name="uniFB7A" unicode="&#x686;" horiz-adv-x="1335" arabic-form="isolated" 
d="M801 -234q-5 -5 -11 0l-109 109q-8 8 0 16l107 107q8 8 15 0l110 -109q5 -6 -1 -12zM947 -8q-5 -5 -11 0l-109 110q-8 8 0 15l107 108q8 8 15 0l110 -110q5 -5 0 -10zM767 115q5 -5 -1 -11l-111 -112q-4 -4 -11 1l-109 109q-8 8 0 15l107 108q8 8 16 -1zM1209 -404
q18 -2 1 -108q-9 -61 -13 -66q-5 -6 -25 -10q-147 -25 -330 -25q-143 0 -258 19q-184 30 -285 118q-157 136 -157 363q0 396 346 610q125 77 306 113q-117 22 -186 38q-134 30 -199 30q-108 0 -205 -119q-49 18 -92 48q63 152 163 221q51 37 108 37q56 0 165 -25t451 -122
q120 -35 223 -32q19 1 12 -15l-71 -168q-315 -9 -553 -132q-321 -165 -321 -455q1 -352 519 -350q151 1 234 11t167 19z" />
    <glyph glyph-name="uniFB7B" unicode="&#x686;" horiz-adv-x="1339" arabic-form="final" 
d="M683.162 -259.052q-4.50879 -4.36426 -9.91992 0l-98.2891 95.1357q-7.21289 6.98242 0 13.9648l96.4863 93.3896q7.21387 6.98242 13.5254 0l99.1914 -95.1357q4.50781 -5.23633 -0.902344 -10.4736zM814.814 -61.7988q-4.50879 -4.36328 -9.91895 0l-98.2891 96.0088
q-7.21387 6.98242 0 13.0918l96.4854 94.2627q7.21387 6.98242 13.5264 0l99.1904 -96.0078q4.50879 -4.36426 0 -8.72852zM652.503 45.5566q4.50879 -4.36426 -0.902344 -9.60156l-100.092 -97.7539q-3.60742 -3.49023 -9.91895 0.873047l-98.2891 95.1357
q-7.21387 6.98242 0 13.0918l96.4854 94.2627q7.21387 6.98242 14.4277 -0.873047zM488 497q124 75 307 112q-110 21 -165 33q-215 49 -284 27q-69 -23 -141 -111q-49 18 -92 48q41 97 114 180q74 83 178 78q111 -4 595 -147q116 -35 222 -32q20 1 14 -14l-72 -169
q-73 -8 -146 -17q22 -304 307 -304h27v-181h-16q-411 0 -448 423l-4 39q-141 -25 -274 -91q-321 -157 -321 -455q0 -352 519 -350q101 1 184 11t167 19q13 -1 1 -108q-5 -48 -9 -60t-29 -16q-153 -25 -280 -25q-143 0 -258 19q-184 30 -285 118q-157 136 -157 363
q0 399 346 610z" />
    <glyph glyph-name="uniFB7C" unicode="&#x686;" horiz-adv-x="1300" arabic-form="initial" 
d="M611 -635q-5 -5 -11 0l-109 109q-8 8 0 16l107 107q8 8 15 0l110 -109q5 -6 -1 -12zM757 -409q-5 -5 -11 0l-109 110q-8 8 0 15l107 108q8 8 15 0l110 -110q5 -5 0 -10zM577 -286q5 -5 -1 -11l-111 -112q-4 -4 -11 1l-109 109q-8 8 0 15l107 108q8 8 16 -1zM920 426
q-59 13 -304 108q-142 56 -228 56q-107 0 -217 -134l-83 41l9 22q104 260 323 259q84 -1 281 -93q341 -158 543 -159q28 0 19 -30l-45 -151q-158 -4 -480 -187q-279 -158 -575 -158h-174v180h208q249 0 533 148z" />
    <glyph glyph-name="uniFB7D" unicode="&#x686;" horiz-adv-x="1316" arabic-form="medial" 
d="M608 -635q-5 -5 -11 0l-109 109q-8 8 0 16l107 107q8 8 15 0l110 -109q5 -6 -1 -12zM754 -409q-5 -5 -11 0l-109 110q-8 8 0 15l107 108q8 8 15 0l110 -110q5 -5 0 -10zM574 -286q5 -5 -1 -11l-111 -112q-4 -4 -11 1l-109 109q-8 8 0 15l107 108q8 8 16 -1zM880 233
q-92 -40 -159 -76q-298 -157 -558 -157h-174v180h208q247 0 529 146l194 100q-95 25 -304 108q-139 56 -225 56q-109 0 -219 -134l-85 40l8 20q107 263 325 262q84 -1 281 -93q338 -158 543 -159q28 0 19 -30l-45 -151q-102 -2 -228 -60q0 -105 133 -105h208v-180h-190
q-246 0 -261 233z" />
    <glyph glyph-name="uniFB8A" unicode="&#x698;" horiz-adv-x="778" arabic-form="isolated" 
d="M446 1210l111 -111q6 -6 1 -12l-110 -109q-7 -8 -15 0l-107 107q-8 8 0 16l109 109q6 5 11 0zM592 984l112 -112q5 -5 0 -11l-110 -110q-7 -7 -15 1l-107 107q-8 8 0 16l109 109q6 5 11 0zM412 861l-109 -109q-8 -8 -16 0l-107 107q-8 8 0 16l109 109q7 4 11 0l111 -111
q6 -6 1 -12zM29 -401q476 125 511 472q12 116 -109 347l104 132q13 16 18 15q19 -2 58 -74q85 -158 85 -363q0 -179 -98 -339q-90 -148 -253 -243q-108 -63 -204 -85q-52 -12 -68 9q-40 51 -51 71q-27 49 7 58z" />
    <glyph glyph-name="uniFB8B" unicode="&#x698;" horiz-adv-x="863" arabic-form="final" 
d="M471 1210l111 -111q6 -6 1 -12l-110 -109q-7 -8 -15 0l-107 107q-8 8 0 16l109 109q6 5 11 0zM617 984l112 -112q5 -5 0 -11l-110 -110q-7 -7 -15 1l-107 107q-8 8 0 16l109 109q6 5 11 0zM437 861l-109 -109q-8 -8 -16 0l-107 107q-8 8 0 16l109 109q7 4 11 0l111 -111
q6 -6 1 -12zM431 418l104 132q24 30 49 -13q32 -55 83 -209q49 -148 171 -148h38v-180h-33q-81 0 -153 50q-20 -125 -73 -229q-89 -171 -274 -274q-115 -64 -202 -87q-44 -11 -68 10q-19 18 -50 71q-29 49 7 58q476 124 510 471q12 116 -109 348z" />
    <glyph glyph-name="uniFB8E" unicode="&#x6a9;" horiz-adv-x="1942" arabic-form="isolated" 
d="M1080 1048q432 -359 529 -525q42 -73 21 -168q-52 -232 -445 -317q-163 -36 -366 -36q-342 0 -514 97q-202 112 -201 359q1 149 81 309l101 -35q-69 -253 9 -370q114 -170 456 -182q483 -17 679 146q82 69 52 112q-63 93 -554 508q14 144 58 252l863 301q41 14 34 -28
l-22 -154z" />
    <glyph glyph-name="uniFB8F" unicode="&#x6a9;" horiz-adv-x="2133" arabic-form="final" 
d="M1099 1048q279 -240 573 -553.5t454 -313.5h19v-181h-19q-232 0 -504 319q-16 -57 -74 -116q-193 -203 -699 -202q-370 1 -542 96q-202 113 -201 361q0 150 81 309l101 -35q-72 -252 13 -376q110 -162 507 -175q441 -15 631 145q82 69 55 110q-41 62 -554 516
q9 119 65 246l863 301q41 14 34 -28l-22 -154z" />
    <glyph glyph-name="uniFB90" unicode="&#x6a9;" horiz-adv-x="1007" arabic-form="initial" 
d="M24 950q18 132 63 248l863 301q41 14 34 -28l-22 -154l-781 -269q524 -416 528 -635q3 -144 -89 -239q-170 -174 -522 -174h-110v180h110q277 0 417 118q55 46 53 108q-3 91 -544 544z" />
    <glyph glyph-name="uniFB91" unicode="&#x6a9;" horiz-adv-x="1211" arabic-form="medial" 
d="M181 1048q293 -253 579 -551q304 -317 445 -317h21v-180h-21q-238 0 -497 316q-62 -145 -224 -238q-137 -78 -388 -78h-108v180h109q274 0 417 126q86 76 54 129q-64 104 -546 517q15 119 65 246l863 301q41 14 34 -28l-22 -154z" />
    <glyph glyph-name="uniFB92" unicode="&#x6af;" horiz-adv-x="1989" arabic-form="isolated" 
d="M1043 1138l863 301q41 14 34 -28l-22 -154l-781 -269q468 -364 475 -553q6 -162 -179 -283q-229 -150 -597 -150q-359 0 -531 97q-201 112 -201 359q1 149 81 309l101 -35q-69 -253 9 -370q117 -173 459 -182q380 -10 618 130q17 10 30 22q70 61 49 109q-17 40 -139 164
q-112 113 -338 290q17 125 69 243zM1951 1683l-20 -116l-810 -276l36 145l776 269q23 8 18 -22z" />
    <glyph glyph-name="uniFB93" unicode="&#x6af;" horiz-adv-x="2110" arabic-form="final" 
d="M1130 988q242 -206 454 -440q334 -368 516 -368h25v-180h-23q-263 0 -507 299q-82 -131 -291 -214q-207 -83 -486 -83q-717 0 -717 459q0 152 82 313l107 -37q-67 -243 0 -364q101 -183 447 -193q548 -17 706 192q23 30 6 66t-163 181q-145 146 -312 277q14 113 62 242
l863 301q41 14 34 -28l-22 -154zM1951 1683l-20 -116l-810 -276l36 145l776 269q23 8 18 -22z" />
    <glyph glyph-name="uniFB94" unicode="&#x6af;" horiz-adv-x="1044" arabic-form="initial" 
d="M181 988q481 -369 488 -573q4 -141 -90 -239q-169 -176 -550 -176h-44v180h44q310 0 448 124q60 55 45 105q-43 134 -501 481q16 117 66 248l863 301q41 14 34 -28l-22 -154zM999 1682l-19 -116l-810 -276l35 145l776 269q24 8 18 -22z" />
    <glyph glyph-name="uniFB95" unicode="&#x6af;" horiz-adv-x="1135" arabic-form="medial" 
d="M181 988q290 -242 470 -452q304 -355 478 -355h25v-181h-39q-214 0 -453 296q-35 -88 -139 -169q-160 -127 -494 -127h-44v180h44q311 0 446 120q71 65 44 108q-64 102 -498 482q11 131 66 248l863 301q41 14 34 -28l-22 -154zM999 1682l-19 -116l-810 -276l35 145
l776 269q24 8 18 -22z" />
    <glyph glyph-name="uniFB9E" unicode="&#x6ba;" horiz-adv-x="1395" arabic-form="isolated" 
d="M1195 608q131 -321 107 -499q-69 -511 -635 -511q-288 0 -430 152q-156 169 -125 452q15 142 98 320l110 -33q-61 -199 -59 -342q4 -372 419 -370q314 2 433 195q58 93 31 214q-18 80 -105 292l102 149q19 26 32 14t22 -33z" />
    <glyph glyph-name="uniFB9F" unicode="&#x6ba;" horiz-adv-x="1497" arabic-form="final" 
d="M1261 279q52 -93 210 -93h39v-184h-29q-132 0 -175 46q3 -58 -13 -136q-97 -452 -627 -451q-209 1 -354 92q-198 125 -200 405q-2 207 98 427l110 -33q-57 -187 -57 -339q0 -372 415 -372q315 0 435 195q42 67 42 146q0 65 -117 356l96 147q25 32 51 -29q76 -175 76 -177
z" />
    <glyph glyph-name="uniFBAA" unicode="&#x6be;" horiz-adv-x="1234" arabic-form="isolated" 
d="M645 288q175 -61 282 -67q95 157 48 251q-33 67 -201 147q6 -191 -129 -331zM503 142q-213 -141 -454 -141h-61v179h72q193 0 289 35q-106 39 -165 115q-56 74 -33 183q43 199 239 317l-131 54l62 173l381 -180q483 -230 417 -530q-25 -113 -85 -194q-62 -82 -147 -92
q-80 -11 -384 81zM506 337q104 67 140 212q32 127 -81 163q-137 42 -234 -111q-31 -49 -40 -77q-20 -66 30 -105q71 -53 185 -82z" />
    <glyph glyph-name="uniFBAB" unicode="&#x6be;" horiz-adv-x="988" arabic-form="final" 
d="M292 183q301 9 331 165q4 20 4 41q0 110 -153 284q-140 -220 -182 -490zM587 -551q-369 264 -414 551h-184v181l176 -1q32 352 249 644q59 79 118 35q228 -176 228 -449q0 -161 -127 -289q-97 -98 -329 -122q71 -180 238 -308q59 489 440 489h21v-180h-58
q-248 0 -248 -257q0 -97 23 -173z" />
    <glyph glyph-name="uniFBAC" unicode="&#x6be;" horiz-adv-x="1234" arabic-form="initial" 
d="M645 288q175 -61 282 -67q95 157 48 251q-33 67 -201 147q6 -191 -129 -331zM503 142q-213 -141 -454 -141h-61v179h72q193 0 289 35q-106 39 -165 115q-56 74 -33 183q43 199 239 317l-131 54l62 173l381 -180q483 -230 417 -530q-25 -113 -85 -194q-62 -82 -147 -92
q-80 -11 -384 81zM506 337q104 67 140 212q32 127 -81 163q-137 42 -234 -111q-31 -49 -40 -77q-20 -66 30 -105q71 -53 185 -82z" />
    <glyph glyph-name="uniFBAD" unicode="&#x6be;" horiz-adv-x="988" arabic-form="medial" 
d="M292 183q301 9 331 165q4 20 4 41q0 110 -153 284q-140 -220 -182 -490zM587 -551q-369 264 -414 551h-184v181l176 -1q32 352 249 644q59 79 118 35q228 -176 228 -449q0 -161 -127 -289q-97 -98 -329 -122q71 -180 238 -308q59 489 440 489h21v-180h-58
q-248 0 -248 -257q0 -97 23 -173z" />
    <glyph glyph-name="uniFBE8" unicode="&#x649;" horiz-adv-x="632" arabic-form="initial" 
d="M374 347q0 114 -78 330l111 128q15 17 35 -25q87 -179 84 -401q-2 -145 -81 -241q-114 -138 -343 -138h-114v180h111q276 0 275 167z" />
    <glyph glyph-name="uniFBE9" unicode="&#x649;" horiz-adv-x="728" arabic-form="medial" 
d="M111 0h-122v180h97q245 0 259 167l18 223h125l19 -220q14 -170 219 -170h16v-180h-25q-210 0 -292 130q-94 -130 -314 -130z" />
    <glyph glyph-name="uniFBFC" unicode="&#x6cc;" horiz-adv-x="1474" arabic-form="isolated" 
d="M1386 712q-6 -61 -38 -195l-46 2q-192 9 -284 -82q-87 -87 -118 -232l262 -50q153 -30 152 -151q-1 -142 -86 -254q-180 -233 -542 -235q-314 -2 -461 151q-154 162 -108 454q26 169 98 306l111 -31q-114 -352 -31 -518q92 -183 396 -181q309 2 457 174q81 92 9 104
l-244 43q-123 21 -147 84q-23 60 24 219q85 289 315 382q134 55 281 10z" />
    <glyph glyph-name="uniFBFD" unicode="&#x6cc;" horiz-adv-x="1466" arabic-form="final" 
d="M326 329q-109 -315 -39 -480q85 -200 405 -201q301 0 439 137q83 82 -19 153q-70 50 -162 60q-93 9 -104 15q-11 5 -8 32q18 135 89 135h551v-179h-222q93 -68 51 -191q-28 -84 -87 -145q-188 -197 -528 -197q-324 -1 -466 147q-153 160 -109 439q26 169 98 306z" />
    <glyph glyph-name="uniFBFE" unicode="&#x6cc;" horiz-adv-x="629" arabic-form="initial" 
d="M418 -455q-13 -13 -27 0l-111 112q-13 13 1 27l113 113q11 11 22 0l119 -119q9 -8 -3 -19zM115 -203l118 -118q8 -10 -3 -20l-113 -114q-14 -13 -27 0l-112 112q-13 13 1 27l113 113q11 11 23 0zM374 347q0 114 -78 330l111 128q15 17 35 -25q87 -179 84 -401
q-2 -145 -81 -241q-114 -138 -343 -138h-114v180h111q276 0 275 167z" />
    <glyph glyph-name="uniFBFF" unicode="&#x6cc;" horiz-adv-x="728" arabic-form="medial" 
d="M439 -455q-13 -13 -27 0l-111 112q-13 13 1 27l113 113q11 11 22 0l119 -119q9 -8 -3 -19zM136 -203l118 -118q8 -10 -3 -20l-113 -114q-14 -13 -27 0l-112 112q-13 13 1 27l113 113q11 11 23 0zM111 0h-122v180h97q245 0 259 167l18 223h125l19 -220q14 -170 219 -170
h16v-180h-25q-210 0 -292 130q-94 -130 -314 -130z" />
    <glyph glyph-name="uniFDFC" unicode="&#xfdfc;" horiz-adv-x="2787" arabic-form="isolated" 
d="M2518 720q19 25 46 -7q29 -36 71 -141q40 -103 39 -215q0 -188 -117 -362t-439 -296q-11 -4 -20 8q-31 41 -68 131q-5 13 14 19q223 64 334 171t137 211t-100 345zM1714 265l150 -149l-150 -150l-149 150zM2032 265l149 -149l-149 -150l-150 150zM1208 384
q-5 -580 -502 -580q-202 0 -325 92q-157 117 -160 368q-3 200 104 436l101 -33q-126 -409 5 -569q88 -109 295 -107t294 144q33 54 31 154q-18 876 -48 1060l132 89q47 32 49 -35l14 -559q10 -404 10 -460zM1452 844q15 376 -17 518l142 93q39 25 43 -34q5 -86 -1.5 -283
t-2.5 -325.5t35.5 -175t174.5 -46.5h109q103 0 158 67q37 44 7 120.5t-56 142.5l101 115q27 31 57 -33q102 -218 39 -396q-68 -196 -323 -196h-93q-221 0 -296.5 92.5t-76.5 340.5z" />
    <glyph glyph-name="uniFE71" unicode="&#xfe71;" horiz-adv-x="769" arabic-form="medial" 
d="M-11 0v180h271v-180h-271zM54 1113v97l505 206v-97zM54 1399v97l505 206v-97z" />
    <glyph glyph-name="uniFE77" unicode="&#xfe77;" horiz-adv-x="769" arabic-form="medial" 
d="M-5 1292v101l478 195v-101zM-11 0v180h271v-180h-271z" />
    <glyph glyph-name="uniFE79" unicode="&#xfe79;" horiz-adv-x="769" arabic-form="medial" 
d="M520 1419q-55 1 -126 9q-52 -74 -142.5 -130t-217.5 -63v77q153 8 249 112l26 27q-98 27 -137 75q-32 39 -32 97q0 76 58 120q63 48 140 26q39 -10 68 -39q49 -49 49 -126q0 -33 -14 -78l-9 -27l28 -1q32 -2 60 -2v-77zM352 1513q26 60 25 101q-2 60 -45 75
q-39 13 -68 -1q-35 -18 -43 -55q-16 -73 107 -113q11 -3 24 -7zM-11 0v180h271v-180h-271z" />
    <glyph glyph-name="uniFE7B" unicode="&#xfe7b;" horiz-adv-x="769" arabic-form="medial" 
d="M40 -337v101l478 195v-101zM-11 0v180h271v-180h-271z" />
    <glyph glyph-name="uniFE7D" unicode="&#xfe7d;" horiz-adv-x="769" arabic-form="medial" 
d="M318 1610q-1 -109 104 -109q41 0 61 21.5t20 65.5q0 89 -6 131l-1 2l1 1q36 34 77 1l1 -1v-1q11 -78 10 -138q1 -99 -38.5 -149.5t-118.5 -50.5q-94 0 -133 71q-36 -142 -155 -142q-6 0 -11 0.5t-11 0.5q-159 14 -139 238q2 16 4.5 36.5t6.5 45.5l1 1v1q40 38 73 -1l1 -1
v-2q-6 -41 -9 -68.5t-3 -39.5q0 -50 23.5 -74t72.5 -24q43 0 66 31.5t25 96.5q2 46 2 134v1l1 1q39 33 72 0l1 -1v-1q1 -36 2 -77zM-11 0v180h271v-180h-271z" />
    <glyph glyph-name="uniFE7F" unicode="&#xfe7f;" horiz-adv-x="769" arabic-form="medial" 
d="M-11 0v180h271v-180h-271zM441 1613q62 0 104.5 42.5t42.5 104t-42.5 104t-104.5 42.5t-104 -42t-42 -104.5t42 -104.5t104 -42zM666 1760q0 -94 -65 -159.5t-159 -65.5t-159 65.5t-65 159.5t65 159t159 65t159 -65t65 -159z" />
    <glyph glyph-name="uniFE80" unicode="&#x621;" horiz-adv-x="891" arabic-form="isolated" 
d="M682 534q-131 46 -201 41q-69 -5 -118 -57q-49 -51 -47 -72q4 -41 78 -90q74 -50 88 -52t32 0q33 4 114 25l101 26q53 13 56 6q4 -7 -1 -45l-16 -110l-663 -183l69 184l100 28q-143 124 -80 314q45 138 179 186q137 49 281 -24q33 -16 68 -49q-5 -23 -40 -128z" />
    <glyph glyph-name="uniFE81" unicode="&#x622;" horiz-adv-x="609" arabic-form="isolated" 
d="M248.128 -12.8301q-10.8896 1165.68 -35.6396 1312.18l147.509 60.9688q25.7393 10.9189 27.7197 -25.4795q16.8301 -289.372 8.91016 -776.207q-8.91016 -491.386 -12.8701 -498.666q-36.6299 -71.8877 -135.629 -72.7979zM187 1547q-94 -8 -185 -88q-27 18 -43 39
q81 210 181 210q69 0 151 -10.5t117 -10.5q125 0 175 13q53 13 63 6q12 -13 -20 -60q-25 -36 -72 -70q-76 -54 -367 -29z" />
    <glyph glyph-name="uniFE82" unicode="&#x622;" horiz-adv-x="589" arabic-form="final" 
d="M185 795q1 347 -17 516l121 85q41 29 45 -34q12 -246 4 -472q-7 -217 -5 -418q1 -168 46 -230q46 -62 187 -62h26v-180h-51q-283 0 -336 278q-16 84 -18 287q-3 209 -2 230zM188 1600q-94 -8 -185 -88q-27 18 -43 39q81 210 181 210q69 0 151 -10.5t117 -10.5
q125 0 175 13q53 13 63 6q12 -13 -20 -60q-25 -36 -72 -70q-76 -54 -367 -29z" />
    <glyph glyph-name="uniFE83" unicode="&#x623;" horiz-adv-x="526" arabic-form="isolated" 
d="M207.128 -12.8301q-10.8896 1165.68 -35.6396 1312.18l147.509 60.9688q25.7393 10.9189 27.7197 -25.4795q16.8301 -289.372 8.91016 -776.207q-8.91016 -491.386 -12.8701 -498.666q-36.6299 -71.8877 -135.629 -72.7979zM62 1454l21 145q62 29 110 49
q-151 31 -134 166q33 243 233 241q95 0 170 -72l-35 -81q-214 56 -268 -54q-14 -29 -4 -51q47 -108 252 -57q36 10 42 5q14 -12 14 -33l-1 -92q-110 -30 -400 -166z" />
    <glyph glyph-name="uniFE84" unicode="&#x623;" horiz-adv-x="589" arabic-form="final" 
d="M185 795q1 347 -17 516l121 85q41 29 45 -34q12 -246 4 -472q-7 -217 -5 -418q1 -168 46 -230q46 -62 187 -62h26v-180h-51q-283 0 -336 278q-16 84 -18 287q-3 209 -2 230zM49 1460l21 145q62 29 110 49q-151 31 -134 166q33 243 233 241q95 0 170 -72l-35 -81
q-214 56 -268 -54q-14 -29 -4 -51q47 -108 252 -57q36 10 42 5q14 -12 14 -33l-1 -92q-110 -30 -400 -166z" />
    <glyph glyph-name="uniFE85" unicode="&#x624;" horiz-adv-x="823" arabic-form="isolated" 
d="M200 810l21 145q62 29 110 49q-151 31 -134 166q33 243 233 241q95 0 170 -72l-35 -81q-214 56 -268 -54q-14 -29 -4 -51q47 -108 252 -57q36 10 42 5q14 -12 14 -33l-1 -92q-110 -30 -400 -166zM75 -401q450 117 502 402l-141 -4q-197 -6 -272 90q-76 97 -49 264
q25 159 108 254q82 93 182 93q168 -1 260 -183q68 -134 70 -347q1 -89 -12 -167q-16 -98 -54 -177q-83 -173 -272 -274q-125 -70 -209 -89q-51 -12 -69 9q-37 44 -50 70q-25 50 6 59zM584 177q-13 204 -70 277q-46 58 -119 58q-85 0 -122 -106q-25 -70 -19 -133
q15 -130 330 -96z" />
    <glyph glyph-name="uniFE86" unicode="&#x624;" horiz-adv-x="870" arabic-form="final" 
d="M203 810l21 145q62 29 110 49q-151 31 -134 166q33 243 233 241q95 0 170 -72l-35 -81q-214 56 -268 -54q-14 -29 -4 -51q47 -108 252 -57q36 10 42 5q14 -12 14 -33l-1 -92q-110 -30 -400 -166zM577 1h-136q-199 -2 -264 70q-90 96 -62 274q27 164 111 260
q112 129 267 79q115 -38 182 -184q54 -119 58 -321l140 1v-180l-150 1q-16 -98 -54 -177q-82 -171 -272 -274q-130 -71 -209 -89q-51 -12 -69 9q-37 44 -50 70q-25 50 6 59q450 117 502 402zM584 181q-15 188 -69 267q-43 63 -115 63q-90 0 -126 -109q-57 -175 44 -212
q45 -16 266 -9z" />
    <glyph glyph-name="uniFE87" unicode="&#x625;" horiz-adv-x="484" arabic-form="isolated" 
d="M44 -712l21 145q62 29 110 49q-151 31 -134 166q33 243 233 241q95 0 170 -72l-35 -81q-214 56 -268 -54q-14 -29 -4 -51q47 -108 252 -57q36 10 42 5q14 -12 14 -33l-1 -92q-110 -30 -400 -166zM187 -13q-11 1281 -36 1442l149 67q26 12 28 -28q17 -318 9 -853
q-9 -540 -13 -548q-37 -79 -137 -80z" />
    <glyph glyph-name="uniFE88" unicode="&#x625;" horiz-adv-x="561" arabic-form="final" 
d="M109 -675l21 145q62 29 110 49q-151 31 -134 166q33 243 233 241q95 0 170 -72l-35 -81q-214 56 -268 -54q-14 -29 -4 -51q47 -108 252 -57q36 10 42 5q14 -12 14 -33l-1 -92q-110 -30 -400 -166zM160 885q6 391 -10 544l136 67q27 13 30 -29q9 -153 4 -487
q-6 -385 -5 -508q1 -182 41 -235q44 -57 182 -57h36v-180h-71q-313 0 -335 350q-13 203 -8 535z" />
    <glyph glyph-name="uniFE89" unicode="&#x626;" horiz-adv-x="1474" arabic-form="isolated" 
d="M296 609l21 145q62 29 110 49q-151 31 -134 166q33 243 233 241q95 0 170 -72l-35 -81q-214 56 -268 -54q-14 -29 -4 -51q47 -108 252 -57q36 10 42 5q14 -12 14 -33l-1 -92q-110 -30 -400 -166zM1386 712q-6 -61 -38 -195l-46 2q-192 9 -284 -82q-87 -87 -118 -232
l262 -50q153 -30 152 -151q-1 -142 -86 -254q-180 -233 -542 -235q-314 -2 -461 151q-154 162 -108 454q26 169 98 306l111 -31q-114 -352 -31 -518q92 -183 396 -181q309 2 457 174q81 92 9 104l-244 43q-123 21 -147 84q-23 60 24 219q85 289 315 382q134 55 281 10z" />
    <glyph glyph-name="uniFE8A" unicode="&#x626;" horiz-adv-x="1494" arabic-form="final" 
d="M462 483l21 145q62 29 110 49q-151 31 -134 166q33 243 233 241q95 0 170 -72l-35 -81q-214 56 -268 -54q-14 -29 -4 -51q47 -108 252 -57q36 10 42 5q14 -12 14 -33l-1 -92q-110 -30 -400 -166zM326 329q-109 -315 -39 -480q85 -200 405 -201q301 0 439 137
q83 82 -19 153q-70 50 -162 60q-93 9 -104 15q-11 5 -8 32q18 135 89 135h551v-179h-222q93 -68 51 -191q-28 -84 -87 -145q-188 -197 -528 -197q-324 -1 -466 147q-153 160 -109 439q26 169 98 306z" />
    <glyph glyph-name="uniFE8B" unicode="&#x626;" horiz-adv-x="632" arabic-form="initial" 
d="M105 931l21 145q62 29 110 49q-151 31 -134 166q33 243 233 241q95 0 170 -72l-35 -81q-214 56 -268 -54q-14 -29 -4 -51q47 -108 252 -57q36 10 42 5q14 -12 14 -33l-1 -92q-110 -30 -400 -166zM374 347q0 114 -78 330l111 128q15 17 35 -25q87 -179 84 -401
q-2 -145 -81 -241q-114 -138 -343 -138h-114v180h111q276 0 275 167z" />
    <glyph glyph-name="uniFE8C" unicode="&#x626;" horiz-adv-x="728" arabic-form="medial" 
d="M137 750l21 145q62 29 110 49q-151 31 -134 166q33 243 233 241q95 0 170 -72l-35 -81q-214 56 -268 -54q-14 -29 -4 -51q47 -108 252 -57q36 10 42 5q14 -12 14 -33l-1 -92q-110 -30 -400 -166zM111 0h-122v180h97q245 0 259 167l18 223h125l19 -220q14 -170 219 -170
h16v-180h-25q-210 0 -292 130q-94 -130 -314 -130z" />
    <glyph glyph-name="uniFE8D" unicode="&#x627;" horiz-adv-x="484" arabic-form="isolated" 
d="M187 -13q-11 1281 -36 1442l149 67q26 12 28 -28q17 -318 9 -853q-9 -540 -13 -548q-37 -79 -137 -80z" />
    <glyph glyph-name="uniFE8E" unicode="&#x627;" horiz-adv-x="561" arabic-form="final" 
d="M160 885q6 391 -10 544l136 67q27 13 30 -29q9 -153 4 -487q-6 -385 -5 -508q1 -182 41 -235q44 -57 182 -57h36v-180h-71q-313 0 -335 350q-13 203 -8 535z" />
    <glyph glyph-name="uniFE8F" unicode="&#x628;" horiz-adv-x="1809" arabic-form="isolated" 
d="M938 -195l124 -124q8 -9 -3 -21l-118 -119q-15 -13 -29 1l-116 116q-14 14 0 28l119 119q12 11 23 0zM286 732q-33 -124 -33 -216q0 -91 47 -160q113 -167 504 -171q537 -5 723 146q58 48 -59 393l109 129q17 20 39 -23q81 -155 81 -359q0 -114 -43 -203
q-128 -266 -810 -266q-358 0 -537 99q-203 112 -203 357q1 149 81 309z" />
    <glyph glyph-name="uniFE90" unicode="&#x628;" horiz-adv-x="1972" arabic-form="final" 
d="M918 -195l124 -124q8 -9 -3 -21l-118 -119q-15 -13 -29 1l-116 116q-14 14 0 28l119 119q12 11 23 0zM1959 0q-286 0 -340 226q-169 -224 -793 -224q-349 0 -521 97q-202 112 -201 359q1 149 81 309l101 -35q-69 -253 9 -370q114 -169 459 -178q91 -2 163 -2q52 0 132 6
q79 5 146 16q348 58 401 297l17 76l117 -13l-2 -35q-14 -348 223 -348h34v-181h-26z" />
    <glyph glyph-name="uniFE91" unicode="&#x628;" horiz-adv-x="632" arabic-form="initial" 
d="M226 -193l124 -124q8 -9 -3 -21l-118 -119q-15 -13 -29 1l-116 116q-14 14 0 28l119 119q12 11 23 0zM374 347q0 114 -78 330l111 128q15 17 35 -25q87 -179 84 -401q-2 -145 -81 -241q-114 -138 -343 -138h-114v180h111q276 0 275 167z" />
    <glyph glyph-name="uniFE92" unicode="&#x628;" horiz-adv-x="728" arabic-form="medial" 
d="M269 -194l124 -124q8 -9 -3 -21l-118 -119q-15 -13 -29 1l-116 116q-14 14 0 28l119 119q12 11 23 0zM111 0h-122v180h97q245 0 259 167l18 223h125l19 -220q14 -170 219 -170h16v-180h-25q-210 0 -292 130q-94 -130 -314 -130z" />
    <glyph glyph-name="uniFE93" unicode="&#x629;" horiz-adv-x="873" arabic-form="isolated" 
d="M577 1025q-13 -13 -27 0l-111 112q-13 13 1 27l113 113q11 11 22 0l119 -119q9 -8 -3 -19zM274 1277l118 -118q8 -10 -3 -20l-113 -114q-14 -13 -27 0l-112 112q-13 13 1 27l113 113q11 11 23 0zM368 597q-123 -166 -124 -285q-1 -126 204 -126q173 0 195 108
q26 130 -206 266q-55 32 -69 37zM313 776q19 26 35.5 26t26.5 -4q401 -152 401 -465q0 -152 -92 -239.5t-251.5 -87.5t-258.5 113q-65 72 -65 177q0 197 204 480z" />
    <glyph glyph-name="uniFE94" unicode="&#x629;" horiz-adv-x="1016" arabic-form="final" 
d="M732 1172q-13 -13 -27 0l-111 112q-13 13 1 27l113 113q11 11 22 0l119 -119q9 -8 -3 -19zM429 1424l118 -118q8 -10 -3 -20l-113 -114q-14 -13 -27 0l-112 112q-13 13 1 27l113 113q11 11 23 0zM234 393q32 -67 279 -63l142 3l-67 300q-269 -84 -322 -140t-32 -100z
M1010 0q-241 0 -326 237l-172 -102h-1q-94 2 -196 20.5t-136 31.5q-70 28 -77 74q-21 141 4 227q53 180 449 315l-13 67l81 96q47 55 64 -26l110 -530q48 -230 194 -230h38v-180h-19z" />
    <glyph glyph-name="uniFE95" unicode="&#x62a;" horiz-adv-x="1809" arabic-form="isolated" 
d="M1045 866q-13 -13 -27 0l-111 112q-13 13 1 27l113 113q11 11 22 0l119 -119q9 -8 -3 -19zM742 1118l118 -118q8 -10 -3 -20l-113 -114q-14 -13 -27 0l-112 112q-13 13 1 27l113 113q11 11 23 0zM286 732q-33 -124 -33 -216q0 -91 47 -160q113 -167 504 -171
q537 -5 723 146q58 48 -59 393l109 129q17 20 39 -23q81 -155 81 -359q0 -114 -43 -203q-128 -266 -810 -266q-358 0 -537 99q-203 112 -203 357q1 149 81 309z" />
    <glyph glyph-name="uniFE96" unicode="&#x62a;" horiz-adv-x="1972" arabic-form="final" 
d="M1087 811q-13 -13 -27 0l-111 112q-13 13 1 27l113 113q11 11 22 0l119 -119q9 -8 -3 -19zM784 1063l118 -118q8 -10 -3 -20l-113 -114q-14 -13 -27 0l-112 112q-13 13 1 27l113 113q11 11 23 0zM1959 0q-286 0 -340 226q-169 -224 -793 -224q-349 0 -521 97
q-202 112 -201 359q1 149 81 309l101 -35q-69 -253 9 -370q114 -169 459 -178q91 -2 163 -2q52 0 132 6q79 5 146 16q348 58 401 297l17 76l117 -13l-2 -35q-14 -348 223 -348h34v-181h-26z" />
    <glyph glyph-name="uniFE97" unicode="&#x62a;" horiz-adv-x="666" arabic-form="initial" 
d="M439 975q-13 -13 -27 0l-111 112q-13 13 1 27l113 113q11 11 22 0l119 -119q9 -8 -3 -19zM136 1227l118 -118q8 -10 -3 -20l-113 -114q-14 -13 -27 0l-112 112q-13 13 1 27l113 113q11 11 23 0zM374 347q0 114 -78 330l111 128q15 17 35 -25q87 -179 84 -401
q-2 -145 -81 -241q-114 -138 -343 -138h-114v180h111q276 0 275 167z" />
    <glyph glyph-name="uniFE98" unicode="&#x62a;" horiz-adv-x="728" arabic-form="medial" 
d="M482 857q-13 -13 -27 0l-111 112q-13 13 1 27l113 113q11 11 22 0l119 -119q9 -8 -3 -19zM179 1109l118 -118q8 -10 -3 -20l-113 -114q-14 -13 -27 0l-112 112q-13 13 1 27l113 113q11 11 23 0zM111 0h-122v180h97q245 0 259 167l18 223h125l19 -220q14 -170 219 -170h16
v-180h-25q-210 0 -292 130q-94 -130 -314 -130z" />
    <glyph glyph-name="uniFE99" unicode="&#x62b;" horiz-adv-x="1809" arabic-form="isolated" 
d="M898 1263l111 -111q6 -6 1 -12l-110 -109q-7 -8 -15 0l-107 107q-8 8 0 16l109 109q6 5 11 0zM1044 1037l112 -112q5 -5 0 -11l-110 -110q-7 -7 -15 1l-107 107q-8 8 0 16l109 109q6 5 11 0zM864 914l-109 -109q-8 -8 -16 0l-107 107q-8 8 0 16l109 109q7 4 11 0
l111 -111q6 -6 1 -12zM286 732q-33 -124 -33 -216q0 -91 47 -160q113 -167 504 -171q537 -5 723 146q58 48 -59 393l109 129q17 20 39 -23q81 -155 81 -359q0 -114 -43 -203q-128 -266 -810 -266q-358 0 -537 99q-203 112 -203 357q1 149 81 309z" />
    <glyph glyph-name="uniFE9A" unicode="&#x62b;" horiz-adv-x="1972" arabic-form="final" 
d="M929 1200l111 -111q6 -6 1 -12l-110 -109q-7 -8 -15 0l-107 107q-8 8 0 16l109 109q6 5 11 0zM1075 974l112 -112q5 -5 0 -11l-110 -110q-7 -7 -15 1l-107 107q-8 8 0 16l109 109q6 5 11 0zM895 851l-109 -109q-8 -8 -16 0l-107 107q-8 8 0 16l109 109q7 4 11 0l111 -111
q6 -6 1 -12zM1959 0q-286 0 -340 226q-169 -224 -793 -224q-349 0 -521 97q-202 112 -201 359q1 149 81 309l101 -35q-69 -253 9 -370q114 -169 459 -178q91 -2 163 -2q52 0 132 6q79 5 146 16q348 58 401 297l17 76l117 -13l-2 -35q-14 -348 223 -348h34v-181h-26z" />
    <glyph glyph-name="uniFE9B" unicode="&#x62b;" horiz-adv-x="664" arabic-form="initial" 
d="M286 1402l111 -111q6 -6 1 -12l-110 -109q-7 -8 -15 0l-107 107q-8 8 0 16l109 109q6 5 11 0zM432 1176l112 -112q5 -5 0 -11l-110 -110q-7 -7 -15 1l-107 107q-8 8 0 16l109 109q6 5 11 0zM252 1053l-109 -109q-8 -8 -16 0l-107 107q-8 8 0 16l109 109q7 4 11 0
l111 -111q6 -6 1 -12zM374 347q0 114 -78 330l111 128q15 17 35 -25q87 -179 84 -401q-2 -145 -81 -241q-114 -138 -343 -138h-114v180h111q276 0 275 167z" />
    <glyph glyph-name="uniFE9C" unicode="&#x62b;" horiz-adv-x="728" arabic-form="medial" 
d="M301 1276l111 -111q6 -6 1 -12l-110 -109q-7 -8 -15 0l-107 107q-8 8 0 16l109 109q6 5 11 0zM447 1050l112 -112q5 -5 0 -11l-110 -110q-7 -7 -15 1l-107 107q-8 8 0 16l109 109q6 5 11 0zM267 927l-109 -109q-8 -8 -16 0l-107 107q-8 8 0 16l109 109q7 4 11 0l111 -111
q6 -6 1 -12zM111 0h-122v180h97q245 0 259 167l18 223h125l19 -220q14 -170 219 -170h16v-180h-25q-210 0 -292 130q-94 -130 -314 -130z" />
    <glyph glyph-name="uniFE9D" unicode="&#x62c;" horiz-adv-x="1335" arabic-form="isolated" 
d="M822 137l124 -124q8 -9 -3 -21l-118 -119q-15 -13 -29 1l-116 116q-14 14 0 28l119 119q12 11 23 0zM1209 -404q18 -2 1 -108q-9 -61 -13 -66q-5 -6 -25 -10q-147 -25 -330 -25q-143 0 -258 19q-184 30 -285 118q-157 136 -157 363q0 396 346 610q125 77 306 113
q-117 22 -186 38q-134 30 -199 30q-108 0 -205 -119q-49 18 -92 48q63 152 163 221q51 37 108 37q56 0 165 -25t451 -122q120 -35 223 -32q19 1 12 -15l-71 -168q-315 -9 -553 -132q-321 -165 -321 -455q1 -352 519 -350q151 1 234 11t167 19z" />
    <glyph glyph-name="uniFE9E" unicode="&#x62c;" horiz-adv-x="1339" arabic-form="final" 
d="M714 94l124 -124q8 -9 -3 -21l-118 -119q-15 -13 -29 1l-116 116q-14 14 0 28l119 119q12 11 23 0zM488 497q124 75 307 112q-110 21 -165 33q-215 49 -284 27q-69 -23 -141 -111q-49 18 -92 48q41 97 114 180q74 83 178 78q111 -4 595 -147q116 -35 222 -32q20 1 14 -14
l-72 -169q-73 -8 -146 -17q22 -304 307 -304h27v-181h-16q-411 0 -448 423l-4 39q-141 -25 -274 -91q-321 -157 -321 -455q0 -352 519 -350q101 1 184 11t167 19q13 -1 1 -108q-5 -48 -9 -60t-29 -16q-153 -25 -280 -25q-143 0 -258 19q-184 30 -285 118q-157 136 -157 363
q0 399 346 610z" />
    <glyph glyph-name="uniFE9F" unicode="&#x62c;" horiz-adv-x="1300" arabic-form="initial" 
d="M579 -193l124 -124q8 -9 -3 -21l-118 -119q-15 -13 -29 1l-116 116q-14 14 0 28l119 119q12 11 23 0zM920 426q-59 13 -304 108q-142 56 -228 56q-107 0 -217 -134l-83 41l9 22q104 260 323 259q84 -1 281 -93q341 -158 543 -159q28 0 19 -30l-45 -151q-158 -4 -480 -187
q-279 -158 -575 -158h-174v180h208q249 0 533 148z" />
    <glyph glyph-name="uniFEA0" unicode="&#x62c;" horiz-adv-x="1316" arabic-form="medial" 
d="M579 -193l124 -124q8 -9 -3 -21l-118 -119q-15 -13 -29 1l-116 116q-14 14 0 28l119 119q12 11 23 0zM880 233q-92 -40 -159 -76q-298 -157 -558 -157h-174v180h208q247 0 529 146l194 100q-95 25 -304 108q-139 56 -225 56q-109 0 -219 -134l-85 40l8 20
q107 263 325 262q84 -1 281 -93q338 -158 543 -159q28 0 19 -30l-45 -151q-102 -2 -228 -60q0 -105 133 -105h208v-180h-190q-246 0 -261 233z" />
    <glyph glyph-name="uniFEA1" unicode="&#x62d;" horiz-adv-x="1335" arabic-form="isolated" 
d="M1209 -404q18 -2 1 -108q-9 -61 -13 -66q-5 -6 -25 -10q-147 -25 -330 -25q-143 0 -258 19q-184 30 -285 118q-157 136 -157 363q0 396 346 610q125 77 306 113q-117 22 -186 38q-134 30 -199 30q-108 0 -205 -119q-49 18 -92 48q63 152 163 221q51 37 108 37
q56 0 165 -25t451 -122q120 -35 223 -32q19 1 12 -15l-71 -168q-315 -9 -553 -132q-321 -165 -321 -455q1 -352 519 -350q151 1 234 11t167 19z" />
    <glyph glyph-name="uniFEA2" unicode="&#x62d;" horiz-adv-x="1339" arabic-form="final" 
d="M488 497q124 75 307 112q-110 21 -165 33q-215 49 -284 27q-69 -23 -141 -111q-49 18 -92 48q41 97 114 180q74 83 178 78q111 -4 595 -147q116 -35 222 -32q20 1 14 -14l-72 -169q-73 -8 -146 -17q22 -304 307 -304h27v-181h-16q-411 0 -448 423l-4 39
q-141 -25 -274 -91q-321 -157 -321 -455q0 -352 519 -350q101 1 184 11t167 19q13 -1 1 -108q-5 -48 -9 -60t-29 -16q-153 -25 -280 -25q-143 0 -258 19q-184 30 -285 118q-157 136 -157 363q0 399 346 610z" />
    <glyph glyph-name="uniFEA3" unicode="&#x62d;" horiz-adv-x="1300" arabic-form="initial" 
d="M920 426q-59 13 -304 108q-142 56 -228 56q-107 0 -217 -134l-83 41l9 22q104 260 323 259q84 -1 281 -93q341 -158 543 -159q28 0 19 -30l-45 -151q-158 -4 -480 -187q-279 -158 -575 -158h-174v180h208q249 0 533 148z" />
    <glyph glyph-name="uniFEA4" unicode="&#x62d;" horiz-adv-x="1316" arabic-form="medial" 
d="M880 233q-92 -40 -159 -76q-298 -157 -558 -157h-174v180h208q247 0 529 146l194 100q-95 25 -304 108q-139 56 -225 56q-109 0 -219 -134l-85 40l8 20q107 263 325 262q84 -1 281 -93q338 -158 543 -159q28 0 19 -30l-45 -151q-102 -2 -228 -60q0 -105 133 -105h208
v-180h-190q-246 0 -261 233z" />
    <glyph glyph-name="uniFEA5" unicode="&#x62e;" horiz-adv-x="1335" arabic-form="isolated" 
d="M636 1356l124 -124q8 -9 -3 -21l-118 -119q-15 -13 -29 1l-116 116q-14 14 0 28l119 119q12 11 23 0zM1209 -404q18 -2 1 -108q-9 -61 -13 -66q-5 -6 -25 -10q-147 -25 -330 -25q-143 0 -258 19q-184 30 -285 118q-157 136 -157 363q0 396 346 610q125 77 306 113
q-117 22 -186 38q-134 30 -199 30q-108 0 -205 -119q-49 18 -92 48q63 152 163 221q51 37 108 37q56 0 165 -25t451 -122q120 -35 223 -32q19 1 12 -15l-71 -168q-315 -9 -553 -132q-321 -165 -321 -455q1 -352 519 -350q151 1 234 11t167 19z" />
    <glyph glyph-name="uniFEA6" unicode="&#x62e;" horiz-adv-x="1339" arabic-form="final" 
d="M636 1355l124 -124q8 -9 -3 -21l-118 -119q-15 -13 -29 1l-116 116q-14 14 0 28l119 119q12 11 23 0zM488 497q124 75 307 112q-110 21 -165 33q-215 49 -284 27q-69 -23 -141 -111q-49 18 -92 48q41 97 114 180q74 83 178 78q111 -4 595 -147q116 -35 222 -32
q20 1 14 -14l-72 -169q-73 -8 -146 -17q22 -304 307 -304h27v-181h-16q-411 0 -448 423l-4 39q-141 -25 -274 -91q-321 -157 -321 -455q0 -352 519 -350q101 1 184 11t167 19q13 -1 1 -108q-5 -48 -9 -60t-29 -16q-153 -25 -280 -25q-143 0 -258 19q-184 30 -285 118
q-157 136 -157 363q0 399 346 610z" />
    <glyph glyph-name="uniFEA7" unicode="&#x62e;" horiz-adv-x="1300" arabic-form="initial" 
d="M528 1342l124 -124q8 -9 -3 -21l-118 -119q-15 -13 -29 1l-116 116q-14 14 0 28l119 119q12 11 23 0zM920 426q-59 13 -304 108q-142 56 -228 56q-107 0 -217 -134l-83 41l9 22q104 260 323 259q84 -1 281 -93q341 -158 543 -159q28 0 19 -30l-45 -151q-158 -4 -480 -187
q-279 -158 -575 -158h-174v180h208q249 0 533 148z" />
    <glyph glyph-name="uniFEA8" unicode="&#x62e;" horiz-adv-x="1316" arabic-form="medial" 
d="M528 1340l124 -124q8 -9 -3 -21l-118 -119q-15 -13 -29 1l-116 116q-14 14 0 28l119 119q12 11 23 0zM880 233q-92 -40 -159 -76q-298 -157 -558 -157h-174v180h208q247 0 529 146l194 100q-95 25 -304 108q-139 56 -225 56q-109 0 -219 -134l-85 40l8 20
q107 263 325 262q84 -1 281 -93q338 -158 543 -159q28 0 19 -30l-45 -151q-102 -2 -228 -60q0 -105 133 -105h208v-180h-190q-246 0 -261 233z" />
    <glyph glyph-name="uniFEA9" unicode="&#x62f;" horiz-adv-x="1031" arabic-form="isolated" 
d="M231 326q-3 -58 18 -85q49 -61 169 -61q196 0 320 74q65 39 13 144q-86 173 -397 390l64 171q11 28 53 -6q448 -351 448 -602q0 -74 -29 -132q-106 -217 -473 -216q-377 0 -297 334z" />
    <glyph glyph-name="uniFEAA" unicode="&#x62f;" horiz-adv-x="1142" arabic-form="final" 
d="M231 326q-1 -19 -1 -22q2 -124 182 -124q160 0 260 62q79 49 61 111q-4 14 -8 29l-152 496l110 127q30 35 44 -12l160 -556q73 -256 249 -256h20v-181h-24q-205 0 -305 195q-131 -197 -415 -195q-309 3 -308 228q0 30 19 109z" />
    <glyph glyph-name="uniFEAB" unicode="&#x630;" horiz-adv-x="1031" arabic-form="isolated" 
d="M414 1505l124 -124q8 -9 -3 -21l-118 -119q-15 -13 -29 1l-116 116q-14 14 0 28l119 119q12 11 23 0zM231 326q-3 -58 18 -85q49 -61 169 -61q196 0 320 74q65 39 13 144q-86 173 -397 390l64 171q11 28 53 -6q448 -351 448 -602q0 -74 -29 -132q-106 -217 -473 -216
q-377 0 -297 334z" />
    <glyph glyph-name="uniFEAC" unicode="&#x630;" horiz-adv-x="1142" arabic-form="final" 
d="M609 1475l124 -124q8 -9 -3 -21l-118 -119q-15 -13 -29 1l-116 116q-14 14 0 28l119 119q12 11 23 0zM231 326q-1 -19 -1 -22q2 -124 182 -124q160 0 260 62q79 49 61 111q-4 14 -8 29l-152 496l110 127q30 35 44 -12l160 -556q73 -256 249 -256h20v-181h-24
q-205 0 -305 195q-131 -197 -415 -195q-309 3 -308 228q0 30 19 109z" />
    <glyph glyph-name="uniFEAD" unicode="&#x631;" horiz-adv-x="778" arabic-form="isolated" 
d="M29 -401q476 125 511 472q12 116 -109 347l104 132q13 16 18 15q19 -2 58 -74q85 -158 85 -363q0 -179 -98 -339q-90 -148 -253 -243q-108 -63 -204 -85q-52 -12 -68 9q-40 51 -51 71q-27 49 7 58z" />
    <glyph glyph-name="uniFEAE" unicode="&#x631;" horiz-adv-x="863" arabic-form="final" 
d="M431 418l104 132q24 30 49 -13q32 -55 83 -209q49 -148 171 -148h38v-180h-33q-81 0 -153 50q-20 -125 -73 -229q-89 -171 -274 -274q-115 -64 -202 -87q-44 -11 -68 10q-19 18 -50 71q-29 49 7 58q476 124 510 471q12 116 -109 348z" />
    <glyph glyph-name="uniFEAF" unicode="&#x632;" horiz-adv-x="778" arabic-form="isolated" 
d="M480 1088l124 -124q8 -9 -3 -21l-118 -119q-15 -13 -29 1l-116 116q-14 14 0 28l119 119q12 11 23 0zM29 -401q476 125 511 472q12 116 -109 347l104 132q13 16 18 15q19 -2 58 -74q85 -158 85 -363q0 -179 -98 -339q-90 -148 -253 -243q-108 -63 -204 -85q-52 -12 -68 9
q-40 51 -51 71q-27 49 7 58z" />
    <glyph glyph-name="uniFEB0" unicode="&#x632;" horiz-adv-x="863" arabic-form="final" 
d="M462 1084l124 -124q8 -9 -3 -21l-118 -119q-15 -13 -29 1l-116 116q-14 14 0 28l119 119q12 11 23 0zM431 418l104 132q24 30 49 -13q32 -55 83 -209q49 -148 171 -148h38v-180h-33q-81 0 -153 50q-20 -125 -73 -229q-89 -171 -274 -274q-115 -64 -202 -87
q-44 -11 -68 10q-19 18 -50 71q-29 49 7 58q476 124 510 471q12 116 -109 348z" />
    <glyph glyph-name="uniFEB1" unicode="&#x633;" horiz-adv-x="2350" arabic-form="isolated" 
d="M1924 1q-156 0 -244 128q-96 -128 -206 -127q-122 1 -167 48q3 -51 -14 -135q-94 -456 -627 -454q-211 1 -358 94q-200 128 -201 407q-1 195 103 423l110 -33q-57 -187 -57 -339q0 -372 415 -372q315 0 435 195q42 67 42 146q0 65 -117 356l96 147q24 31 51 -29
q76 -165 76 -167q63 -109 188 -104q144 6 155 137l16 199h123l16 -195q11 -143 162 -144q168 0 166 163q-1 54 -79 270l109 126q17 20 38 -23q86 -177 83 -341q-2 -143 -81 -251q-92 -125 -233 -125z" />
    <glyph glyph-name="uniFEB2" unicode="&#x633;" horiz-adv-x="2508" arabic-form="final" 
d="M1305 50q4 -64 -13 -143q-99 -447 -626 -446q-215 1 -357 92q-199 128 -202 404q-2 196 103 428l110 -33q-57 -187 -57 -339q0 -372 415 -372q315 0 435 195q42 67 42 146q0 65 -117 356l96 147q24 31 51 -29q75 -164 76 -167q58 -107 200 -109q144 -2 156 143l16 198
h123l16 -194q13 -156 170 -157q148 0 157 157l13 213h128l15 -213q10 -146 237 -146h29v-181h-34q-251 0 -309 131q-85 -133 -243 -133q-149 0 -242 130q-100 -131 -219 -130q-123 1 -169 52z" />
    <glyph glyph-name="uniFEB3" unicode="&#x633;" horiz-adv-x="1571" arabic-form="initial" 
d="M1155 180q168 0 166 163q-1 54 -79 270l109 126q17 20 38 -23q86 -177 83 -341q-2 -143 -81 -251q-93 -128 -233 -125q-179 4 -248 130q-100 -132 -243 -132q-175 1 -248 132q-84 -129 -306 -129h-125v180h130q217 0 229 145l16 198h124l16 -194q11 -147 165 -149
q152 -2 164 146l17 196h123l16 -192q12 -150 167 -150z" />
    <glyph glyph-name="uniFEB4" unicode="&#x633;" horiz-adv-x="1721" arabic-form="medial" 
d="M1707 0q-253 0 -313 136q-64 -136 -229 -135q-161 1 -245 129q-87 -129 -250 -129q-156 0 -245 125q-87 -126 -304 -126h-133v180h140q217 0 229 146l16 196h124l15 -192q13 -150 164 -148q154 2 166 146l17 194h123l16 -190q12 -155 180 -151q128 4 137 154l13 205h128
l15 -205q11 -154 237 -154h28v-181h-29z" />
    <glyph glyph-name="uniFEB5" unicode="&#x634;" horiz-adv-x="2350" arabic-form="isolated" 
d="M1689 1302l111 -111q6 -6 1 -12l-110 -109q-7 -8 -15 0l-107 107q-8 8 0 16l109 109q6 5 11 0zM1835 1076l112 -112q5 -5 0 -11l-110 -110q-7 -7 -15 1l-107 107q-8 8 0 16l109 109q6 5 11 0zM1655 953l-109 -109q-8 -8 -16 0l-107 107q-8 8 0 16l109 109q7 4 11 0
l111 -111q6 -6 1 -12zM1924 1q-156 0 -244 128q-96 -128 -206 -127q-122 1 -167 48q3 -51 -14 -135q-94 -456 -627 -454q-211 1 -358 94q-200 128 -201 407q-1 195 103 423l110 -33q-57 -187 -57 -339q0 -372 415 -372q315 0 435 195q42 67 42 146q0 65 -117 356l96 147
q24 31 51 -29q76 -165 76 -167q63 -109 188 -104q144 6 155 137l16 199h123l16 -195q11 -143 162 -144q168 0 166 163q-1 54 -79 270l109 126q17 20 38 -23q86 -177 83 -341q-2 -143 -81 -251q-92 -125 -233 -125z" />
    <glyph glyph-name="uniFEB6" unicode="&#x634;" horiz-adv-x="2508" arabic-form="final" 
d="M1695 1301l111 -111q6 -6 1 -12l-110 -109q-7 -8 -15 0l-107 107q-8 8 0 16l109 109q6 5 11 0zM1841 1075l112 -112q5 -5 0 -11l-110 -110q-7 -7 -15 1l-107 107q-8 8 0 16l109 109q6 5 11 0zM1661 952l-109 -109q-8 -8 -16 0l-107 107q-8 8 0 16l109 109q7 4 11 0
l111 -111q6 -6 1 -12zM1305 50q4 -64 -13 -143q-99 -447 -626 -446q-215 1 -357 92q-199 128 -202 404q-2 196 103 428l110 -33q-57 -187 -57 -339q0 -372 415 -372q315 0 435 195q42 67 42 146q0 65 -117 356l96 147q24 31 51 -29q75 -164 76 -167q58 -107 200 -109
q144 -2 156 143l16 198h123l16 -194q13 -156 170 -157q148 0 157 157l13 213h128l15 -213q10 -146 237 -146h29v-181h-34q-251 0 -309 131q-85 -133 -243 -133q-149 0 -242 130q-100 -131 -219 -130q-123 1 -169 52z" />
    <glyph glyph-name="uniFEB7" unicode="&#x634;" horiz-adv-x="1571" arabic-form="initial" 
d="M855 1301l111 -111q6 -6 1 -12l-110 -109q-7 -8 -15 0l-107 107q-8 8 0 16l109 109q6 5 11 0zM1001 1075l112 -112q5 -5 0 -11l-110 -110q-7 -7 -15 1l-107 107q-8 8 0 16l109 109q6 5 11 0zM821 952l-109 -109q-8 -8 -16 0l-107 107q-8 8 0 16l109 109q7 4 11 0
l111 -111q6 -6 1 -12zM1155 180q168 0 166 163q-1 54 -79 270l109 126q17 20 38 -23q86 -177 83 -341q-2 -143 -81 -251q-93 -128 -233 -125q-179 4 -248 130q-100 -132 -243 -132q-175 1 -248 132q-84 -129 -306 -129h-125v180h130q217 0 229 145l16 198h124l16 -194
q11 -147 165 -149q152 -2 164 146l17 196h123l16 -192q12 -150 167 -150z" />
    <glyph glyph-name="uniFEB8" unicode="&#x634;" horiz-adv-x="1721" arabic-form="medial" 
d="M894 1301l111 -111q6 -6 1 -12l-110 -109q-7 -8 -15 0l-107 107q-8 8 0 16l109 109q6 5 11 0zM1040 1075l112 -112q5 -5 0 -11l-110 -110q-7 -7 -15 1l-107 107q-8 8 0 16l109 109q6 5 11 0zM860 952l-109 -109q-8 -8 -16 0l-107 107q-8 8 0 16l109 109q7 4 11 0
l111 -111q6 -6 1 -12zM1707 0q-253 0 -313 136q-64 -136 -229 -135q-161 1 -245 129q-87 -129 -250 -129q-156 0 -245 125q-87 -126 -304 -126h-133v180h140q217 0 229 146l16 196h124l15 -192q13 -150 164 -148q154 2 166 146l17 194h123l16 -190q12 -155 180 -151
q128 4 137 154l13 205h128l15 -205q11 -154 237 -154h28v-181h-29z" />
    <glyph glyph-name="uniFEB9" unicode="&#x635;" horiz-adv-x="2629" arabic-form="isolated" 
d="M1602 182h311q260 0 364 81q74 57 75 159q0 63 -39 112q-45 56 -147 56q-226 0 -564 -408zM1261 279q55 -93 191 -94q366 583 722 581q108 0 184 -44q161 -93 156 -295q-4 -183 -166 -301q-171 -126 -526 -126h-235q-218 0 -281 50q4 -59 -13 -138q-97 -452 -627 -451
q-212 1 -356 93q-202 128 -203 404q-2 194 103 427l110 -33q-57 -187 -57 -339q0 -372 415 -372q315 0 435 195q42 67 42 146q0 65 -117 356l96 147q25 32 51 -29q76 -176 76 -177z" />
    <glyph glyph-name="uniFEBA" unicode="&#x635;" horiz-adv-x="2681" arabic-form="final" 
d="M1604 178h311q260 0 365 81q74 57 74 159q0 63 -39 112q-45 56 -146 56q-227 0 -565 -408zM2162 765q51 2 93 -5q166 -30 228 -157q33 -68 33 -144q0 -25 -3 -53q-15 -136 -101 -224h283v-182h-118q-219 0 -316 80q-155 -80 -437 -80h-235q-221 0 -284 50q4 -62 -12 -138
q-97 -452 -627 -451q-202 1 -353 91q-206 125 -206 411q0 196 103 422l110 -33q-57 -187 -57 -339q0 -372 415 -372q315 0 435 195q42 67 42 146q0 65 -117 356l96 147q25 32 51 -29q76 -176 76 -177q60 -102 194 -98q357 566 707 584z" />
    <glyph glyph-name="uniFEBB" unicode="&#x635;" horiz-adv-x="1756" arabic-form="initial" 
d="M721 180h311q259 0 364 81q74 57 74 159q0 63 -39 112q-44 56 -146 56q-227 0 -564 -408zM350 129q-87 -130 -321 -130h-41v181h22q258 0 270 192l13 196h118l15 -196q13 -173 145 -189q364 579 708 582q236 1 325 -187q31 -67 29 -152q-4 -182 -167 -301
q-173 -127 -526 -127h-234q-256 0 -356 131z" />
    <glyph glyph-name="uniFEBC" unicode="&#x635;" horiz-adv-x="1795" arabic-form="medial" 
d="M718 180h312q259 0 364 81q74 57 74 159q0 63 -39 112q-45 56 -146 56q-227 0 -565 -408zM703 -2q-257 0 -359 133q-86 -132 -315 -132h-41v181h22q256 0 269 192l14 196h117l15 -196q13 -173 144 -189q362 576 720 581q40 1 80 -7q165 -29 228 -156q34 -69 33 -144
q0 -26 -3 -53q-15 -136 -101 -225l283 1v-180h-118q-219 0 -316 80q-159 -82 -437 -82h-235z" />
    <glyph glyph-name="uniFEBD" unicode="&#x636;" horiz-adv-x="2629" arabic-form="isolated" 
d="M2084 1336l124 -124q8 -9 -3 -21l-118 -119q-15 -13 -29 1l-116 116q-14 14 0 28l119 119q12 11 23 0zM1602 182h311q260 0 364 81q74 57 75 159q0 63 -39 112q-45 56 -147 56q-226 0 -564 -408zM1261 279q55 -93 191 -94q366 583 722 581q108 0 184 -44
q161 -93 156 -295q-4 -183 -166 -301q-171 -126 -526 -126h-235q-218 0 -281 50q4 -59 -13 -138q-97 -452 -627 -451q-212 1 -356 93q-202 128 -203 404q-2 194 103 427l110 -33q-57 -187 -57 -339q0 -372 415 -372q315 0 435 195q42 67 42 146q0 65 -117 356l96 147
q25 32 51 -29q76 -176 76 -177z" />
    <glyph glyph-name="uniFEBE" unicode="&#x636;" horiz-adv-x="2681" arabic-form="final" 
d="M2095 1336l124 -124q8 -9 -3 -21l-118 -119q-15 -13 -29 1l-116 116q-14 14 0 28l119 119q12 11 23 0zM1604 178h311q260 0 365 81q74 57 74 159q0 63 -39 112q-45 56 -146 56q-227 0 -565 -408zM2162 765q51 2 93 -5q166 -30 228 -157q33 -68 33 -144q0 -25 -3 -53
q-15 -136 -101 -224h283v-182h-118q-219 0 -316 80q-155 -80 -437 -80h-235q-221 0 -284 50q4 -62 -12 -138q-97 -452 -627 -451q-202 1 -353 91q-206 125 -206 411q0 196 103 422l110 -33q-57 -187 -57 -339q0 -372 415 -372q315 0 435 195q42 67 42 146q0 65 -117 356
l96 147q25 32 51 -29q76 -176 76 -177q60 -102 194 -98q357 566 707 584z" />
    <glyph glyph-name="uniFEBF" unicode="&#x636;" horiz-adv-x="1756" arabic-form="initial" 
d="M1218 1345l124 -124q8 -9 -3 -21l-118 -119q-15 -13 -29 1l-116 116q-14 14 0 28l119 119q12 11 23 0zM721 180h311q259 0 364 81q74 57 74 159q0 63 -39 112q-44 56 -146 56q-227 0 -564 -408zM350 129q-87 -130 -321 -130h-41v181h22q258 0 270 192l13 196h118l15 -196
q13 -173 145 -189q364 579 708 582q236 1 325 -187q31 -67 29 -152q-4 -182 -167 -301q-173 -127 -526 -127h-234q-256 0 -356 131z" />
    <glyph glyph-name="uniFEC0" unicode="&#x636;" horiz-adv-x="1795" arabic-form="medial" 
d="M1227 1345l124 -124q8 -9 -3 -21l-118 -119q-15 -13 -29 1l-116 116q-14 14 0 28l119 119q12 11 23 0zM718 180h312q259 0 364 81q74 57 74 159q0 63 -39 112q-45 56 -146 56q-227 0 -565 -408zM703 -2q-257 0 -359 133q-86 -132 -315 -132h-41v181h22q256 0 269 192
l14 196h117l15 -196q13 -173 144 -189q362 576 720 581q40 1 80 -7q165 -29 228 -156q34 -69 33 -144q0 -26 -3 -53q-15 -136 -101 -225l283 1v-180h-118q-219 0 -316 80q-159 -82 -437 -82h-235z" />
    <glyph glyph-name="uniFEC1" unicode="&#x637;" horiz-adv-x="1608" arabic-form="isolated" 
d="M580 184h311q259 0 364 81q74 57 74 159q0 63 -39 112q-44 56 -146 56q-227 0 -564 -408zM270 1q-162 127 -164 163q0 6 8 12q6 6 20 6h299q32 52 65 104q-1 4 -22 492q-26 586 -41 652l154 67q25 11 26 -25l16 -1017q268 314 506 314t326 -187q29 -64 29 -147
q0 -186 -164 -305q-176 -128 -529 -128h-234z" />
    <glyph glyph-name="uniFEC2" unicode="&#x637;" horiz-adv-x="1667" arabic-form="final" 
d="M632 453q266 313 514 314q228 1 317 -187q31 -67 29 -147q-2 -145 -108 -254l295 1v-179h-110q-230 0 -324 76q-155 -77 -446 -77h-234l-295 -1q-158 125 -164 160h-4v10h5q4 11 27 11h299q32 54 66 104q-1 4 -22 492q-26 586 -41 652l154 67q25 11 26 -25zM580 184h311
q259 0 364 81q74 57 74 159q0 63 -39 112q-44 56 -146 56q-227 0 -564 -408z" />
    <glyph glyph-name="uniFEC3" unicode="&#x637;" horiz-adv-x="1352" arabic-form="initial" 
d="M368 449q271 316 510 317q133 0 218 -58q136 -91 133 -286q-3 -178 -167 -297q-173 -126 -526 -126h-234l-314 1l1 180h181l65 100q-1 4 -23 491q-25 587 -41 652l155 68q25 11 26 -25zM317 181h311q259 1 364 82q74 57 74 159q0 63 -39 112q-44 56 -146 56
q-227 0 -564 -409z" />
    <glyph glyph-name="uniFEC4" unicode="&#x637;" horiz-adv-x="1402" arabic-form="medial" 
d="M235 280q-1 4 -23 491q-25 587 -41 652l155 68q25 11 26 -25l16 -1017q268 317 508 317q124 0 207 -52q78 -50 117 -140q24 -55 24 -130q0 -84 -30 -156q-26 -61 -73 -108l295 1v-181h-110q-226 0 -320 77q-156 -79 -450 -78l-548 1l1 180h181zM317 181h311q259 1 364 82
q74 57 74 159q0 63 -39 112q-44 56 -146 56q-227 0 -564 -409z" />
    <glyph glyph-name="uniFEC5" unicode="&#x638;" horiz-adv-x="1608" arabic-form="isolated" 
d="M1104 1334l124 -124q8 -9 -3 -21l-118 -119q-15 -13 -29 1l-116 116q-14 14 0 28l119 119q12 11 23 0zM580 184h311q259 0 364 81q74 57 74 159q0 63 -39 112q-44 56 -146 56q-227 0 -564 -408zM270 1q-162 127 -164 163q0 6 8 12q6 6 20 6h299q32 52 65 104
q-1 4 -22 492q-26 586 -41 652l154 67q25 11 26 -25l16 -1017q268 314 506 314t326 -187q29 -64 29 -147q0 -186 -164 -305q-176 -128 -529 -128h-234z" />
    <glyph glyph-name="uniFEC6" unicode="&#x638;" horiz-adv-x="1667" arabic-form="final" 
d="M1105 1334l124 -124q8 -9 -3 -21l-118 -119q-15 -13 -29 1l-116 116q-14 14 0 28l119 119q12 11 23 0zM632 453q266 313 514 314q228 1 317 -187q31 -67 29 -147q-2 -145 -108 -254l295 1v-179h-110q-230 0 -324 76q-155 -77 -446 -77h-234l-295 -1q-158 125 -164 160h-4
v10h5q4 11 27 11h299q32 54 66 104q-1 4 -22 492q-26 586 -41 652l154 67q25 11 26 -25zM580 184h311q259 0 364 81q74 57 74 159q0 63 -39 112q-44 56 -146 56q-227 0 -564 -408z" />
    <glyph glyph-name="uniFEC7" unicode="&#x638;" horiz-adv-x="1352" arabic-form="initial" 
d="M850 1334l124 -124q8 -9 -3 -21l-118 -119q-15 -13 -29 1l-116 116q-14 14 0 28l119 119q12 11 23 0zM368 449q271 316 510 317q133 0 218 -58q136 -91 133 -286q-3 -178 -167 -297q-173 -126 -526 -126h-234l-314 1l1 180h181l65 100q-1 4 -23 491q-25 587 -41 652
l155 68q25 11 26 -25zM317 181h311q259 1 364 82q74 57 74 159q0 63 -39 112q-44 56 -146 56q-227 0 -564 -409z" />
    <glyph glyph-name="uniFEC8" unicode="&#x638;" horiz-adv-x="1402" arabic-form="medial" 
d="M851 1334l124 -124q8 -9 -3 -21l-118 -119q-15 -13 -29 1l-116 116q-14 14 0 28l119 119q12 11 23 0zM235 280q-1 4 -23 491q-25 587 -41 652l155 68q25 11 26 -25l16 -1017q268 317 508 317q124 0 207 -52q78 -50 117 -140q24 -55 24 -130q0 -84 -30 -156
q-26 -61 -73 -108l295 1v-181h-110q-226 0 -320 77q-156 -79 -450 -78l-548 1l1 180h181zM317 181h311q259 1 364 82q74 57 74 159q0 63 -39 112q-44 56 -146 56q-227 0 -564 -409z" />
    <glyph glyph-name="uniFEC9" unicode="&#x639;" horiz-adv-x="1337" arabic-form="isolated" 
d="M1167 -424q6 -13 6 -65q0 -101 -6 -111q-3 -5 -26 -10q-127 -23 -350 -23q-180 0 -327 39q-129 33 -201 98q-157 137 -157 343q0 387 342 566q-208 153 -149 391q33 131 142 210q113 82 259 82q181 1 296 -103l15 -15q-4 -20 -46 -129q-341 131 -502 -52q-34 -39 -34 -69
q0 -71 112 -158q77 -59 211 -37q48 8 187 29l139 17q33 5 23 -32q-12 -42 -58 -182q-370 -4 -563 -118q-228 -135 -227 -371q1 -332 523 -330q128 1 391 30z" />
    <glyph glyph-name="uniFECA" unicode="&#x639;" horiz-adv-x="1323" arabic-form="final" 
d="M660 587q-47 95 -307 97h-3v126q104 66 400 64q298 -2 299 -144q0 -139 -212 -252q75 -298 452 -298h46v-180h-35q-521 0 -572 417l-1 14q-54 -13 -148 -61q-320 -159 -321 -449q-2 -359 543 -354q113 1 182 10q67 9 153 19q5 -10 4 -65q-3 -101 -14 -110
q-31 -28 -290 -34q-143 -4 -282 18q-186 31 -284 118q-159 141 -159 364q1 185 78 325q105 192 318 307q73 40 153 68z" />
    <glyph glyph-name="uniFECB" unicode="&#x639;" horiz-adv-x="1110" arabic-form="initial" 
d="M865 628q-150 58 -229 58q-198 0 -313 -146q-28 -35 -28 -62q0 -99 100 -172q104 -78 125 -79q50 1 304 56l141 30q44 11 38 -22l-25 -145q-392 -146 -914 -146h-76v180h309q-142 107 -141 272q0 154 91 266q147 181 408 148q156 -19 256 -117z" />
    <glyph glyph-name="uniFECC" unicode="&#x639;" horiz-adv-x="1019" arabic-form="medial" 
d="M656 306q142 -125 359 -125h18v-180h-92q-217 0 -375 185q-208 -186 -443 -186h-135v180h27q351 0 478 139q-52 159 -317 179v116q113 69 355 70q148 0 237 -44q75 -38 69 -94q-9 -91 -181 -240z" />
    <glyph glyph-name="uniFECD" unicode="&#x63a;" horiz-adv-x="1285" arabic-form="isolated" 
d="M682 1619l124 -124q8 -9 -3 -21l-118 -119q-15 -13 -29 1l-116 116q-14 14 0 28l119 119q12 11 23 0zM1167 -424q6 -13 6 -65q0 -101 -6 -111q-3 -5 -26 -10q-127 -23 -350 -23q-180 0 -327 39q-129 33 -201 98q-157 137 -157 343q0 387 342 566q-208 153 -149 391
q33 131 142 210q113 82 259 82q181 1 296 -103l15 -15q-4 -20 -46 -129q-341 131 -502 -52q-34 -39 -34 -69q0 -71 112 -158q77 -59 211 -37q48 8 187 29l139 17q33 5 23 -32q-12 -42 -58 -182q-370 -4 -563 -118q-228 -135 -227 -371q1 -332 523 -330q128 1 391 30z" />
    <glyph glyph-name="uniFECE" unicode="&#x63a;" horiz-adv-x="1323" arabic-form="final" 
d="M723 1390l124 -124q8 -9 -3 -21l-118 -119q-15 -13 -29 1l-116 116q-14 14 0 28l119 119q12 11 23 0zM660 587q-47 95 -307 97h-3v126q104 66 400 64q298 -2 299 -144q0 -139 -212 -252q75 -298 452 -298h46v-180h-35q-521 0 -572 417l-1 14q-54 -13 -148 -61
q-320 -159 -321 -449q-2 -359 543 -354q113 1 182 10q67 9 153 19q5 -10 4 -65q-3 -101 -14 -110q-31 -28 -290 -34q-143 -4 -282 18q-186 31 -284 118q-159 141 -159 364q1 185 78 325q105 192 318 307q73 40 153 68z" />
    <glyph glyph-name="uniFECF" unicode="&#x63a;" horiz-adv-x="1110" arabic-form="initial" 
d="M560 1418l124 -124q8 -9 -3 -21l-118 -119q-15 -13 -29 1l-116 116q-14 14 0 28l119 119q12 11 23 0zM865 628q-150 58 -229 58q-198 0 -313 -146q-28 -35 -28 -62q0 -99 100 -172q104 -78 125 -79q50 1 304 56l141 30q44 11 38 -22l-25 -145q-392 -146 -914 -146h-76
v180h309q-142 107 -141 272q0 154 91 266q147 181 408 148q156 -19 256 -117z" />
    <glyph glyph-name="uniFED0" unicode="&#x63a;" horiz-adv-x="1019" arabic-form="medial" 
d="M533 1225l124 -124q8 -9 -3 -21l-118 -119q-15 -13 -29 1l-116 116q-14 14 0 28l119 119q12 11 23 0zM656 306q142 -125 359 -125h18v-180h-92q-217 0 -375 185q-208 -186 -443 -186h-135v180h27q351 0 478 139q-52 159 -317 179v116q113 69 355 70q148 0 237 -44
q75 -38 69 -94q-9 -91 -181 -240z" />
    <glyph glyph-name="uniFED1" unicode="&#x641;" horiz-adv-x="1728" arabic-form="isolated" 
d="M1305 1518l124 -124q8 -9 -3 -21l-118 -119q-15 -13 -29 1l-116 116q-14 14 0 28l119 119q12 11 23 0zM1314 865q-116 0 -150 -139q-29 -122 67 -148q70 -18 166 -3q61 9 94 25q-10 139 -57 201q-48 64 -120 64zM847 2q-370 0 -542 97q-202 112 -201 359q1 149 81 309
l101 -35q-69 -253 9 -370q114 -169 459 -182q25 -1 214.5 -1t296.5 18q215 37 225 181l2 28q-209 -45 -338 8q-128 54 -128 205q1 113 35 204q87 231 261 231q116 0 185 -86q125 -155 130 -502q8 -464 -585 -464h-205z" />
    <glyph glyph-name="uniFED2" unicode="&#x641;" horiz-adv-x="1953" arabic-form="final" 
d="M1473 1363l124 -124q8 -9 -3 -21l-118 -119q-15 -13 -29 1l-116 116q-14 14 0 28l119 119q12 11 23 0zM1613 567q-64 96 -134 96q-86 0 -147 -118q-19 -37 -19 -72q0 -59 57 -114q86 -85 120 -83q33 1 97 81q57 69 57 125q0 39 -31 85zM1480 118q-211 -116 -629 -116
q-363 0 -544 99q-202 111 -203 357q0 147 81 309l101 -35q-69 -257 9 -370q128 -184 604 -184q196 0 409 47q-51 39 -101 128q-91 163 35 357q97 149 239 149q143 0 247 -152q66 -97 66 -196q0 -49 -16 -98q-32 -99 -146 -196q141 -36 313 -36h20v-181h-36q-282 0 -449 118z
" />
    <glyph glyph-name="uniFED3" unicode="&#x641;" horiz-adv-x="849" arabic-form="initial" 
d="M401 1518l124 -124q8 -9 -3 -21l-118 -119q-15 -13 -29 1l-116 116q-14 14 0 28l119 119q12 11 23 0zM409 863q-116 0 -150 -139q-29 -122 67 -148q70 -18 166 -3q61 9 94 25q-10 139 -57 201q-48 64 -120 64zM160 180q430 0 427 217v7q-209 -45 -338 9q-128 53 -128 204
q1 113 35 204q88 231 261 231q116 0 185 -86q125 -155 131 -502q0 -30 -2 -61q-15 -403 -547 -403h-195v180h171z" />
    <glyph glyph-name="uniFED4" unicode="&#x641;" horiz-adv-x="1007" arabic-form="medial" 
d="M528 1343l124 -124q8 -9 -3 -21l-118 -119q-15 -13 -29 1l-116 116q-14 14 0 28l119 119q12 11 23 0zM531 118q-177 -118 -502 -118h-40v180h40q167 0 332 43q-141 108 -141 268q1 107 70 211q104 155 245 155t246 -152q66 -97 65 -196q1 -171 -162 -294q153 -35 295 -35
h42v-180h-36q-265 0 -454 118zM667 565q-64 97 -134 97q-86 0 -147 -118q-19 -37 -19 -72q0 -59 57 -115q86 -84 120 -82q33 1 98 81q56 69 56 125q0 39 -31 84z" />
    <glyph glyph-name="uniFED5" unicode="&#x642;" horiz-adv-x="1402" arabic-form="isolated" 
d="M1132 984q-13 -13 -27 0l-111 112q-13 13 1 27l113 113q11 11 22 0l119 -119q9 -8 -3 -19zM829 1236l118 -118q8 -10 -3 -20l-113 -114q-14 -13 -27 0l-112 112q-13 13 1 27l113 113q11 11 23 0zM982 564q-116 -1 -150 -140q-29 -122 67 -148q70 -18 166 -3q61 9 94 25
q-10 139 -57 201q-48 64 -120 65zM1300 190q0 -298 -113 -431q-166 -196 -511 -193q-227 1 -370 90q-198 123 -198 409q0 206 102 421l110 -32q-57 -188 -57 -339q0 -373 425 -373q313 0 435 199q33 54 37 163q-209 -45 -338 9q-128 53 -128 204q1 113 35 204
q87 231 261 231q116 0 185 -86q125 -154 125 -476z" />
    <glyph glyph-name="uniFED6" unicode="&#x642;" horiz-adv-x="1443" arabic-form="final" 
d="M1123 927q-13 -13 -27 0l-111 112q-13 13 1 27l113 113q11 11 22 0l119 -119q9 -8 -3 -19zM820 1179l118 -118q8 -10 -3 -20l-113 -114q-14 -13 -27 0l-112 112q-13 13 1 27l113 113q11 11 23 0zM1303 179l153 1v-180h-159q-41 -542 -617 -540q-214 1 -367 93
q-204 124 -204 407q0 200 101 424l110 -33q-57 -187 -57 -339q0 -372 425 -372q317 0 435 200q32 54 36 162l-136 -1q-199 -1 -265 70q-89 96 -61 274q27 164 111 260q112 129 267 79q102 -34 171 -183q54 -120 57 -322zM1166 181q-15 188 -69 267q-43 63 -115 63
q-90 0 -126 -109q-57 -175 44 -211q45 -17 266 -10z" />
    <glyph glyph-name="uniFED7" unicode="&#x642;" horiz-adv-x="849" arabic-form="initial" 
d="M551 1248q-13 -13 -27 0l-111 112q-13 13 1 27l113 113q11 11 22 0l119 -119q9 -8 -3 -19zM248 1500l118 -118q8 -10 -3 -20l-113 -114q-14 -13 -27 0l-112 112q-13 13 1 27l113 113q11 11 23 0zM409 863q-116 0 -150 -139q-29 -122 67 -148q70 -18 166 -3q61 9 94 25
q-10 139 -57 201q-48 64 -120 64zM160 180q430 0 427 217v7q-209 -45 -338 9q-128 53 -128 204q1 113 35 204q88 231 261 231q116 0 185 -86q125 -155 131 -502q0 -30 -2 -61q-15 -403 -547 -403h-195v180h171z" />
    <glyph glyph-name="uniFED8" unicode="&#x642;" horiz-adv-x="1007" arabic-form="medial" 
d="M666 1076q-13 -13 -27 0l-111 112q-13 13 1 27l113 113q11 11 22 0l119 -119q9 -8 -3 -19zM363 1328l118 -118q8 -10 -3 -20l-113 -114q-14 -13 -27 0l-112 112q-13 13 1 27l113 113q11 11 23 0zM531 118q-177 -118 -502 -118h-40v180h40q167 0 332 43q-141 108 -141 268
q1 107 70 211q104 155 245 155t246 -152q66 -97 65 -196q1 -171 -162 -294q153 -35 295 -35h42v-180h-36q-265 0 -454 118zM667 565q-64 97 -134 97q-86 0 -147 -118q-19 -37 -19 -72q0 -59 57 -115q86 -84 120 -82q33 1 98 81q56 69 56 125q0 39 -31 84z" />
    <glyph glyph-name="uniFED9" unicode="&#x643;" horiz-adv-x="1921" arabic-form="isolated" 
d="M860 1197q-1 -45 136 -69.5t167 -117.5q36 -108 -25 -194q-74 -102 -264 -95q-95 3 -193 34l13 141q165 -58 304 -28q79 16 88 61q7 48 -136 79q-173 37 -169 206q6 184 318 222q21 3 37 -2.5t6 -32.5l-36 -104q-244 -25 -246 -100zM289 732q-69 -255 8 -370
q117 -172 464 -180q352 -8 555 44q112 28 219 95q46 29 50 206q3 167 1 197q-5 67 -12 273t-30 412l151 94q37 22 37 -23v-768q18 -455 -140 -559q-228 -151 -716 -151q-390 0 -569 99q-203 111 -201 357q2 152 81 309z" />
    <glyph glyph-name="uniFEDA" unicode="&#x643;" horiz-adv-x="2016" arabic-form="final" 
d="M1646 222q-187 -221 -770 -221q-390 0 -569 99q-199 109 -201 357q0 147 81 309l102 -35q-98 -357 117 -467q149 -76 368 -83q516 -15 760 139q38 24 44 81t5 287.5t-18 455.5q-17 226 -21 264l151 93q37 23 37 -22l1 -929q0 -360 240 -360h55v-190h-35q-281 0 -347 222z
M849 1196q-2 -45 155.5 -72.5t158.5 -180.5t-145 -205q-61 -22 -155.5 -18.5t-192.5 34.5l14 141q110 -39 202 -38q178 3 189 71q2 16 -11 29q-28 29 -124 50q-174 38 -169 206q5 196 318 222q10 1 15 1h8q31 -3 20 -36l-37 -105q-244 -25 -246 -99z" />
    <glyph glyph-name="uniFEDB" unicode="&#x643;" horiz-adv-x="1044" arabic-form="initial" 
d="M24 950q18 132 63 248l863 301q41 14 34 -28l-22 -154l-781 -269q524 -416 528 -635q3 -144 -89 -239q-170 -174 -522 -174h-110v180h110q277 0 417 118q55 46 53 108q-3 91 -544 544z" />
    <glyph glyph-name="uniFEDC" unicode="&#x643;" horiz-adv-x="1211" arabic-form="medial" 
d="M181 1048q293 -253 579 -551q304 -317 445 -317h21v-180h-21q-238 0 -497 316q-62 -145 -224 -238q-137 -78 -388 -78h-108v180h109q274 0 417 126q86 76 54 129q-64 104 -546 517q15 119 65 246l863 301q41 14 34 -28l-22 -154z" />
    <glyph glyph-name="uniFEDD" unicode="&#x644;" horiz-adv-x="1375" arabic-form="isolated" 
d="M679 -315q267 6 366 174q39 66 35 284q-18 839 -62 1281l148 64q28 12 29 -15l32 -1309q16 -651 -550 -660q-217 -3 -366 90q-205 130 -203 419q1 189 102 412l110 -33q-58 -191 -59 -331q-2 -385 418 -376z" />
    <glyph glyph-name="uniFEDE" unicode="&#x644;" horiz-adv-x="1449" arabic-form="final" 
d="M1226 88q1 -623 -549 -624q-223 0 -366 90q-205 130 -203 419q1 189 102 412l110 -33q-58 -191 -59 -331q-2 -379 418 -376q266 2 366 171q39 66 31 298q-47 1262 -58 1309l149 67q28 13 29 -18l23 -1110q4 -181 212 -181h31v-181h-19q-159 0 -217 88z" />
    <glyph glyph-name="uniFEDF" unicode="&#x644;" horiz-adv-x="556" arabic-form="initial" 
d="M264 367q3 48 2 118q0 80 -7 187q-36 557 -55 757l107 52l54 26q15 4 18 -67l28 -900q9 -269 -44 -377q-81 -163 -355 -163h-23v180h29q101 0 161 28q79 36 85 159z" />
    <glyph glyph-name="uniFEE0" unicode="&#x644;" horiz-adv-x="677" arabic-form="medial" 
d="M355 144q-111 -144 -287 -144h-79v180h42q93 0 155 33q88 47 104 157q9 64 5 162q-24 620 -35 892l153 69q25 11 25 -21v-861q0 -310 56 -370q55 -61 160 -61h38v-180h-49q-197 0 -288 144z" />
    <glyph glyph-name="uniFEE1" unicode="&#x645;" horiz-adv-x="1116" arabic-form="isolated" 
d="M667 69q-150 26 -267 26q-118 0 -150 -18l13 -594q2 -90 -86 -180q-55 -56 -57 4l-13 403q-8 243 23 365q41 159 160 201q73 280 167 391q124 146 323 31q179 -104 225 -352q26 -138 -96 -256q-56 -55 -88 -48q-4 1 -154 27zM412 283q173 -9 274 -28t136 -19t35 22
q0 50 -34 124q-60 131 -178 162q-14 4 -32 4t-41 -8q-44 -14 -79.5 -69t-80.5 -188z" />
    <glyph glyph-name="uniFEE2" unicode="&#x645;" horiz-adv-x="1258" arabic-form="final" 
d="M1070 92q-83 -285 -286 -285q-286 0 -287 387q0 86 2 116q-178 -54 -243 -166l14 -623q2 -67 -100 -170q-42 -42 -44 20l-14 390q-2 63 -2 163q0 89 8 167q15 153 130 270t278 132q21 101 44 147q11 21 31 5l507 -388q99 -77 150 -77h14v-180h-25q-80 0 -177 92zM636 394
q-7 -83 -3 -231q7 -172 163 -173q15 0 30 2q65 6 97 71q13 27 12 71.5t-64 101.5q-77 75 -235 158z" />
    <glyph glyph-name="uniFEE3" unicode="&#x645;" horiz-adv-x="1023" arabic-form="initial" 
d="M297 180q-137 -180 -294 -180h-15v180h24q69 0 173 137q145 191 222 271q88 92 152 104q142 25 233 -94q117 -152 116 -310q0 -156 -99 -249q-59 -56 -118 -56q-142 0 -394 197zM397 330q258 -223 349 -127q44 47 15 147q-24 85 -108 144q-97 68 -256 -164z" />
    <glyph glyph-name="uniFEE4" unicode="&#x645;" horiz-adv-x="1145" arabic-form="medial" 
d="M417 285q167 -145 262 -145q85 0 102 70q20 86 -45 173q-55 76 -124 76q-75 0 -195 -174zM884 101q-80 -143 -196 -143q-150 1 -381 182q-101 -140 -304 -140h-15v180h44q100 0 190 111q154 188 220 258q65 68 132 79q120 22 199 -59q85 -85 173 -262q62 -126 187 -126
h27v-181h-16q-157 0 -260 101z" />
    <glyph glyph-name="uniFEE5" unicode="&#x646;" horiz-adv-x="1410" arabic-form="isolated" 
d="M689 880l124 -124q8 -9 -3 -21l-118 -119q-15 -13 -29 1l-116 116q-14 14 0 28l119 119q12 11 23 0zM1195 608q131 -321 107 -499q-69 -511 -635 -511q-288 0 -430 152q-156 169 -125 452q15 142 98 320l110 -33q-61 -199 -59 -342q4 -372 419 -370q314 2 433 195
q58 93 31 214q-18 80 -105 292l102 149q19 26 32 14t22 -33z" />
    <glyph glyph-name="uniFEE6" unicode="&#x646;" horiz-adv-x="1497" arabic-form="final" 
d="M678 742l124 -124q8 -9 -3 -21l-118 -119q-15 -13 -29 1l-116 116q-14 14 0 28l119 119q12 11 23 0zM1261 279q52 -93 210 -93h39v-184h-29q-132 0 -175 46q3 -58 -13 -136q-97 -452 -627 -451q-209 1 -354 92q-198 125 -200 405q-2 207 98 427l110 -33
q-57 -187 -57 -339q0 -372 415 -372q315 0 435 195q42 67 42 146q0 65 -117 356l96 147q25 32 51 -29q76 -175 76 -177z" />
    <glyph glyph-name="uniFEE7" unicode="&#x646;" horiz-adv-x="633" arabic-form="initial" 
d="M283 1237l124 -124q8 -9 -3 -21l-118 -119q-15 -13 -29 1l-116 116q-14 14 0 28l119 119q12 11 23 0zM374 347q0 114 -78 330l111 128q15 17 35 -25q87 -179 84 -401q-2 -145 -81 -241q-114 -138 -343 -138h-114v180h111q276 0 275 167z" />
    <glyph glyph-name="uniFEE8" unicode="&#x646;" horiz-adv-x="728" arabic-form="medial" 
d="M379 1120l124 -124q8 -9 -3 -21l-118 -119q-15 -13 -29 1l-116 116q-14 14 0 28l119 119q12 11 23 0zM111 0h-122v180h97q245 0 259 167l18 223h125l19 -220q14 -170 219 -170h16v-180h-25q-210 0 -292 130q-94 -130 -314 -130z" />
    <glyph glyph-name="uniFEE9" unicode="&#x647;" horiz-adv-x="873" arabic-form="isolated" 
d="M368 597q-123 -166 -124 -285q-1 -126 204 -126q173 0 195 108q26 130 -206 266q-55 32 -69 37zM313 776q19 26 35.5 26t26.5 -4q401 -152 401 -465q0 -152 -92 -239.5t-251.5 -87.5t-258.5 113q-65 72 -65 177q0 197 204 480z" />
    <glyph glyph-name="uniFEEA" unicode="&#x647;" horiz-adv-x="1016" arabic-form="final" 
d="M234 393q32 -67 279 -63l142 3l-67 300q-269 -84 -322 -140t-32 -100zM1010 0q-241 0 -326 237l-172 -102h-1q-94 2 -196 20.5t-136 31.5q-70 28 -77 74q-21 141 4 227q53 180 449 315l-13 67l81 96q47 55 64 -26l110 -530q48 -230 194 -230h38v-180h-19z" />
    <glyph glyph-name="uniFEEB" unicode="&#x647;" horiz-adv-x="1234" arabic-form="initial" 
d="M645 288q175 -61 282 -67q95 157 48 251q-33 67 -201 147q6 -191 -129 -331zM503 142q-213 -141 -454 -141h-61v179h72q193 0 289 35q-106 39 -165 115q-56 74 -33 183q43 199 239 317l-131 54l62 173l381 -180q483 -230 417 -530q-25 -113 -85 -194q-62 -82 -147 -92
q-80 -11 -384 81zM506 337q104 67 140 212q32 127 -81 163q-137 42 -234 -111q-31 -49 -40 -77q-20 -66 30 -105q71 -53 185 -82z" />
    <glyph glyph-name="uniFEEC" unicode="&#x647;" horiz-adv-x="988" arabic-form="medial" 
d="M292 183q301 9 331 165q4 20 4 41q0 110 -153 284q-140 -220 -182 -490zM587 -551q-369 264 -414 551h-184v181l176 -1q32 352 249 644q59 79 118 35q228 -176 228 -449q0 -161 -127 -289q-97 -98 -329 -122q71 -180 238 -308q59 489 440 489h21v-180h-58
q-248 0 -248 -257q0 -97 23 -173z" />
    <glyph glyph-name="uniFEED" unicode="&#x648;" horiz-adv-x="823" arabic-form="isolated" 
d="M75 -401q450 117 502 402l-141 -4q-197 -6 -272 90q-76 97 -49 264q25 159 108 254q82 93 182 93q168 -1 260 -183q68 -134 70 -347q1 -89 -12 -167q-16 -98 -54 -177q-83 -173 -272 -274q-125 -70 -209 -89q-51 -12 -69 9q-37 44 -50 70q-25 50 6 59zM584 177
q-13 204 -70 277q-46 58 -119 58q-85 0 -122 -106q-25 -70 -19 -133q15 -130 330 -96z" />
    <glyph glyph-name="uniFEEE" unicode="&#x648;" horiz-adv-x="856" arabic-form="final" 
d="M577 1h-136q-199 -2 -264 70q-90 96 -62 274q27 164 111 260q112 129 267 79q115 -38 182 -184q54 -119 58 -321l140 1v-180l-150 1q-16 -98 -54 -177q-82 -171 -272 -274q-130 -71 -209 -89q-51 -12 -69 9q-37 44 -50 70q-25 50 6 59q450 117 502 402zM584 181
q-15 188 -69 267q-43 63 -115 63q-90 0 -126 -109q-57 -175 44 -212q45 -16 266 -9z" />
    <glyph glyph-name="uniFEEF" unicode="&#x649;" horiz-adv-x="1474" arabic-form="isolated" 
d="M1386 712q-6 -61 -38 -195l-46 2q-192 9 -284 -82q-87 -87 -118 -232l262 -50q153 -30 152 -151q-1 -142 -86 -254q-180 -233 -542 -235q-314 -2 -461 151q-154 162 -108 454q26 169 98 306l111 -31q-114 -352 -31 -518q92 -183 396 -181q309 2 457 174q81 92 9 104
l-244 43q-123 21 -147 84q-23 60 24 219q85 289 315 382q134 55 281 10z" />
    <glyph glyph-name="uniFEF0" unicode="&#x649;" horiz-adv-x="1466" arabic-form="final" 
d="M326 329q-109 -315 -39 -480q85 -200 405 -201q301 0 439 137q83 82 -19 153q-70 50 -162 60q-93 9 -104 15q-11 5 -8 32q18 135 89 135h551v-179h-222q93 -68 51 -191q-28 -84 -87 -145q-188 -197 -528 -197q-324 -1 -466 147q-153 160 -109 439q26 169 98 306z" />
    <glyph glyph-name="uniFEF1" unicode="&#x64a;" horiz-adv-x="1474" arabic-form="isolated" 
d="M885 -901q-13 -13 -27 0l-111 112q-13 13 1 27l113 113q11 11 22 0l119 -119q9 -8 -3 -19zM582 -649l118 -118q8 -10 -3 -20l-113 -114q-14 -13 -27 0l-112 112q-13 13 1 27l113 113q11 11 23 0zM1386 712q-6 -61 -38 -195l-46 2q-192 9 -284 -82q-87 -87 -118 -232
l262 -50q153 -30 152 -151q-1 -142 -86 -254q-180 -233 -542 -235q-314 -2 -461 151q-154 162 -108 454q26 169 98 306l111 -31q-114 -352 -31 -518q92 -183 396 -181q309 2 457 174q81 92 9 104l-244 43q-123 21 -147 84q-23 60 24 219q85 289 315 382q134 55 281 10z" />
    <glyph glyph-name="uniFEF2" unicode="&#x64a;" horiz-adv-x="1466" arabic-form="final" 
d="M859 -994q-13 -13 -27 0l-111 112q-13 13 1 27l113 113q11 11 22 0l119 -119q9 -8 -3 -19zM556 -742l118 -118q8 -10 -3 -20l-113 -114q-14 -13 -27 0l-112 112q-13 13 1 27l113 113q11 11 23 0zM326 329q-109 -315 -39 -480q85 -200 405 -201q301 0 439 137
q83 82 -19 153q-70 50 -162 60q-93 9 -104 15q-11 5 -8 32q18 135 89 135h551v-179h-222q93 -68 51 -191q-28 -84 -87 -145q-188 -197 -528 -197q-324 -1 -466 147q-153 160 -109 439q26 169 98 306z" />
    <glyph glyph-name="uniFEF3" unicode="&#x64a;" horiz-adv-x="629" arabic-form="initial" 
d="M418 -455q-13 -13 -27 0l-111 112q-13 13 1 27l113 113q11 11 22 0l119 -119q9 -8 -3 -19zM115 -203l118 -118q8 -10 -3 -20l-113 -114q-14 -13 -27 0l-112 112q-13 13 1 27l113 113q11 11 23 0zM374 347q0 114 -78 330l111 128q15 17 35 -25q87 -179 84 -401
q-2 -145 -81 -241q-114 -138 -343 -138h-114v180h111q276 0 275 167z" />
    <glyph glyph-name="uniFEF4" unicode="&#x64a;" horiz-adv-x="728" arabic-form="medial" 
d="M439 -455q-13 -13 -27 0l-111 112q-13 13 1 27l113 113q11 11 22 0l119 -119q9 -8 -3 -19zM136 -203l118 -118q8 -10 -3 -20l-113 -114q-14 -13 -27 0l-112 112q-13 13 1 27l113 113q11 11 23 0zM111 0h-122v180h97q245 0 259 167l18 223h125l19 -220q14 -170 219 -170
h16v-180h-25q-210 0 -292 130q-94 -130 -314 -130z" />
    <glyph glyph-name=".notdef" horiz-adv-x="1229" 
d="M193 1462h841v-1462h-841v1462zM297 104h633v1254h-633v-1254z" />
    <glyph glyph-name="uni001D" horiz-adv-x="0" 
 />
    <glyph glyph-name="uni001D" horiz-adv-x="0" 
 />
    <glyph glyph-name="glyph2" horiz-adv-x="1044" 
 />
    <glyph glyph-name="space" unicode=" " horiz-adv-x="550" 
 />
    <glyph glyph-name="exclam" unicode="!" horiz-adv-x="676" 
d="M200 159q0 57 40.5 97.5t97 40.5t98.5 -40q39 -41 39 -98t-40.5 -97.5t-97 -40.5t-97 40.5t-40.5 97.5zM346 1445h12q96 -3 87 -146l-48 -760q-2 -23 -56 -23q-62 0 -64 24l-57 758q0 12 -1 24q-1 123 98 123h29z" />
    <glyph glyph-name="quotedbl" unicode="&#x22;" horiz-adv-x="821" 
d="M319 1462l-40 -528h-105l-41 528h186zM688 1462l-41 -528h-104l-41 528h186z" />
    <glyph glyph-name="numbersign" unicode="#" horiz-adv-x="1323" 
d="M981 899l-66 -340h283v-129h-307l-84 -430h-137l84 430h-303l-82 -430h-136l80 430h-262v129h287l68 340h-277v127h299l82 436h139l-82 -436h305l84 436h134l-84 -436h264v-127h-289zM475 559h303l66 340h-303z" />
    <glyph glyph-name="dollar" unicode="$" 
d="M1036 449q0 -136 -102 -224.5t-285 -111.5v-232h-129v223q-112 0 -217 17.5t-172 48.5v156q83 -37 191.5 -60.5t197.5 -23.5v440q-205 65 -287.5 151t-82.5 222q0 131 101.5 215t268.5 102v182h129v-180q184 -5 355 -74l-52 -131q-149 59 -303 70v-434q157 -50 235 -97.5
t115 -109t37 -149.5zM866 436q0 72 -44.5 116.5t-172.5 88.5v-389q217 30 217 184zM319 1057q0 -76 45 -122t156 -87v387q-99 -16 -150 -62.5t-51 -115.5z" />
    <glyph glyph-name="percent" unicode="%" horiz-adv-x="1686" 
d="M242 1026q0 -170 37 -255t120 -85q164 0 164 340q0 338 -164 338q-83 0 -120 -84t-37 -254zM700 1026q0 -228 -76.5 -344.5t-224.5 -116.5q-140 0 -217.5 119t-77.5 342q0 227 74.5 342t220.5 115q145 0 223 -119t78 -338zM1122 440q0 -171 37 -255.5t121 -84.5t124 83.5
t40 256.5q0 171 -40 253.5t-124 82.5t-121 -82.5t-37 -253.5zM1581 440q0 -227 -76.5 -343.5t-224.5 -116.5q-142 0 -218.5 119t-76.5 341q0 227 74.5 342t220.5 115q142 0 221.5 -117.5t79.5 -339.5zM1323 1462l-811 -1462h-147l811 1462h147z" />
    <glyph glyph-name="ampersand" unicode="&#x26;" horiz-adv-x="1495" 
d="M414 1171q0 -69 36 -131.5t123 -150.5q129 75 179.5 138.5t50.5 146.5q0 77 -51.5 125.5t-137.5 48.5q-89 0 -144.5 -48t-55.5 -129zM569 129q241 0 400 154l-437 424q-111 -68 -157 -112.5t-68 -95.5t-22 -116q0 -117 77.5 -185.5t206.5 -68.5zM113 379q0 130 69.5 230
t249.5 202q-85 95 -115.5 144t-48.5 102t-18 110q0 150 98 234t273 84q162 0 255 -83.5t93 -232.5q0 -107 -68 -197.5t-225 -183.5l407 -391q56 62 89.5 145.5t56.5 182.5h168q-68 -286 -205 -434l299 -291h-229l-185 178q-118 -106 -240 -152t-272 -46q-215 0 -333.5 106
t-118.5 293z" />
    <glyph glyph-name="quotesingle" unicode="'" horiz-adv-x="453" 
d="M319 1462l-40 -528h-105l-41 528h186z" />
    <glyph glyph-name="parenleft" unicode="(" horiz-adv-x="606" 
d="M82 561q0 265 77.5 496t223.5 405h162q-144 -193 -216.5 -424t-72.5 -475q0 -240 74 -469t213 -418h-160q-147 170 -224 397t-77 488z" />
    <glyph glyph-name="parenright" unicode=")" horiz-adv-x="606" 
d="M524 561q0 -263 -77.5 -490t-223.5 -395h-160q139 188 213 417.5t74 469.5q0 244 -72.5 475t-216.5 424h162q147 -175 224 -406.5t77 -494.5z" />
    <glyph glyph-name="asterisk" unicode="*" horiz-adv-x="1130" 
d="M657 1556l-43 -395l398 111l26 -182l-381 -31l248 -326l-172 -94l-176 362l-160 -362l-176 94l242 326l-377 31l29 182l391 -111l-43 395h194z" />
    <glyph glyph-name="plus" unicode="+" 
d="M653 791h412v-138h-412v-426h-139v426h-410v138h410v428h139v-428z" />
    <glyph glyph-name="comma" unicode="," horiz-adv-x="502" 
d="M350 238l15 -23q-26 -100 -75 -232.5t-102 -246.5h-125q27 104 59.5 257t45.5 245h182z" />
    <glyph glyph-name="hyphen" unicode="-" horiz-adv-x="659" 
d="M84 473v152h491v-152h-491z" />
    <glyph glyph-name="period" unicode="." horiz-adv-x="676" 
d="M200 159q0 57 40.5 97.5t97 40.5t98.5 -40q39 -41 39 -98t-40.5 -97.5t-97 -40.5t-97 40.5t-40.5 97.5z" />
    <glyph glyph-name="slash" unicode="/" horiz-adv-x="752" 
d="M731 1462l-545 -1462h-166l545 1462h166z" />
    <glyph glyph-name="zero" unicode="0" 
d="M1069 733q0 -379 -119.5 -566t-365.5 -187q-236 0 -359 191.5t-123 561.5q0 382 119 567t363 185q238 0 361.5 -193t123.5 -559zM270 733q0 -319 75 -464.5t239 -145.5q166 0 240.5 147.5t74.5 462.5t-74.5 461.5t-240.5 146.5q-164 0 -239 -144.5t-75 -463.5z" />
    <glyph glyph-name="one" unicode="1" 
d="M715 0h-162v1042q0 130 8 246q-21 -21 -47 -44t-238 -195l-88 114l387 299h140v-1462z" />
    <glyph glyph-name="two" unicode="2" 
d="M1061 0h-961v143l385 387q176 178 232 254t84 148t28 155q0 117 -71 185.5t-197 68.5q-91 0 -172.5 -30t-181.5 -109l-88 113q202 168 440 168q206 0 323 -105.5t117 -283.5q0 -139 -78 -275t-292 -344l-320 -313v-8h752v-154z" />
    <glyph glyph-name="three" unicode="3" 
d="M1006 1118q0 -140 -78.5 -229t-222.5 -119v-8q176 -22 261 -112t85 -236q0 -209 -145 -321.5t-412 -112.5q-116 0 -212.5 17.5t-187.5 61.5v158q95 -47 202.5 -71.5t203.5 -24.5q379 0 379 297q0 266 -418 266h-144v143h146q171 0 271 75.5t100 209.5q0 107 -73.5 168
t-199.5 61q-96 0 -181 -26t-194 -96l-84 112q90 71 207.5 111.5t247.5 40.5q213 0 331 -97.5t118 -267.5z" />
    <glyph glyph-name="four" unicode="4" 
d="M1130 336h-217v-336h-159v336h-711v145l694 989h176v-983h217v-151zM754 487v486q0 143 10 323h-8q-48 -96 -90 -159l-457 -650h545z" />
    <glyph glyph-name="five" unicode="5" 
d="M557 893q231 0 363.5 -114.5t132.5 -313.5q0 -227 -144.5 -356t-398.5 -129q-247 0 -377 79v160q70 -45 174 -70.5t205 -25.5q176 0 273.5 83t97.5 240q0 306 -375 306q-95 0 -254 -29l-86 55l55 684h727v-153h-585l-37 -439q115 23 229 23z" />
    <glyph glyph-name="six" unicode="6" 
d="M117 625q0 431 167.5 644.5t495.5 213.5q113 0 178 -19v-143q-77 25 -176 25q-235 0 -359 -146.5t-136 -460.5h12q110 172 348 172q197 0 310.5 -119t113.5 -323q0 -228 -124.5 -358.5t-336.5 -130.5q-227 0 -360 170.5t-133 474.5zM608 121q142 0 220.5 89.5t78.5 258.5
q0 145 -73 228t-218 83q-90 0 -165 -37t-119.5 -102t-44.5 -135q0 -103 40 -192t113.5 -141t167.5 -52z" />
    <glyph glyph-name="seven" unicode="7" 
d="M285 0l606 1309h-797v153h973v-133l-598 -1329h-184z" />
    <glyph glyph-name="eight" unicode="8" 
d="M584 1483q200 0 317 -93t117 -257q0 -108 -67 -197t-214 -162q178 -85 253 -178.5t75 -216.5q0 -182 -127 -290.5t-348 -108.5q-234 0 -360 102.5t-126 290.5q0 251 306 391q-138 78 -198 168.5t-60 202.5q0 159 117.5 253.5t314.5 94.5zM268 369q0 -120 83.5 -187
t234.5 -67q149 0 232 70t83 192q0 97 -78 172.5t-272 146.5q-149 -64 -216 -141.5t-67 -185.5zM582 1348q-125 0 -196 -60t-71 -160q0 -92 59 -158t218 -132q143 60 202.5 129t59.5 161q0 101 -72.5 160.5t-199.5 59.5z" />
    <glyph glyph-name="nine" unicode="9" 
d="M1061 838q0 -858 -664 -858q-116 0 -184 20v143q80 -26 182 -26q240 0 362.5 148.5t133.5 455.5h-12q-55 -83 -146 -126.5t-205 -43.5q-194 0 -308 116t-114 324q0 228 127.5 360t335.5 132q149 0 260.5 -76.5t171.5 -223t60 -345.5zM569 1341q-143 0 -221 -92t-78 -256
q0 -144 72 -226.5t219 -82.5q91 0 167.5 37t120.5 101t44 134q0 105 -41 194t-114.5 140t-168.5 51z" />
    <glyph glyph-name="colon" unicode=":" horiz-adv-x="676" 
d="M200 879q0 57 40.5 97.5t97 40.5t98.5 -40q39 -41 39 -98t-40.5 -97.5t-97 -40.5t-97 40.5t-40.5 97.5zM200 159q0 57 40.5 97.5t97 40.5t98.5 -40q39 -41 39 -98t-40.5 -97.5t-97 -40.5t-97 40.5t-40.5 97.5z" />
    <glyph glyph-name="semicolon" unicode=";" horiz-adv-x="545" 
d="M350 238l15 -23q-26 -100 -75 -232.5t-102 -246.5h-125q27 104 59.5 257t45.5 245h182zM147 989q0 135 119 135q123 0 123 -135q0 -65 -33 -100t-90 -35q-58 0 -88.5 35t-30.5 100z" />
    <glyph glyph-name="less" unicode="&#x3c;" 
d="M1065 242l-961 422v98l961 479v-149l-782 -371l782 -328v-151z" />
    <glyph glyph-name="equal" unicode="=" 
d="M119 858v137h930v-137h-930zM119 449v137h930v-137h-930z" />
    <glyph glyph-name="greater" unicode="&#x3e;" 
d="M104 393l783 326l-783 373v149l961 -479v-98l-961 -422v151z" />
    <glyph glyph-name="question" unicode="?" horiz-adv-x="879" 
d="M289 403v54q0 117 36 192.5t134 159.5q136 115 171.5 173t35.5 140q0 102 -65.5 157.5t-188.5 55.5q-79 0 -154 -18.5t-172 -67.5l-59 135q189 99 395 99q191 0 297 -94t106 -265q0 -73 -19.5 -128.5t-57.5 -105t-164 -159.5q-101 -86 -133.5 -143t-32.5 -152v-33h-129z
M240 106q0 136 120 136q58 0 89.5 -35t31.5 -101q0 -64 -32 -99.5t-89 -35.5q-52 0 -86 31.5t-34 103.5z" />
    <glyph glyph-name="at" unicode="@" horiz-adv-x="1841" 
d="M1720 729q0 -142 -44 -260t-124 -183t-184 -65q-86 0 -145 52t-70 133h-8q-40 -87 -114.5 -136t-176.5 -49q-150 0 -234.5 102.5t-84.5 278.5q0 204 118 331.5t310 127.5q68 0 154 -12.5t155 -34.5l-25 -470v-22q0 -178 133 -178q91 0 148 107.5t57 279.5q0 181 -74 317
t-210.5 209.5t-313.5 73.5q-223 0 -388 -92.5t-252 -264t-87 -396.5q0 -305 161 -469t464 -164q210 0 436 86v-133q-192 -84 -436 -84q-363 0 -563.5 199.5t-200.5 557.5q0 260 107 463t305 314.5t454 111.5q215 0 382.5 -90.5t259 -257t91.5 -383.5zM686 598
q0 -254 195 -254q207 0 225 313l14 261q-72 20 -157 20q-130 0 -203.5 -90t-73.5 -250z" />
    <glyph glyph-name="A" unicode="A" horiz-adv-x="1296" 
d="M1120 0l-182 465h-586l-180 -465h-172l578 1468h143l575 -1468h-176zM885 618l-170 453q-33 86 -68 211q-22 -96 -63 -211l-172 -453h473z" />
    <glyph glyph-name="B" unicode="B" horiz-adv-x="1327" 
d="M201 1462h413q291 0 421 -87t130 -275q0 -130 -72.5 -214.5t-211.5 -109.5v-10q333 -57 333 -350q0 -196 -132.5 -306t-370.5 -110h-510v1462zM371 836h280q180 0 259 56.5t79 190.5q0 123 -88 177.5t-280 54.5h-250v-479zM371 692v-547h305q177 0 266.5 68.5t89.5 214.5
q0 136 -91.5 200t-278.5 64h-291z" />
    <glyph glyph-name="C" unicode="C" horiz-adv-x="1292" 
d="M827 1331q-241 0 -380.5 -160.5t-139.5 -439.5q0 -287 134.5 -443.5t383.5 -156.5q153 0 349 55v-149q-152 -57 -375 -57q-323 0 -498.5 196t-175.5 557q0 226 84.5 396t244 262t375.5 92q230 0 402 -84l-72 -146q-166 78 -332 78z" />
    <glyph glyph-name="D" unicode="D" horiz-adv-x="1493" 
d="M1368 745q0 -362 -196.5 -553.5t-565.5 -191.5h-405v1462h448q341 0 530 -189t189 -528zM1188 739q0 286 -143.5 431t-426.5 145h-247v-1168h207q304 0 457 149.5t153 442.5z" />
    <glyph glyph-name="E" unicode="E" horiz-adv-x="1139" 
d="M1016 0h-815v1462h815v-151h-645v-471h606v-150h-606v-538h645v-152z" />
    <glyph glyph-name="F" unicode="F" horiz-adv-x="1057" 
d="M371 0h-170v1462h815v-151h-645v-535h606v-151h-606v-625z" />
    <glyph glyph-name="G" unicode="G" horiz-adv-x="1491" 
d="M844 766h497v-711q-116 -37 -236 -56t-278 -19q-332 0 -517 197.5t-185 553.5q0 228 91.5 399.5t263.5 262t403 90.5q234 0 436 -86l-66 -150q-198 84 -381 84q-267 0 -417 -159t-150 -441q0 -296 144.5 -449t424.5 -153q152 0 297 35v450h-327v152z" />
    <glyph glyph-name="H" unicode="H" horiz-adv-x="1511" 
d="M1311 0h-170v688h-770v-688h-170v1462h170v-622h770v622h170v-1462z" />
    <glyph glyph-name="I" unicode="I" horiz-adv-x="571" 
d="M201 0v1462h170v-1462h-170z" />
    <glyph glyph-name="J" unicode="J" horiz-adv-x="547" 
d="M-12 -385q-94 0 -148 27v145q71 -20 148 -20q99 0 150.5 60t51.5 173v1462h170v-1448q0 -190 -96 -294.5t-276 -104.5z" />
    <glyph glyph-name="K" unicode="K" horiz-adv-x="1257" 
d="M1257 0h-200l-533 709l-153 -136v-573h-170v1462h170v-725l663 725h201l-588 -635z" />
    <glyph glyph-name="L" unicode="L" horiz-adv-x="1063" 
d="M201 0v1462h170v-1308h645v-154h-815z" />
    <glyph glyph-name="M" unicode="M" horiz-adv-x="1849" 
d="M848 0l-496 1296h-8q14 -154 14 -366v-930h-157v1462h256l463 -1206h8l467 1206h254v-1462h-170v942q0 162 14 352h-8l-500 -1294h-137z" />
    <glyph glyph-name="N" unicode="N" horiz-adv-x="1544" 
d="M1343 0h-194l-799 1227h-8q16 -216 16 -396v-831h-157v1462h192l797 -1222h8q-2 27 -9 173.5t-5 209.5v839h159v-1462z" />
    <glyph glyph-name="O" unicode="O" horiz-adv-x="1595" 
d="M1470 733q0 -351 -177.5 -552t-493.5 -201q-323 0 -498.5 197.5t-175.5 557.5q0 357 176 553.5t500 196.5q315 0 492 -200t177 -552zM305 733q0 -297 126.5 -450.5t367.5 -153.5q243 0 367 153t124 451q0 295 -123.5 447.5t-365.5 152.5q-243 0 -369.5 -153.5
t-126.5 -446.5z" />
    <glyph glyph-name="P" unicode="P" horiz-adv-x="1233" 
d="M1128 1036q0 -222 -151.5 -341.5t-433.5 -119.5h-172v-575h-170v1462h379q548 0 548 -426zM371 721h153q226 0 327 73t101 234q0 145 -95 216t-296 71h-190v-594z" />
    <glyph glyph-name="Q" unicode="Q" horiz-adv-x="1595" 
d="M1470 733q0 -281 -113 -467t-319 -252l348 -362h-247l-285 330l-55 -2q-323 0 -498.5 197.5t-175.5 557.5q0 357 176 553.5t500 196.5q315 0 492 -200t177 -552zM305 733q0 -297 126.5 -450.5t367.5 -153.5q243 0 367 153t124 451q0 295 -123.5 447.5t-365.5 152.5
q-243 0 -369.5 -153.5t-126.5 -446.5z" />
    <glyph glyph-name="R" unicode="R" horiz-adv-x="1266" 
d="M371 608v-608h-170v1462h401q269 0 397.5 -103t128.5 -310q0 -290 -294 -392l397 -657h-201l-354 608h-305zM371 754h233q180 0 264 71.5t84 214.5q0 145 -85.5 209t-274.5 64h-221v-559z" />
    <glyph glyph-name="S" unicode="S" horiz-adv-x="1124" 
d="M1026 389q0 -193 -140 -301t-380 -108q-260 0 -400 67v164q90 -38 196 -60t210 -22q170 0 256 64.5t86 179.5q0 76 -30.5 124.5t-102 89.5t-217.5 93q-204 73 -291.5 173t-87.5 261q0 169 127 269t336 100q218 0 401 -80l-53 -148q-181 76 -352 76q-135 0 -211 -58
t-76 -161q0 -76 28 -124.5t94.5 -89t203.5 -89.5q230 -82 316.5 -176t86.5 -244z" />
    <glyph glyph-name="T" unicode="T" horiz-adv-x="1133" 
d="M651 0h-170v1311h-463v151h1096v-151h-463v-1311z" />
    <glyph glyph-name="U" unicode="U" horiz-adv-x="1491" 
d="M1305 1462v-946q0 -250 -151 -393t-415 -143t-408.5 144t-144.5 396v942h170v-954q0 -183 100 -281t294 -98q185 0 285 98.5t100 282.5v952h170z" />
    <glyph glyph-name="V" unicode="V" horiz-adv-x="1219" 
d="M1036 1462h183l-527 -1462h-168l-524 1462h180l336 -946q58 -163 92 -317q36 162 94 323z" />
    <glyph glyph-name="W" unicode="W" horiz-adv-x="1896" 
d="M1477 0h-168l-295 979q-21 65 -47 164t-27 119q-22 -132 -70 -289l-286 -973h-168l-389 1462h180l231 -903q48 -190 70 -344q27 183 80 358l262 889h180l275 -897q48 -155 81 -350q19 142 72 346l230 901h180z" />
    <glyph glyph-name="X" unicode="X" horiz-adv-x="1182" 
d="M1174 0h-193l-393 643l-400 -643h-180l486 764l-453 698h188l363 -579l366 579h181l-453 -692z" />
    <glyph glyph-name="Y" unicode="Y" horiz-adv-x="1147" 
d="M573 731l390 731h184l-488 -895v-567h-172v559l-487 903h186z" />
    <glyph glyph-name="Z" unicode="Z" horiz-adv-x="1169" 
d="M1087 0h-1005v133l776 1176h-752v153h959v-133l-776 -1175h798v-154z" />
    <glyph glyph-name="bracketleft" unicode="[" horiz-adv-x="674" 
d="M623 -324h-457v1786h457v-141h-289v-1503h289v-142z" />
    <glyph glyph-name="backslash" unicode="\" horiz-adv-x="752" 
d="M186 1462l547 -1462h-166l-544 1462h163z" />
    <glyph glyph-name="bracketright" unicode="]" horiz-adv-x="674" 
d="M51 -182h289v1503h-289v141h457v-1786h-457v142z" />
    <glyph glyph-name="asciicircum" unicode="^" horiz-adv-x="1110" 
d="M49 551l434 922h99l477 -922h-152l-372 745l-334 -745h-152z" />
    <glyph glyph-name="underscore" unicode="_" horiz-adv-x="918" 
d="M922 -315h-926v131h926v-131z" />
    <glyph glyph-name="grave" unicode="`" horiz-adv-x="1182" 
d="M786 1241h-110q-65 52 -154 148t-129 159v21h203q32 -69 89 -159.5t101 -143.5v-25z" />
    <glyph glyph-name="a" unicode="a" horiz-adv-x="1139" 
d="M850 0l-33 156h-8q-82 -103 -163.5 -139.5t-203.5 -36.5q-163 0 -255.5 84t-92.5 239q0 332 531 348l186 6v68q0 129 -55.5 190.5t-177.5 61.5q-137 0 -310 -84l-51 127q81 44 177.5 69t193.5 25q196 0 290.5 -87t94.5 -279v-748h-123zM475 117q155 0 243.5 85t88.5 238
v99l-166 -7q-198 -7 -285.5 -61.5t-87.5 -169.5q0 -90 54.5 -137t152.5 -47z" />
    <glyph glyph-name="b" unicode="b" horiz-adv-x="1255" 
d="M686 1114q216 0 335.5 -147.5t119.5 -417.5t-120.5 -419.5t-334.5 -149.5q-107 0 -195.5 39.5t-148.5 121.5h-12l-35 -141h-119v1556h166v-378q0 -127 -8 -228h8q116 164 344 164zM662 975q-170 0 -245 -97.5t-75 -328.5t77 -330.5t247 -99.5q153 0 228 111.5t75 320.5
q0 214 -75 319t-232 105z" />
    <glyph glyph-name="c" unicode="c" horiz-adv-x="975" 
d="M614 -20q-238 0 -368.5 146.5t-130.5 414.5q0 275 132.5 425t377.5 150q79 0 158 -17t124 -40l-51 -141q-55 22 -120 36.5t-115 14.5q-334 0 -334 -426q0 -202 81.5 -310t241.5 -108q137 0 281 59v-147q-110 -57 -277 -57z" />
    <glyph glyph-name="d" unicode="d" horiz-adv-x="1255" 
d="M922 147h-9q-115 -167 -344 -167q-215 0 -334.5 147t-119.5 418t120 421t334 150q223 0 342 -162h13l-7 79l-4 77v446h166v-1556h-135zM590 119q170 0 246.5 92.5t76.5 298.5v35q0 233 -77.5 332.5t-247.5 99.5q-146 0 -223.5 -113.5t-77.5 -320.5q0 -210 77 -317
t226 -107z" />
    <glyph glyph-name="e" unicode="e" horiz-adv-x="1149" 
d="M639 -20q-243 0 -383.5 148t-140.5 411q0 265 130.5 421t350.5 156q206 0 326 -135.5t120 -357.5v-105h-755q5 -193 97.5 -293t260.5 -100q177 0 350 74v-148q-88 -38 -166.5 -54.5t-189.5 -16.5zM594 977q-132 0 -210.5 -86t-92.5 -238h573q0 157 -70 240.5t-200 83.5z
" />
    <glyph glyph-name="f" unicode="f" horiz-adv-x="694" 
d="M670 967h-279v-967h-166v967h-196v75l196 60v61q0 404 353 404q87 0 204 -35l-43 -133q-96 31 -164 31q-94 0 -139 -62.5t-45 -200.5v-71h279v-129z" />
    <glyph glyph-name="g" unicode="g" horiz-adv-x="1122" 
d="M1073 1096v-105l-203 -24q28 -35 50 -91.5t22 -127.5q0 -161 -110 -257t-302 -96q-49 0 -92 8q-106 -56 -106 -141q0 -45 37 -66.5t127 -21.5h194q178 0 273.5 -75t95.5 -218q0 -182 -146 -277.5t-426 -95.5q-215 0 -331.5 80t-116.5 226q0 100 64 173t180 99
q-42 19 -70.5 59t-28.5 93q0 60 32 105t101 87q-85 35 -138.5 119t-53.5 192q0 180 108 277.5t306 97.5q86 0 155 -20h379zM199 -184q0 -89 75 -135t215 -46q209 0 309.5 62.5t100.5 169.5q0 89 -55 123.5t-207 34.5h-199q-113 0 -176 -54t-63 -155zM289 745q0 -115 65 -174
t181 -59q243 0 243 236q0 247 -246 247q-117 0 -180 -63t-63 -187z" />
    <glyph glyph-name="h" unicode="h" horiz-adv-x="1257" 
d="M926 0v709q0 134 -61 200t-191 66q-173 0 -252.5 -94t-79.5 -308v-573h-166v1556h166v-471q0 -85 -8 -141h10q49 79 139.5 124.5t206.5 45.5q201 0 301.5 -95.5t100.5 -303.5v-715h-166z" />
    <glyph glyph-name="i" unicode="i" horiz-adv-x="518" 
d="M342 0h-166v1096h166v-1096zM162 1393q0 57 28 83.5t70 26.5q40 0 69 -27t29 -83t-29 -83.5t-69 -27.5q-42 0 -70 27.5t-28 83.5z" />
    <glyph glyph-name="j" unicode="j" horiz-adv-x="518" 
d="M43 -492q-95 0 -154 25v135q69 -20 136 -20q78 0 114.5 42.5t36.5 129.5v1276h166v-1264q0 -324 -299 -324zM162 1393q0 57 28 83.5t70 26.5q40 0 69 -27t29 -83t-29 -83.5t-69 -27.5q-42 0 -70 27.5t-28 83.5z" />
    <glyph glyph-name="k" unicode="k" horiz-adv-x="1075" 
d="M340 561q43 61 131 160l354 375h197l-444 -467l475 -629h-201l-387 518l-125 -108v-410h-164v1556h164v-825q0 -55 -8 -170h8z" />
    <glyph glyph-name="l" unicode="l" horiz-adv-x="518" 
d="M342 0h-166v1556h166v-1556z" />
    <glyph glyph-name="m" unicode="m" horiz-adv-x="1905" 
d="M1573 0v713q0 131 -56 196.5t-174 65.5q-155 0 -229 -89t-74 -274v-612h-166v713q0 131 -56 196.5t-175 65.5q-156 0 -228.5 -93.5t-72.5 -306.5v-575h-166v1096h135l27 -150h8q47 80 132.5 125t191.5 45q257 0 336 -186h8q49 86 142 136t212 50q186 0 278.5 -95.5
t92.5 -305.5v-715h-166z" />
    <glyph glyph-name="n" unicode="n" horiz-adv-x="1257" 
d="M926 0v709q0 134 -61 200t-191 66q-172 0 -252 -93t-80 -307v-575h-166v1096h135l27 -150h8q51 81 143 125.5t205 44.5q198 0 298 -95.5t100 -305.5v-715h-166z" />
    <glyph glyph-name="o" unicode="o" horiz-adv-x="1237" 
d="M1122 549q0 -268 -135 -418.5t-373 -150.5q-147 0 -261 69t-176 198t-62 302q0 268 134 417.5t372 149.5q230 0 365.5 -153t135.5 -414zM287 549q0 -210 84 -320t247 -110t247.5 109.5t84.5 320.5q0 209 -84.5 317.5t-249.5 108.5q-163 0 -246 -107t-83 -319z" />
    <glyph glyph-name="p" unicode="p" horiz-adv-x="1255" 
d="M686 -20q-107 0 -195.5 39.5t-148.5 121.5h-12q12 -96 12 -182v-451h-166v1588h135l23 -150h8q64 90 149 130t195 40q218 0 336.5 -149t118.5 -418q0 -270 -120.5 -419.5t-334.5 -149.5zM662 975q-168 0 -243 -93t-77 -296v-37q0 -231 77 -330.5t247 -99.5
q142 0 222.5 115t80.5 317q0 205 -80.5 314.5t-226.5 109.5z" />
    <glyph glyph-name="q" unicode="q" horiz-adv-x="1255" 
d="M590 119q166 0 242 89t81 300v37q0 230 -78 331t-247 101q-146 0 -223.5 -113.5t-77.5 -320.5t76.5 -315.5t226.5 -108.5zM565 -20q-212 0 -331 149t-119 416q0 269 120 420t334 151q225 0 346 -170h9l24 150h131v-1588h-166v469q0 100 11 170h-13q-115 -167 -346 -167z
" />
    <glyph glyph-name="r" unicode="r" horiz-adv-x="836" 
d="M676 1116q73 0 131 -12l-23 -154q-68 15 -120 15q-133 0 -227.5 -108t-94.5 -269v-588h-166v1096h137l19 -203h8q61 107 147 165t189 58z" />
    <glyph glyph-name="s" unicode="s" horiz-adv-x="977" 
d="M883 299q0 -153 -114 -236t-320 -83q-218 0 -340 69v154q79 -40 169.5 -63t174.5 -23q130 0 200 41.5t70 126.5q0 64 -55.5 109.5t-216.5 107.5q-153 57 -217.5 99.5t-96 96.5t-31.5 129q0 134 109 211.5t299 77.5q177 0 346 -72l-59 -135q-165 68 -299 68
q-118 0 -178 -37t-60 -102q0 -44 22.5 -75t72.5 -59t192 -81q195 -71 263.5 -143t68.5 -181z" />
    <glyph glyph-name="t" unicode="t" horiz-adv-x="723" 
d="M530 117q44 0 85 6.5t65 13.5v-127q-27 -13 -79.5 -21.5t-94.5 -8.5q-318 0 -318 335v652h-157v80l157 69l70 234h96v-254h318v-129h-318v-645q0 -99 47 -152t129 -53z" />
    <glyph glyph-name="u" unicode="u" horiz-adv-x="1257" 
d="M332 1096v-711q0 -134 61 -200t191 -66q172 0 251.5 94t79.5 307v576h166v-1096h-137l-24 147h-9q-51 -81 -141.5 -124t-206.5 -43q-200 0 -299.5 95t-99.5 304v717h168z" />
    <glyph glyph-name="v" unicode="v" horiz-adv-x="1026" 
d="M416 0l-416 1096h178l236 -650q80 -228 94 -296h8q11 53 69.5 219.5t262.5 726.5h178l-416 -1096h-194z" />
    <glyph glyph-name="w" unicode="w" horiz-adv-x="1593" 
d="M1071 0l-201 643q-19 59 -71 268h-8q-40 -175 -70 -270l-207 -641h-192l-299 1096h174q106 -413 161.5 -629t63.5 -291h8q11 57 35.5 147.5t42.5 143.5l201 629h180l196 -629q56 -172 76 -289h8q4 36 21.5 111t208.5 807h172l-303 -1096h-197z" />
    <glyph glyph-name="x" unicode="x" horiz-adv-x="1073" 
d="M440 561l-381 535h189l289 -420l288 420h187l-381 -535l401 -561h-188l-307 444l-310 -444h-188z" />
    <glyph glyph-name="y" unicode="y" horiz-adv-x="1032" 
d="M2 1096h178l240 -625q79 -214 98 -309h8q13 51 54.5 174.5t271.5 759.5h178l-471 -1248q-70 -185 -163.5 -262.5t-229.5 -77.5q-76 0 -150 17v133q55 -12 123 -12q171 0 244 192l61 156z" />
    <glyph glyph-name="z" unicode="z" horiz-adv-x="958" 
d="M877 0h-795v113l598 854h-561v129h743v-129l-590 -838h605v-129z" />
    <glyph glyph-name="braceleft" unicode="{" horiz-adv-x="776" 
d="M475 12q0 -102 58.5 -148t171.5 -48v-140q-190 2 -294 87t-104 239v303q0 104 -63 148.5t-183 44.5v141q130 2 188 48t58 142v306q0 155 108 241t290 86v-139q-230 -6 -230 -199v-295q0 -215 -223 -254v-12q223 -39 223 -254v-297z" />
    <glyph glyph-name="bar" unicode="|" horiz-adv-x="1128" 
d="M494 1556h141v-2052h-141v2052z" />
    <glyph glyph-name="braceright" unicode="}" horiz-adv-x="776" 
d="M522 575q-223 39 -223 254v295q0 193 -227 199v139q184 0 289.5 -87t105.5 -240v-306q0 -97 59 -142.5t189 -47.5v-141q-122 0 -185 -44.5t-63 -148.5v-303q0 -153 -102.5 -238.5t-292.5 -87.5v140q111 2 169 48t58 148v297q0 114 55 174t168 80v12z" />
    <glyph glyph-name="asciitilde" unicode="~" 
d="M338 713q-53 0 -116.5 -33.5t-117.5 -87.5v151q100 109 244 109q68 0 124.5 -14t145.5 -52q66 -28 115 -41.5t96 -13.5q54 0 118 32t118 89v-150q-102 -110 -244 -110q-72 0 -135 16.5t-135 48.5q-75 32 -120 44t-93 12z" />
    <glyph glyph-name="uni00A0" unicode="&#xa0;" horiz-adv-x="646" 
 />
    <glyph glyph-name="exclamdown" unicode="&#xa1;" horiz-adv-x="547" 
d="M219 684h105l51 -1057h-207zM393 983q0 -135 -121 -135q-60 0 -90 35.5t-30 99.5q0 63 31.5 99t88.5 36q51 0 86 -32t35 -103z" />
    <glyph glyph-name="cent" unicode="&#xa2;" 
d="M971 240q-105 -54 -252 -60v-200h-133v206q-203 32 -299.5 168.5t-96.5 386.5q0 508 396 570v172h135v-164q75 -3 146 -19.5t120 -39.5l-49 -140q-133 51 -242 51q-172 0 -253 -105.5t-81 -322.5q0 -212 79.5 -313.5t246.5 -101.5q141 0 283 59v-147z" />
    <glyph glyph-name="sterling" unicode="&#xa3;" 
d="M682 1481q190 0 360 -84l-61 -133q-154 77 -297 77q-123 0 -185.5 -62t-62.5 -202v-295h422v-127h-422v-221q0 -100 -32.5 -168t-106.5 -112h795v-154h-1029v141q205 47 205 291v223h-198v127h198v316q0 178 112 280.5t302 102.5z" />
    <glyph glyph-name="currency" unicode="&#xa4;" 
d="M184 723q0 122 74 229l-135 140l94 92l135 -133q104 73 234 73q127 0 229 -73l137 133l95 -92l-134 -138q74 -113 74 -231q0 -131 -74 -234l131 -135l-92 -92l-137 133q-102 -71 -229 -71q-134 0 -234 73l-135 -133l-92 92l133 136q-74 107 -74 231zM313 723
q0 -112 78.5 -192t194.5 -80t195 79.5t79 192.5q0 114 -80 195t-194 81q-116 0 -194.5 -82t-78.5 -194z" />
    <glyph glyph-name="yen" unicode="&#xa5;" 
d="M584 735l379 727h174l-416 -770h262v-127h-317v-170h317v-127h-317v-268h-164v268h-316v127h316v170h-316v127h256l-411 770h178z" />
    <glyph glyph-name="brokenbar" unicode="&#xa6;" horiz-adv-x="1128" 
d="M494 1556h141v-776h-141v776zM494 281h141v-777h-141v777z" />
    <glyph glyph-name="section" unicode="&#xa7;" horiz-adv-x="1057" 
d="M139 809q0 86 43 154.5t121 105.5q-74 40 -116 95.5t-42 140.5q0 121 103.5 190.5t300.5 69.5q94 0 173.5 -14.5t176.5 -53.5l-53 -131q-98 39 -165.5 52.5t-143.5 13.5q-116 0 -174 -29.5t-58 -93.5q0 -60 61.5 -102t215.5 -97q186 -68 261 -143.5t75 -182.5
q0 -90 -41 -160.5t-115 -111.5q153 -81 153 -227q0 -140 -117 -216.5t-329 -76.5q-218 0 -346 65v148q78 -37 175 -59.5t179 -22.5q134 0 204.5 38t70.5 109q0 46 -24 75t-78 58t-169 72q-142 52 -209 97t-100 102t-33 135zM285 829q0 -77 66 -129.5t233 -113.5l49 -19
q137 80 137 191q0 83 -73.5 139t-258.5 113q-68 -19 -110.5 -69t-42.5 -112z" />
    <glyph glyph-name="dieresis" unicode="&#xa8;" horiz-adv-x="1182" 
d="M309 1393q0 52 26.5 75t63.5 23q38 0 65.5 -23t27.5 -75q0 -50 -27.5 -74.5t-65.5 -24.5q-37 0 -63.5 24.5t-26.5 74.5zM690 1393q0 52 26.5 75t63.5 23t64.5 -23t27.5 -75q0 -50 -27.5 -74.5t-64.5 -24.5t-63.5 24.5t-26.5 74.5z" />
    <glyph glyph-name="copyright" unicode="&#xa9;" horiz-adv-x="1704" 
d="M893 1059q-125 0 -192.5 -87t-67.5 -241q0 -168 63.5 -249t194.5 -81q86 0 211 45v-124q-48 -20 -98.5 -34t-120.5 -14q-194 0 -298 120.5t-104 336.5q0 209 110.5 332t301.5 123q128 0 246 -60l-58 -118q-108 51 -188 51zM100 731q0 200 100 375t275 276t377 101
q200 0 375 -100t276 -275t101 -377q0 -197 -97 -370t-272 -277t-383 -104q-207 0 -382 103.5t-272.5 276.5t-97.5 371zM205 731q0 -173 87 -323.5t237.5 -237t322.5 -86.5q174 0 323 87t236.5 235.5t87.5 324.5q0 174 -87 323t-235.5 236.5t-324.5 87.5q-174 0 -323 -87
t-236.5 -235.5t-87.5 -324.5z" />
    <glyph glyph-name="ordfeminine" unicode="&#xaa;" horiz-adv-x="725" 
d="M532 801l-24 84q-92 -97 -232 -97q-95 0 -150.5 49.5t-55.5 151.5t77 154.5t242 58.5l117 4v39q0 133 -148 133q-100 0 -204 -51l-43 96q114 56 247 56q130 0 198.5 -52.5t68.5 -173.5v-452h-93zM193 989q0 -100 112 -100q201 0 201 180v49l-98 -4q-112 -4 -163.5 -32.5
t-51.5 -92.5z" />
    <glyph glyph-name="guillemotleft" unicode="&#xab;" horiz-adv-x="1316" 
d="M489 2q-335 462 -335 504t335 504h187l-28 -42q-285 -410 -285 -463t285 -462l28 -41h-187zM969 2q-333 461 -333 504q0 41 333 504h188l-29 -42q-284 -409 -284 -463q0 -53 284 -461l29 -42h-188z" />
    <glyph glyph-name="logicalnot" unicode="&#xac;" 
d="M1065 791v-527h-137v389h-824v138h961z" />
    <glyph glyph-name="uni00AD" unicode="&#xad;" horiz-adv-x="659" 
d="M84 473v152h491v-152h-491z" />
    <glyph glyph-name="registered" unicode="&#xae;" horiz-adv-x="1704" 
d="M723 762h108q80 0 128.5 41.5t48.5 105.5q0 75 -43 107.5t-136 32.5h-106v-287zM1157 913q0 -80 -42.5 -141.5t-119.5 -91.5l238 -395h-168l-207 354h-135v-354h-148v891h261q166 0 243.5 -65t77.5 -198zM100 731q0 200 100 375t275 276t377 101q200 0 375 -100t276 -275
t101 -377q0 -197 -97 -370t-272 -277t-383 -104q-207 0 -382 103.5t-272.5 276.5t-97.5 371zM205 731q0 -173 87 -323.5t237.5 -237t322.5 -86.5q174 0 323 87t236.5 235.5t87.5 324.5q0 174 -87 323t-235.5 236.5t-324.5 87.5q-174 0 -323 -87t-236.5 -235.5t-87.5 -324.5z
" />
    <glyph glyph-name="macron" unicode="&#xaf;" horiz-adv-x="1024" 
d="M1030 1556h-1036v127h1036v-127z" />
    <glyph glyph-name="degree" unicode="&#xb0;" horiz-adv-x="877" 
d="M127 1171q0 130 90.5 221t220.5 91t221 -90.5t91 -221.5q0 -84 -41 -155.5t-114 -113.5t-157 -42q-130 0 -220.5 90t-90.5 221zM242 1171q0 -82 58.5 -139t139.5 -57q80 0 137.5 56.5t57.5 139.5q0 84 -56.5 140.5t-138.5 56.5q-83 0 -140.5 -57t-57.5 -140z" />
    <glyph glyph-name="plusminus" unicode="&#xb1;" 
d="M653 791h412v-138h-412v-426h-139v426h-410v138h410v428h139v-428zM104 1v138h961v-138h-961z" />
    <glyph glyph-name="uni00B2" unicode="&#xb2;" horiz-adv-x="711" 
d="M653 586h-604v104l236 230q89 86 130 134.5t57.5 86.5t16.5 92q0 68 -40 102.5t-103 34.5q-52 0 -101 -19t-118 -69l-66 88q131 111 283 111q132 0 205.5 -65t73.5 -177q0 -80 -44.5 -155.5t-191.5 -213.5l-174 -165h440v-119z" />
    <glyph glyph-name="uni00B3" unicode="&#xb3;" horiz-adv-x="711" 
d="M627 1255q0 -80 -41 -131.5t-109 -74.5q176 -47 176 -209q0 -128 -92 -199.5t-260 -71.5q-152 0 -268 56v123q147 -68 270 -68q211 0 211 162q0 145 -231 145h-117v107h119q103 0 152.5 39.5t49.5 107.5q0 61 -40 95t-107 34q-66 0 -122 -21.5t-112 -56.5l-69 90
q63 45 133 72t164 27q136 0 214.5 -59.5t78.5 -166.5z" />
    <glyph glyph-name="acute" unicode="&#xb4;" horiz-adv-x="1182" 
d="M393 1266q48 62 103.5 150t87.5 153h202v-21q-44 -65 -131 -160t-151 -147h-111v25z" />
    <glyph glyph-name="mu" unicode="&#xb5;" horiz-adv-x="1268" 
d="M342 381q0 -262 254 -262q171 0 250.5 94.5t79.5 306.5v576h166v-1096h-136l-26 147h-10q-111 -167 -340 -167q-150 0 -238 92h-10q10 -84 10 -244v-320h-166v1588h166v-715z" />
    <glyph glyph-name="paragraph" unicode="&#xb6;" horiz-adv-x="1341" 
d="M1120 -260h-114v1712h-213v-1712h-115v819q-62 -18 -146 -18q-216 0 -317.5 125t-101.5 376q0 260 109 387t341 127h557v-1816z" />
    <glyph glyph-name="periodcentered" unicode="&#xb7;" horiz-adv-x="545" 
d="M152 723q0 66 31 100.5t87 34.5q58 0 90.5 -34.5t32.5 -100.5q0 -65 -33 -100t-90 -35q-51 0 -84.5 31.5t-33.5 103.5z" />
    <glyph glyph-name="cedilla" unicode="&#xb8;" horiz-adv-x="465" 
d="M436 -289q0 -97 -76.5 -150t-226.5 -53q-51 0 -96 9v106q45 -8 104 -8q79 0 119.5 20t40.5 74q0 43 -39.5 69.5t-148.5 43.5l88 178h110l-55 -115q180 -39 180 -174z" />
    <glyph glyph-name="uni00B9" unicode="&#xb9;" horiz-adv-x="711" 
d="M338 1462h143v-876h-133v579q0 91 6 181q-22 -22 -49 -44.5t-162 -117.5l-67 96z" />
    <glyph glyph-name="ordmasculine" unicode="&#xba;" horiz-adv-x="768" 
d="M702 1135q0 -164 -85.5 -255.5t-235.5 -91.5q-146 0 -230.5 93t-84.5 254q0 163 84 253.5t235 90.5q152 0 234.5 -91t82.5 -253zM188 1135q0 -122 45.5 -183t149.5 -61q105 0 151 61t46 183q0 123 -46 182t-151 59q-103 0 -149 -59t-46 -182z" />
    <glyph glyph-name="guillemotright" unicode="&#xbb;" horiz-adv-x="1316" 
d="M827 2h-187l29 41q284 409 284 462t-284 463l-29 42h187q335 -462 335 -504t-335 -504zM347 2h-188l29 42q284 408 284 461q0 54 -284 463l-29 42h188q333 -463 333 -504q0 -43 -333 -504z" />
    <glyph glyph-name="onequarter" unicode="&#xbc;" horiz-adv-x="1597" 
d="M1298 1462l-903 -1462h-143l903 1462h143zM337 1462h143v-876h-133v579q0 91 6 181q-22 -22 -49 -44.5t-162 -117.5l-67 96zM1489 203h-125v-202h-145v202h-402v101l408 579h139v-563h125v-117zM1219 320v195q0 134 6 209q-5 -12 -17 -31.5t-27 -42l-30 -45t-26 -39.5
l-168 -246h262z" />
    <glyph glyph-name="onehalf" unicode="&#xbd;" horiz-adv-x="1597" 
d="M1230 1462l-903 -1462h-143l903 1462h143zM308 1462h143v-876h-133v579q0 91 6 181q-22 -22 -49 -44.5t-162 -117.5l-67 96zM1499 1h-604v104l236 230q89 86 130 134.5t57.5 86.5t16.5 92q0 68 -40 102.5t-103 34.5q-52 0 -101 -19t-118 -69l-66 88q131 111 283 111
q132 0 205.5 -65t73.5 -177q0 -80 -44.5 -155.5t-191.5 -213.5l-174 -165h440v-119z" />
    <glyph glyph-name="threequarters" unicode="&#xbe;" horiz-adv-x="1597" 
d="M620 1255q0 -80 -41 -131.5t-109 -74.5q176 -47 176 -209q0 -128 -92 -199.5t-260 -71.5q-152 0 -268 56v123q147 -68 270 -68q211 0 211 162q0 145 -231 145h-117v107h119q103 0 152.5 39.5t49.5 107.5q0 61 -40 95t-107 34q-66 0 -122 -21.5t-112 -56.5l-69 90
q63 45 133 72t164 27q136 0 214.5 -59.5t78.5 -166.5zM1390 1462l-903 -1462h-143l903 1462h143zM1569 203h-125v-202h-145v202h-402v101l408 579h139v-563h125v-117zM1299 320v195q0 134 6 209q-5 -12 -17 -31.5t-27 -42l-30 -45t-26 -39.5l-168 -246h262z" />
    <glyph glyph-name="questiondown" unicode="&#xbf;" horiz-adv-x="879" 
d="M590 684v-51q0 -122 -37.5 -196t-134.5 -158q-121 -106 -151.5 -143.5t-43 -76t-12.5 -94.5q0 -100 66 -156.5t188 -56.5q80 0 155 19t173 67l59 -135q-197 -96 -395 -96q-190 0 -298 93t-108 263q0 70 17.5 122.5t49.5 97t76.5 85.5t98.5 88q101 88 133.5 146t32.5 151
v31h131zM639 983q0 -135 -121 -135q-59 0 -90 34.5t-31 100.5q0 64 33 99.5t88 35.5q51 0 86 -32t35 -103z" />
    <glyph glyph-name="uni02BC" unicode="&#x2bc;" horiz-adv-x="348" 
d="M309 1462l15 -22q-26 -100 -75 -232.5t-102 -246.5h-122q70 285 102 501h182z" />
    <glyph glyph-name="circumflex" unicode="&#x2c6;" horiz-adv-x="1212" 
d="M268 1264q127 136 178 200t74 105h166q22 -42 76.5 -108.5t179.5 -196.5v-23h-119q-88 55 -221 186q-136 -134 -219 -186h-115v23z" />
    <glyph glyph-name="caron" unicode="&#x2c7;" horiz-adv-x="1212" 
d="M268 1569h115q114 -74 219 -189q130 130 221 189h119v-25l-66 -68q-144 -148 -190 -235h-166q-23 41 -74 104t-178 199v25z" />
    <glyph glyph-name="uni02C9" unicode="&#x2c9;" horiz-adv-x="1202" 
d="M301 1378h600v-137h-600v137z" />
    <glyph glyph-name="breve" unicode="&#x2d8;" horiz-adv-x="1212" 
d="M598 1241q-140 0 -218 68.5t-87 199.5h104q6 -49 26.5 -77t57 -41t121.5 -13q101 0 149 32t58 99h104q-10 -126 -93.5 -197t-221.5 -71z" />
    <glyph glyph-name="dotaccent" unicode="&#x2d9;" horiz-adv-x="518" 
d="M162 1393q0 57 28 83.5t70 26.5q40 0 69 -27t29 -83t-29 -83.5t-69 -27.5q-42 0 -70 27.5t-28 83.5z" />
    <glyph glyph-name="ring" unicode="&#x2da;" horiz-adv-x="1182" 
d="M813 1458q0 -98 -61.5 -157.5t-163.5 -59.5q-101 0 -161 58.5t-60 156.5t60.5 155.5t160.5 57.5q101 0 163 -59.5t62 -151.5zM705 1456q0 56 -33 86.5t-84 30.5t-84 -30.5t-33 -86.5t30 -86.5t87 -30.5q52 0 84.5 30.5t32.5 86.5z" />
    <glyph glyph-name="ogonek" unicode="&#x2db;" horiz-adv-x="403" 
d="M178 -238q0 -94 94 -94q42 0 97 13v-109q-65 -18 -125 -18q-207 0 -207 188q0 70 43 137.5t115 120.5h120q-68 -66 -102.5 -120.5t-34.5 -117.5z" />
    <glyph glyph-name="tilde" unicode="&#x2dc;" horiz-adv-x="1212" 
d="M788 1243q-43 0 -84 18.5t-80.5 41t-76 41t-70.5 18.5q-50 0 -75.5 -30t-39.5 -91h-98q13 121 70.5 189.5t148.5 68.5q46 0 89 -18.5t82 -41t75 -41t68 -18.5q49 0 73 29.5t39 91.5h99q-13 -121 -69.5 -189.5t-150.5 -68.5z" />
    <glyph glyph-name="hungarumlaut" unicode="&#x2dd;" horiz-adv-x="1182" 
d="M231 1266q36 48 91 141t86 162h186v-21q-37 -63 -122.5 -161t-143.5 -146h-97v25zM588 1266q49 68 99.5 156.5t76.5 146.5h186v-21q-37 -63 -122.5 -161t-143.5 -146h-96v25z" />
    <glyph glyph-name="uni02F3" unicode="&#x2f3;" horiz-adv-x="682" 
d="M565 -338q0 -97 -62.5 -157t-164.5 -60q-101 0 -161 58.5t-60 156.5t60 156.5t161 58.5t164 -59t63 -154zM455 -340q0 57 -33 87t-84 30t-84 -30t-33 -87q0 -56 30 -86.5t87 -30.5q53 0 85 30.5t32 86.5z" />
    <glyph glyph-name="hookabovecomb" unicode="&#x309;" horiz-adv-x="0" 
d="M-397 1495q0 -140 -166 -174l-10 -113h-105l-12 176q86 14 125 39t39 68t-33.5 63.5t-106.5 20.5q-62 0 -94 -6v100q38 10 107 10q256 0 256 -184z" />
    <glyph glyph-name="uni030F" unicode="&#x30f;" horiz-adv-x="0" 
d="M-332 1241h-96q-52 42 -140.5 143t-125.5 164v21h186q28 -61 77.5 -148t98.5 -155v-25zM-688 1241h-96q-56 44 -143 144t-124 163v21h187q28 -61 77.5 -148t98.5 -155v-25z" />
    <glyph glyph-name="dotbelowcomb" unicode="&#x323;" horiz-adv-x="0" 
d="M-709 -242q0 57 29.5 84t71.5 27q40 0 69 -27t29 -84q0 -55 -29 -82.5t-69 -27.5q-42 0 -71.5 27.5t-29.5 82.5z" />
    <glyph glyph-name="tonos" unicode="&#x384;" horiz-adv-x="1182" 
d="M508 1270q27 72 53.5 185.5t38.5 195.5h184v-23q-18 -74 -72.5 -192.5t-103.5 -194.5h-100v29z" />
    <glyph glyph-name="uni060C" unicode="&#x60c;" horiz-adv-x="748" 
d="M352 301l26 -5q106 -18 121 -112t-34.5 -142t-120.5 -42q-161 14 -144 211q22 256 293 419q35 21 46 11q6 -5 8 -7q11 -13 -22.5 -38.5t-57.5 -51.5q-126 -137 -115 -243z" />
    <glyph glyph-name="uni0615" unicode="&#x615;" horiz-adv-x="0" 
d="M676 2118h101q195 0 264 78q35 38 27 99q-8 72 -91 62q-115 -13 -301 -239zM727 2018h-307l-53 100h137v671h102v-620q248 359 453 297q85 -26 105 -125q28 -140 -76.5 -231.5t-360.5 -91.5z" />
    <glyph glyph-name="uni061B" unicode="&#x61b;" horiz-adv-x="748" 
d="M214 159q0 57 40.5 97.5t97 40.5t98.5 -40q39 -41 39 -98t-40.5 -97.5t-97 -40.5t-97 40.5t-40.5 97.5zM352 821l26 -5q106 -18 121 -112t-34.5 -142t-125.5 -42q-156 13 -139 211q22 256 293 419q35 21 46 11q6 -5 8 -7q11 -13 -22 -38q-72 -54 -126 -139t-47 -156z" />
    <glyph glyph-name="uni061F" unicode="&#x61f;" horiz-adv-x="1024" 
d="M433 159q0 57 40.5 97.5t97 40.5t98.5 -40q39 -41 39 -98t-40.5 -97.5t-97 -40.5t-97 40.5t-40.5 97.5zM540 516q-26 0 -26 27v21q0 88 -141 195l-77 59q-144 110 -145 282q-1 85 30 153t93 120q94 78 242 78q200 0 299 -139q58 -81 63 -210q1 -15 0 -29q0 -15 -1 -28
l-98 -1q-41 220 -251 220q-125 0 -178 -82q-24 -37 -24 -91q0 -47 37 -101q36 -53 111 -114l48 -39q126 -103 126 -267v-23q0 -31 -28 -31h-80z" />
    <glyph glyph-name="uni0621" unicode="&#x621;" horiz-adv-x="891" 
d="M682 534q-131 46 -201 41q-69 -5 -118 -57q-49 -51 -47 -72q4 -41 78 -90q74 -50 88 -52t32 0q33 4 114 25l101 26q53 13 56 6q4 -7 -1 -45l-16 -110l-663 -183l69 184l100 28q-143 124 -80 314q45 138 179 186q137 49 281 -24q33 -16 68 -49q-5 -23 -40 -128z" />
    <glyph glyph-name="uni0627" unicode="&#x627;" horiz-adv-x="484" 
d="M187 -13q-11 1281 -36 1442l149 67q26 12 28 -28q17 -318 9 -853q-9 -540 -13 -548q-37 -79 -137 -80z" />
    <glyph glyph-name="uni0628" unicode="&#x628;" horiz-adv-x="1809" 
d="M938 -195l124 -124q8 -9 -3 -21l-118 -119q-15 -13 -29 1l-116 116q-14 14 0 28l119 119q12 11 23 0zM286 732q-33 -124 -33 -216q0 -91 47 -160q113 -167 504 -171q537 -5 723 146q58 48 -59 393l109 129q17 20 39 -23q81 -155 81 -359q0 -114 -43 -203
q-128 -266 -810 -266q-358 0 -537 99q-203 112 -203 357q1 149 81 309z" />
    <glyph glyph-name="uni0629" unicode="&#x629;" horiz-adv-x="873" 
d="M577 1025q-13 -13 -27 0l-111 112q-13 13 1 27l113 113q11 11 22 0l119 -119q9 -8 -3 -19zM274 1277l118 -118q8 -10 -3 -20l-113 -114q-14 -13 -27 0l-112 112q-13 13 1 27l113 113q11 11 23 0zM368 597q-123 -166 -124 -285q-1 -126 204 -126q173 0 195 108
q26 130 -206 266q-55 32 -69 37zM313 776q19 26 35.5 26t26.5 -4q401 -152 401 -465q0 -152 -92 -239.5t-251.5 -87.5t-258.5 113q-65 72 -65 177q0 197 204 480z" />
    <glyph glyph-name="uni062A" unicode="&#x62a;" horiz-adv-x="1809" 
d="M1045 866q-13 -13 -27 0l-111 112q-13 13 1 27l113 113q11 11 22 0l119 -119q9 -8 -3 -19zM742 1118l118 -118q8 -10 -3 -20l-113 -114q-14 -13 -27 0l-112 112q-13 13 1 27l113 113q11 11 23 0zM286 732q-33 -124 -33 -216q0 -91 47 -160q113 -167 504 -171
q537 -5 723 146q58 48 -59 393l109 129q17 20 39 -23q81 -155 81 -359q0 -114 -43 -203q-128 -266 -810 -266q-358 0 -537 99q-203 112 -203 357q1 149 81 309z" />
    <glyph glyph-name="uni062B" unicode="&#x62b;" horiz-adv-x="1809" 
d="M898 1263l111 -111q6 -6 1 -12l-110 -109q-7 -8 -15 0l-107 107q-8 8 0 16l109 109q6 5 11 0zM1044 1037l112 -112q5 -5 0 -11l-110 -110q-7 -7 -15 1l-107 107q-8 8 0 16l109 109q6 5 11 0zM864 914l-109 -109q-8 -8 -16 0l-107 107q-8 8 0 16l109 109q7 4 11 0
l111 -111q6 -6 1 -12zM286 732q-33 -124 -33 -216q0 -91 47 -160q113 -167 504 -171q537 -5 723 146q58 48 -59 393l109 129q17 20 39 -23q81 -155 81 -359q0 -114 -43 -203q-128 -266 -810 -266q-358 0 -537 99q-203 112 -203 357q1 149 81 309z" />
    <glyph glyph-name="uni062C" unicode="&#x62c;" horiz-adv-x="1335" 
d="M822 137l124 -124q8 -9 -3 -21l-118 -119q-15 -13 -29 1l-116 116q-14 14 0 28l119 119q12 11 23 0zM1209 -404q18 -2 1 -108q-9 -61 -13 -66q-5 -6 -25 -10q-147 -25 -330 -25q-143 0 -258 19q-184 30 -285 118q-157 136 -157 363q0 396 346 610q125 77 306 113
q-117 22 -186 38q-134 30 -199 30q-108 0 -205 -119q-49 18 -92 48q63 152 163 221q51 37 108 37q56 0 165 -25t451 -122q120 -35 223 -32q19 1 12 -15l-71 -168q-315 -9 -553 -132q-321 -165 -321 -455q1 -352 519 -350q151 1 234 11t167 19z" />
    <glyph glyph-name="uni062D" unicode="&#x62d;" horiz-adv-x="1335" 
d="M1209 -404q18 -2 1 -108q-9 -61 -13 -66q-5 -6 -25 -10q-147 -25 -330 -25q-143 0 -258 19q-184 30 -285 118q-157 136 -157 363q0 396 346 610q125 77 306 113q-117 22 -186 38q-134 30 -199 30q-108 0 -205 -119q-49 18 -92 48q63 152 163 221q51 37 108 37
q56 0 165 -25t451 -122q120 -35 223 -32q19 1 12 -15l-71 -168q-315 -9 -553 -132q-321 -165 -321 -455q1 -352 519 -350q151 1 234 11t167 19z" />
    <glyph glyph-name="uni062E" unicode="&#x62e;" horiz-adv-x="1335" 
d="M636 1356l124 -124q8 -9 -3 -21l-118 -119q-15 -13 -29 1l-116 116q-14 14 0 28l119 119q12 11 23 0zM1209 -404q18 -2 1 -108q-9 -61 -13 -66q-5 -6 -25 -10q-147 -25 -330 -25q-143 0 -258 19q-184 30 -285 118q-157 136 -157 363q0 396 346 610q125 77 306 113
q-117 22 -186 38q-134 30 -199 30q-108 0 -205 -119q-49 18 -92 48q63 152 163 221q51 37 108 37q56 0 165 -25t451 -122q120 -35 223 -32q19 1 12 -15l-71 -168q-315 -9 -553 -132q-321 -165 -321 -455q1 -352 519 -350q151 1 234 11t167 19z" />
    <glyph glyph-name="uni062F" unicode="&#x62f;" horiz-adv-x="1031" 
d="M231 326q-3 -58 18 -85q49 -61 169 -61q196 0 320 74q65 39 13 144q-86 173 -397 390l64 171q11 28 53 -6q448 -351 448 -602q0 -74 -29 -132q-106 -217 -473 -216q-377 0 -297 334z" />
    <glyph glyph-name="uni0630" unicode="&#x630;" horiz-adv-x="1031" 
d="M414 1505l124 -124q8 -9 -3 -21l-118 -119q-15 -13 -29 1l-116 116q-14 14 0 28l119 119q12 11 23 0zM231 326q-3 -58 18 -85q49 -61 169 -61q196 0 320 74q65 39 13 144q-86 173 -397 390l64 171q11 28 53 -6q448 -351 448 -602q0 -74 -29 -132q-106 -217 -473 -216
q-377 0 -297 334z" />
    <glyph glyph-name="uni0631" unicode="&#x631;" horiz-adv-x="778" 
d="M29 -401q476 125 511 472q12 116 -109 347l104 132q13 16 18 15q19 -2 58 -74q85 -158 85 -363q0 -179 -98 -339q-90 -148 -253 -243q-108 -63 -204 -85q-52 -12 -68 9q-40 51 -51 71q-27 49 7 58z" />
    <glyph glyph-name="uni0632" unicode="&#x632;" horiz-adv-x="778" 
d="M480 1088l124 -124q8 -9 -3 -21l-118 -119q-15 -13 -29 1l-116 116q-14 14 0 28l119 119q12 11 23 0zM29 -401q476 125 511 472q12 116 -109 347l104 132q13 16 18 15q19 -2 58 -74q85 -158 85 -363q0 -179 -98 -339q-90 -148 -253 -243q-108 -63 -204 -85q-52 -12 -68 9
q-40 51 -51 71q-27 49 7 58z" />
    <glyph glyph-name="uni0633" unicode="&#x633;" horiz-adv-x="2350" 
d="M1924 1q-156 0 -244 128q-96 -128 -206 -127q-122 1 -167 48q3 -51 -14 -135q-94 -456 -627 -454q-211 1 -358 94q-200 128 -201 407q-1 195 103 423l110 -33q-57 -187 -57 -339q0 -372 415 -372q315 0 435 195q42 67 42 146q0 65 -117 356l96 147q24 31 51 -29
q76 -165 76 -167q63 -109 188 -104q144 6 155 137l16 199h123l16 -195q11 -143 162 -144q168 0 166 163q-1 54 -79 270l109 126q17 20 38 -23q86 -177 83 -341q-2 -143 -81 -251q-92 -125 -233 -125z" />
    <glyph glyph-name="uni0634" unicode="&#x634;" horiz-adv-x="2350" 
d="M1689 1302l111 -111q6 -6 1 -12l-110 -109q-7 -8 -15 0l-107 107q-8 8 0 16l109 109q6 5 11 0zM1835 1076l112 -112q5 -5 0 -11l-110 -110q-7 -7 -15 1l-107 107q-8 8 0 16l109 109q6 5 11 0zM1655 953l-109 -109q-8 -8 -16 0l-107 107q-8 8 0 16l109 109q7 4 11 0
l111 -111q6 -6 1 -12zM1924 1q-156 0 -244 128q-96 -128 -206 -127q-122 1 -167 48q3 -51 -14 -135q-94 -456 -627 -454q-211 1 -358 94q-200 128 -201 407q-1 195 103 423l110 -33q-57 -187 -57 -339q0 -372 415 -372q315 0 435 195q42 67 42 146q0 65 -117 356l96 147
q24 31 51 -29q76 -165 76 -167q63 -109 188 -104q144 6 155 137l16 199h123l16 -195q11 -143 162 -144q168 0 166 163q-1 54 -79 270l109 126q17 20 38 -23q86 -177 83 -341q-2 -143 -81 -251q-92 -125 -233 -125z" />
    <glyph glyph-name="uni0635" unicode="&#x635;" horiz-adv-x="2629" 
d="M1602 182h311q260 0 364 81q74 57 75 159q0 63 -39 112q-45 56 -147 56q-226 0 -564 -408zM1261 279q55 -93 191 -94q366 583 722 581q108 0 184 -44q161 -93 156 -295q-4 -183 -166 -301q-171 -126 -526 -126h-235q-218 0 -281 50q4 -59 -13 -138q-97 -452 -627 -451
q-212 1 -356 93q-202 128 -203 404q-2 194 103 427l110 -33q-57 -187 -57 -339q0 -372 415 -372q315 0 435 195q42 67 42 146q0 65 -117 356l96 147q25 32 51 -29q76 -176 76 -177z" />
    <glyph glyph-name="uni0636" unicode="&#x636;" horiz-adv-x="2629" 
d="M2084 1336l124 -124q8 -9 -3 -21l-118 -119q-15 -13 -29 1l-116 116q-14 14 0 28l119 119q12 11 23 0zM1602 182h311q260 0 364 81q74 57 75 159q0 63 -39 112q-45 56 -147 56q-226 0 -564 -408zM1261 279q55 -93 191 -94q366 583 722 581q108 0 184 -44
q161 -93 156 -295q-4 -183 -166 -301q-171 -126 -526 -126h-235q-218 0 -281 50q4 -59 -13 -138q-97 -452 -627 -451q-212 1 -356 93q-202 128 -203 404q-2 194 103 427l110 -33q-57 -187 -57 -339q0 -372 415 -372q315 0 435 195q42 67 42 146q0 65 -117 356l96 147
q25 32 51 -29q76 -176 76 -177z" />
    <glyph glyph-name="uni0637" unicode="&#x637;" horiz-adv-x="1608" 
d="M580 184h311q259 0 364 81q74 57 74 159q0 63 -39 112q-44 56 -146 56q-227 0 -564 -408zM270 1q-162 127 -164 163q0 6 8 12q6 6 20 6h299q32 52 65 104q-1 4 -22 492q-26 586 -41 652l154 67q25 11 26 -25l16 -1017q268 314 506 314t326 -187q29 -64 29 -147
q0 -186 -164 -305q-176 -128 -529 -128h-234z" />
    <glyph glyph-name="uni0638" unicode="&#x638;" horiz-adv-x="1608" 
d="M1104 1334l124 -124q8 -9 -3 -21l-118 -119q-15 -13 -29 1l-116 116q-14 14 0 28l119 119q12 11 23 0zM580 184h311q259 0 364 81q74 57 74 159q0 63 -39 112q-44 56 -146 56q-227 0 -564 -408zM270 1q-162 127 -164 163q0 6 8 12q6 6 20 6h299q32 52 65 104
q-1 4 -22 492q-26 586 -41 652l154 67q25 11 26 -25l16 -1017q268 314 506 314t326 -187q29 -64 29 -147q0 -186 -164 -305q-176 -128 -529 -128h-234z" />
    <glyph glyph-name="uni0639" unicode="&#x639;" horiz-adv-x="1285" 
d="M1167 -424q6 -13 6 -65q0 -101 -6 -111q-3 -5 -26 -10q-127 -23 -350 -23q-180 0 -327 39q-129 33 -201 98q-157 137 -157 343q0 387 342 566q-208 153 -149 391q33 131 142 210q113 82 259 82q181 1 296 -103l15 -15q-4 -20 -46 -129q-341 131 -502 -52q-34 -39 -34 -69
q0 -71 112 -158q77 -59 211 -37q48 8 187 29l139 17q33 5 23 -32q-12 -42 -58 -182q-370 -4 -563 -118q-228 -135 -227 -371q1 -332 523 -330q128 1 391 30z" />
    <glyph glyph-name="uni063A" unicode="&#x63a;" horiz-adv-x="1285" 
d="M682 1619l124 -124q8 -9 -3 -21l-118 -119q-15 -13 -29 1l-116 116q-14 14 0 28l119 119q12 11 23 0zM1167 -424q6 -13 6 -65q0 -101 -6 -111q-3 -5 -26 -10q-127 -23 -350 -23q-180 0 -327 39q-129 33 -201 98q-157 137 -157 343q0 387 342 566q-208 153 -149 391
q33 131 142 210q113 82 259 82q181 1 296 -103l15 -15q-4 -20 -46 -129q-341 131 -502 -52q-34 -39 -34 -69q0 -71 112 -158q77 -59 211 -37q48 8 187 29l139 17q33 5 23 -32q-12 -42 -58 -182q-370 -4 -563 -118q-228 -135 -227 -371q1 -332 523 -330q128 1 391 30z" />
    <glyph glyph-name="uni0640" unicode="&#x640;" horiz-adv-x="245" 
d="M-11 0v180h271v-180h-271z" />
    <glyph glyph-name="uni0641" unicode="&#x641;" horiz-adv-x="1728" 
d="M1305 1518l124 -124q8 -9 -3 -21l-118 -119q-15 -13 -29 1l-116 116q-14 14 0 28l119 119q12 11 23 0zM1314 865q-116 0 -150 -139q-29 -122 67 -148q70 -18 166 -3q61 9 94 25q-10 139 -57 201q-48 64 -120 64zM847 2q-370 0 -542 97q-202 112 -201 359q1 149 81 309
l101 -35q-69 -253 9 -370q114 -169 459 -182q25 -1 214.5 -1t296.5 18q215 37 225 181l2 28q-209 -45 -338 8q-128 54 -128 205q1 113 35 204q87 231 261 231q116 0 185 -86q125 -155 130 -502q8 -464 -585 -464h-205z" />
    <glyph glyph-name="uni0642" unicode="&#x642;" horiz-adv-x="1402" 
d="M1132 984q-13 -13 -27 0l-111 112q-13 13 1 27l113 113q11 11 22 0l119 -119q9 -8 -3 -19zM829 1236l118 -118q8 -10 -3 -20l-113 -114q-14 -13 -27 0l-112 112q-13 13 1 27l113 113q11 11 23 0zM982 564q-116 -1 -150 -140q-29 -122 67 -148q70 -18 166 -3q61 9 94 25
q-10 139 -57 201q-48 64 -120 65zM1300 190q0 -298 -113 -431q-166 -196 -511 -193q-227 1 -370 90q-198 123 -198 409q0 206 102 421l110 -32q-57 -188 -57 -339q0 -373 425 -373q313 0 435 199q33 54 37 163q-209 -45 -338 9q-128 53 -128 204q1 113 35 204
q87 231 261 231q116 0 185 -86q125 -154 125 -476z" />
    <glyph glyph-name="uni0643" unicode="&#x643;" horiz-adv-x="1888" 
d="M860 1197q-1 -45 136 -69.5t167 -117.5q36 -108 -25 -194q-74 -102 -264 -95q-95 3 -193 34l13 141q165 -58 304 -28q79 16 88 61q7 48 -136 79q-173 37 -169 206q6 184 318 222q21 3 37 -2.5t6 -32.5l-36 -104q-244 -25 -246 -100zM289 732q-69 -255 8 -370
q117 -172 464 -180q352 -8 555 44q112 28 219 95q46 29 50 206q3 167 1 197q-5 67 -12 273t-30 412l151 94q37 22 37 -23v-768q18 -455 -140 -559q-228 -151 -716 -151q-390 0 -569 99q-203 111 -201 357q2 152 81 309z" />
    <glyph glyph-name="uni0644" unicode="&#x644;" horiz-adv-x="1375" 
d="M679 -315q267 6 366 174q39 66 35 284q-18 839 -62 1281l148 64q28 12 29 -15l32 -1309q16 -651 -550 -660q-217 -3 -366 90q-205 130 -203 419q1 189 102 412l110 -33q-58 -191 -59 -331q-2 -385 418 -376z" />
    <glyph glyph-name="uni0645" unicode="&#x645;" horiz-adv-x="1116" 
d="M667 69q-150 26 -267 26q-118 0 -150 -18l13 -594q2 -90 -86 -180q-55 -56 -57 4l-13 403q-8 243 23 365q41 159 160 201q73 280 167 391q124 146 323 31q179 -104 225 -352q26 -138 -96 -256q-56 -55 -88 -48q-4 1 -154 27zM412 283q173 -9 274 -28t136 -19t35 22
q0 50 -34 124q-60 131 -178 162q-14 4 -32 4t-41 -8q-44 -14 -79.5 -69t-80.5 -188z" />
    <glyph glyph-name="uni0646" unicode="&#x646;" horiz-adv-x="1410" 
d="M689 880l124 -124q8 -9 -3 -21l-118 -119q-15 -13 -29 1l-116 116q-14 14 0 28l119 119q12 11 23 0zM1195 608q131 -321 107 -499q-69 -511 -635 -511q-288 0 -430 152q-156 169 -125 452q15 142 98 320l110 -33q-61 -199 -59 -342q4 -372 419 -370q314 2 433 195
q58 93 31 214q-18 80 -105 292l102 149q19 26 32 14t22 -33z" />
    <glyph glyph-name="uni0647" unicode="&#x647;" horiz-adv-x="873" 
d="M368 597q-123 -166 -124 -285q-1 -126 204 -126q173 0 195 108q26 130 -206 266q-55 32 -69 37zM313 776q19 26 35.5 26t26.5 -4q401 -152 401 -465q0 -152 -92 -239.5t-251.5 -87.5t-258.5 113q-65 72 -65 177q0 197 204 480z" />
    <glyph glyph-name="uni0648" unicode="&#x648;" horiz-adv-x="823" 
d="M75 -401q450 117 502 402l-141 -4q-197 -6 -272 90q-76 97 -49 264q25 159 108 254q82 93 182 93q168 -1 260 -183q68 -134 70 -347q1 -89 -12 -167q-16 -98 -54 -177q-83 -173 -272 -274q-125 -70 -209 -89q-51 -12 -69 9q-37 44 -50 70q-25 50 6 59zM584 177
q-13 204 -70 277q-46 58 -119 58q-85 0 -122 -106q-25 -70 -19 -133q15 -130 330 -96z" />
    <glyph glyph-name="uni0649" unicode="&#x649;" horiz-adv-x="1474" 
d="M1386 712q-6 -61 -38 -195l-46 2q-192 9 -284 -82q-87 -87 -118 -232l262 -50q153 -30 152 -151q-1 -142 -86 -254q-180 -233 -542 -235q-314 -2 -461 151q-154 162 -108 454q26 169 98 306l111 -31q-114 -352 -31 -518q92 -183 396 -181q309 2 457 174q81 92 9 104
l-244 43q-123 21 -147 84q-23 60 24 219q85 289 315 382q134 55 281 10z" />
    <glyph glyph-name="uni064A" unicode="&#x64a;" horiz-adv-x="1474" 
d="M885 -901q-13 -13 -27 0l-111 112q-13 13 1 27l113 113q11 11 22 0l119 -119q9 -8 -3 -19zM582 -649l118 -118q8 -10 -3 -20l-113 -114q-14 -13 -27 0l-112 112q-13 13 1 27l113 113q11 11 23 0zM1386 712q-6 -61 -38 -195l-46 2q-192 9 -284 -82q-87 -87 -118 -232
l262 -50q153 -30 152 -151q-1 -142 -86 -254q-180 -233 -542 -235q-314 -2 -461 151q-154 162 -108 454q26 169 98 306l111 -31q-114 -352 -31 -518q92 -183 396 -181q309 2 457 174q81 92 9 104l-244 43q-123 21 -147 84q-23 60 24 219q85 289 315 382q134 55 281 10z" />
    <glyph glyph-name="uni064B" unicode="&#x64b;" horiz-adv-x="0" 
d="M326 1113v97l505 206v-97zM326 1399v97l505 206v-97z" />
    <glyph glyph-name="uni064C" unicode="&#x64c;" horiz-adv-x="0" 
d="M682 1808q-47 0 -69.5 -20.5t-22.5 -62.5q0 -63 82 -93q20 -7 63 -20l15 36q3 7 5.5 14.5t4 14.5t2.5 13.5t1 13.5q0 27 -7 48q-10 28 -28.5 42t-45.5 14zM331 1567q7 -97 17 -129q32 -106 113 -104q41 1 81.5 21t80.5 59q47 45 73 98l14 28l-30 6q-126 27 -168 129
q-7 17 -7 49t9 58q36 108 157.5 108t161.5 -105q12 -33 12 -75t-13 -83l-9 -30l30 -1q21 -1 59 -2h3v-83h-3q-36 1 -50 3l-79 7q-61 -138 -183 -223q-62 -44 -130 -44q-190 -1 -197 313v3h58v-3z" />
    <glyph glyph-name="uni064D" unicode="&#x64d;" horiz-adv-x="0" 
d="M302 -495v102l478 195v-101zM302 -230v101l478 196v-101z" />
    <glyph glyph-name="uni064E" unicode="&#x64e;" horiz-adv-x="0" 
d="M267 1292v101l478 195v-101z" />
    <glyph glyph-name="uni064F" unicode="&#x64f;" horiz-adv-x="0" 
d="M792 1419q-55 1 -126 9q-52 -74 -142.5 -130t-217.5 -63v77q153 8 249 112l26 27q-98 27 -137 75q-32 39 -32 97q0 76 58 120q63 48 140 26q39 -10 68 -39q49 -49 49 -126q0 -33 -14 -78l-9 -27l28 -1q32 -2 60 -2v-77zM624 1513q26 60 25 101q-2 60 -45 75
q-39 13 -68 -1q-35 -18 -43 -55q-16 -73 107 -113q11 -3 24 -7z" />
    <glyph glyph-name="uni0650" unicode="&#x650;" horiz-adv-x="0" 
d="M312 -337v101l478 195v-101z" />
    <glyph glyph-name="uni0651" unicode="&#x651;" horiz-adv-x="0" 
d="M590 1610q-1 -109 104 -109q41 0 61 21.5t20 65.5q0 89 -6 131l-1 2l1 1q36 34 77 1l1 -1v-1q11 -78 10 -138q1 -99 -38.5 -149.5t-118.5 -50.5q-94 0 -133 71q-36 -142 -155 -142q-6 0 -11 0.5t-11 0.5q-159 14 -139 238q2 16 4.5 36.5t6.5 45.5l1 1v1q40 38 73 -1l1 -1
v-2q-6 -41 -9 -68.5t-3 -39.5q0 -50 23.5 -74t72.5 -24q43 0 66 31.5t25 96.5q2 46 2 134v1l1 1q39 33 72 0l1 -1v-1q1 -36 2 -77z" />
    <glyph glyph-name="uni0652" unicode="&#x652;" horiz-adv-x="0" 
d="M713 1613q62 0 104.5 42.5t42.5 104t-42.5 104t-104.5 42.5t-104 -42t-42 -104.5t42 -104.5t104 -42zM938 1760q0 -94 -65 -159.5t-159 -65.5t-159 65.5t-65 159.5t65 159t159 65t159 -65t65 -159z" />
    <glyph glyph-name="uni0653" unicode="&#x653;" horiz-adv-x="0" 
d="M362 1670q-94 -8 -185 -88q-27 18 -43 39q81 210 181 210q69 0 151 -10.5t117 -10.5q125 0 175 13q53 13 63 6q12 -13 -20 -60q-25 -36 -72 -70q-76 -54 -367 -29z" />
    <glyph glyph-name="uni0654" unicode="&#x654;" horiz-adv-x="0" 
d="M461 1636l21 145q62 29 110 49q-151 31 -134 166q33 243 233 241q95 0 170 -72l-35 -81q-214 56 -268 -54q-14 -29 -4 -51q47 -108 252 -57q36 10 42 5q14 -12 14 -33l-1 -92q-110 -30 -400 -166z" />
    <glyph glyph-name="uni0655" unicode="&#x655;" horiz-adv-x="0" 
d="M461 -419l21 145q62 29 110 49q-151 31 -134 166q33 243 233 241q95 0 170 -72l-35 -81q-214 56 -268 -54q-14 -29 -4 -51q47 -108 252 -57q36 10 42 5q14 -12 14 -33l-1 -92q-110 -30 -400 -166z" />
    <glyph glyph-name="uni0657" unicode="&#x657;" horiz-adv-x="0" 
d="M347 2338q70 -2 167 -12q83 124 198 195q160 99 303 113v-94q-119 -10 -290 -141q-36 -28 -66 -59l-41 -44l58 -13q10 -2 57 -27q97 -51 115.5 -147t-38.5 -166t-156.5 -69.5t-159.5 58.5t-60 161q0 42 19 104l13 41l-43 3q-37 2 -76 3v94zM627 1968q126 0 126 108
q0 77 -88 112q-30 12 -100 34l-20 -49q-17 -37 -17 -79t18 -72q31 -54 81 -54z" />
    <glyph glyph-name="uni065A" unicode="&#x65a;" horiz-adv-x="1473" 
d="M652 1878l-250 419h134l208 -313l208 313h134l-250 -419h-184z" />
    <glyph glyph-name="uni0660" unicode="&#x660;" horiz-adv-x="924" 
d="M471 830l225 -225l-230 -230l-225 225z" />
    <glyph glyph-name="uni0661" unicode="&#x661;" horiz-adv-x="771" 
d="M307 1343q234 -687 242 -1053q4 -227 -10 -238.5t-101 -34.5q-33 525 -289 1222l94 115q43 53 64 -11z" />
    <glyph glyph-name="uni0662" unicode="&#x662;" horiz-adv-x="1045" 
d="M429 812q88 -410 89 -595q0 -137 -7 -152t-13 -18q-25 -12 -95 -29q-32 521 -287 1215l122 149q11 14 22 -12q11 -24 14 -34q3 -9 15 -40q36 -93 48 -121q67 -168 234 -168q221 0 254 317l4 47l123 -16l-3 -54q-20 -498 -409 -496q-48 0 -111 7z" />
    <glyph glyph-name="uni0663" unicode="&#x663;" horiz-adv-x="1245" 
d="M897 816q-129 0 -196 109q-88 -134 -270 -107q89 -428 89 -568q0 -175 -11 -197q-5 -10 -102 -35q-33 516 -289 1215l118 144q18 22 28 -6q34 -99 58 -159q79 -204 195 -205q144 0 154 198l6 127l123 -2l5 -140q6 -194 107 -194q143 0 144 311v49l122 -5v-72
q-1 -462 -281 -463z" />
    <glyph glyph-name="uni0664" unicode="&#x664;" horiz-adv-x="951" 
d="M266 368q218 -90 568 -78l-4 -180q-2 -55 -46 -53q-363 17 -613 181q-74 49 -39 111q118 210 346 335q-214 92 -302 196q-65 75 -50 120q64 199 550 408q35 15 39 2q2 -10 -4 -37l-22 -105q-14 -65 -27 -129q-238 -13 -404 -81q186 -156 463 -278v-2q0 -39 -1 -82
q-319 -138 -454 -328z" />
    <glyph glyph-name="uni0665" unicode="&#x665;" horiz-adv-x="1180" 
d="M588 1085q-314 -358 -314 -554q-1 -237 305 -235q350 4 347 234q-4 250 -338 555zM182 273q-97 163 3 426q81 213 274 439l26 31l-78 58l124 214q490 -457 515 -887q14 -251 -146 -378q-108 -86 -316 -87q-293 0 -402 184z" />
    <glyph glyph-name="uni0666" unicode="&#x666;" horiz-adv-x="1326" 
d="M961 1337q19 -975 207 -1174l-125 -147q-96 96 -152 314q-56 222 -65 766q-513 -44 -654 35q-42 25 -45 231q0 32 26 23q306 -115 808 -48z" />
    <glyph glyph-name="uni0667" unicode="&#x667;" 
d="M1103 1220q-319 -629 -456 -1200h-111q-136 536 -455 1201l98 164q9 16 19 -5q292 -607 394 -1006q119 489 372 1001q11 21 22 9z" />
    <glyph glyph-name="uni0668" unicode="&#x668;" 
d="M986 21q-10 -14 -22 10q-246 477 -372 1001q-101 -401 -394 -1006q-10 -21 -19 -6l-98 164q319 667 455 1202h111q137 -573 456 -1201z" />
    <glyph glyph-name="uni0669" unicode="&#x669;" horiz-adv-x="1044" 
d="M644 649q-530 -85 -523 266q4 231 89 351q117 165 281 126q77 -19 138 -88q125 -143 134 -377q24 -618 182 -765l-124 -146q-61 52 -102 153q-64 160 -75 480zM315 850q100 -44 309 1l-6 60q-26 265 -199 265q-70 0 -106 -55t-45 -119q-16 -125 47 -152z" />
    <glyph glyph-name="uni066A" unicode="&#x66a;" horiz-adv-x="1517" 
d="M924 390q0 63 44 109q47 45 111 45q42 0 77 -21q36 -21 56 -56q21 -35 21 -77q0 -64 -45 -111q-46 -44 -109 -44q-43 0 -79 20q-36 21 -56 56q-20 36 -20 79zM291 1247q0 64 45 109q46 46 110 46q42 0 77 -22q36 -21 56 -56q22 -35 22 -77q0 -64 -46 -110
q-46 -45 -109 -45q-43 0 -79 20q-36 22 -56 56q-20 37 -20 79zM1037 1546l144 -75l-747 -1445l-143 79z" />
    <glyph glyph-name="uni066B" unicode="&#x66b;" horiz-adv-x="938" 
d="M639 640l120 -75l-574 -956l-122 81z" />
    <glyph glyph-name="uni066C" unicode="&#x66c;" horiz-adv-x="539" 
d="M255 303q160 1 148 -214q-15 -264 -276 -419q-50 -30 -72 -2q-9 14 13 30q79 58 133 143.5t47 157.5l-26 5q-68 4 -101 53t-20 116.5t59.5 98.5t94.5 31z" />
    <glyph glyph-name="uni066D" unicode="&#x66d;" horiz-adv-x="1734" 
d="M219 1159h495l155 471l155 -471h495l-400 -293l153 -470l-403 291l-403 -291l153 470z" />
    <glyph glyph-name="uni066E" unicode="&#x66e;" horiz-adv-x="1809" 
d="M286 732q-33 -124 -33 -216q0 -91 47 -160q113 -167 504 -171q537 -5 723 146q58 48 -59 393l109 129q17 20 39 -23q81 -155 81 -359q0 -114 -43 -203q-128 -266 -810 -266q-358 0 -537 99q-203 112 -203 357q1 149 81 309z" />
    <glyph glyph-name="uni066F" unicode="&#x66f;" horiz-adv-x="1402" 
d="M982 564q-116 -1 -150 -140q-29 -122 67 -148q70 -18 166 -3q61 9 94 25q-10 139 -57 201q-48 64 -120 65zM1300 190q0 -298 -113 -431q-166 -196 -511 -193q-227 1 -370 90q-198 123 -198 409q0 206 102 421l110 -32q-57 -188 -57 -339q0 -373 425 -373q313 0 435 199
q33 54 37 163q-209 -45 -338 9q-128 53 -128 204q1 113 35 204q87 231 261 231q116 0 185 -86q125 -154 125 -476z" />
    <glyph glyph-name="uni0670" unicode="&#x670;" horiz-adv-x="0" 
d="M739 1810l-55 484l121 71v-534z" />
    <glyph glyph-name="uni0674" unicode="&#x674;" horiz-adv-x="802" 
d="M206 1774l21 145q62 29 110 49q-151 31 -134 166q33 243 233 241q95 0 170 -72l-35 -81q-214 56 -268 -54q-14 -29 -4 -51q47 -108 252 -57q36 10 42 5q14 -12 14 -33l-1 -92q-110 -30 -400 -166z" />
    <glyph glyph-name="uni067E" unicode="&#x67e;" horiz-adv-x="1834" 
d="M936 -665q-5 -5 -11 0l-109 109q-8 8 0 16l107 107q8 8 15 0l110 -109q5 -6 -1 -12zM1082 -439q-5 -5 -11 0l-109 110q-8 8 0 15l107 108q8 8 15 0l110 -110q5 -5 0 -10zM902 -316q5 -5 -1 -11l-111 -112q-4 -4 -11 1l-109 109q-8 8 0 15l107 108q8 8 16 -1zM287 732
q-33 -124 -33 -216q0 -91 47 -160q113 -167 504 -171q537 -5 723 146q58 48 -59 393l109 129q17 20 39 -23q81 -155 81 -359q0 -114 -43 -203q-128 -266 -810 -266q-358 0 -537 99q-203 112 -203 357q1 149 81 309z" />
    <glyph glyph-name="uni0686" unicode="&#x686;" horiz-adv-x="1335" 
d="M801 -234q-5 -5 -11 0l-109 109q-8 8 0 16l107 107q8 8 15 0l110 -109q5 -6 -1 -12zM947 -8q-5 -5 -11 0l-109 110q-8 8 0 15l107 108q8 8 15 0l110 -110q5 -5 0 -10zM767 115q5 -5 -1 -11l-111 -112q-4 -4 -11 1l-109 109q-8 8 0 15l107 108q8 8 16 -1zM1209 -404
q18 -2 1 -108q-9 -61 -13 -66q-5 -6 -25 -10q-147 -25 -330 -25q-143 0 -258 19q-184 30 -285 118q-157 136 -157 363q0 396 346 610q125 77 306 113q-117 22 -186 38q-134 30 -199 30q-108 0 -205 -119q-49 18 -92 48q63 152 163 221q51 37 108 37q56 0 165 -25t451 -122
q120 -35 223 -32q19 1 12 -15l-71 -168q-315 -9 -553 -132q-321 -165 -321 -455q1 -352 519 -350q151 1 234 11t167 19z" />
    <glyph glyph-name="uni0698" unicode="&#x698;" horiz-adv-x="778" 
d="M446 1210l111 -111q6 -6 1 -12l-110 -109q-7 -8 -15 0l-107 107q-8 8 0 16l109 109q6 5 11 0zM592 984l112 -112q5 -5 0 -11l-110 -110q-7 -7 -15 1l-107 107q-8 8 0 16l109 109q6 5 11 0zM412 861l-109 -109q-8 -8 -16 0l-107 107q-8 8 0 16l109 109q7 4 11 0l111 -111
q6 -6 1 -12zM29 -401q476 125 511 472q12 116 -109 347l104 132q13 16 18 15q19 -2 58 -74q85 -158 85 -363q0 -179 -98 -339q-90 -148 -253 -243q-108 -63 -204 -85q-52 -12 -68 9q-40 51 -51 71q-27 49 7 58z" />
    <glyph glyph-name="uni06A1" unicode="&#x6a1;" horiz-adv-x="1748" 
d="M1314 865q-116 0 -150 -139q-29 -122 67 -148q70 -18 166 -3q61 9 94 25q-10 139 -57 201q-48 64 -120 64zM847 2q-370 0 -542 97q-202 112 -201 359q1 149 81 309l101 -35q-69 -253 9 -370q114 -169 459 -182q25 -1 214.5 -1t296.5 18q215 37 225 181l2 28
q-209 -45 -338 8q-128 54 -128 205q1 113 35 204q87 231 261 231q116 0 185 -86q125 -155 130 -502q8 -464 -585 -464h-205z" />
    <glyph glyph-name="uni06A9" unicode="&#x6a9;" horiz-adv-x="1942" 
d="M1080 1048q432 -359 529 -525q42 -73 21 -168q-52 -232 -445 -317q-163 -36 -366 -36q-342 0 -514 97q-202 112 -201 359q1 149 81 309l101 -35q-69 -253 9 -370q114 -170 456 -182q483 -17 679 146q82 69 52 112q-63 93 -554 508q14 144 58 252l863 301q41 14 34 -28
l-22 -154z" />
    <glyph glyph-name="uni06AF" unicode="&#x6af;" horiz-adv-x="1989" 
d="M1043 1138l863 301q41 14 34 -28l-22 -154l-781 -269q468 -364 475 -553q6 -162 -179 -283q-229 -150 -597 -150q-359 0 -531 97q-201 112 -201 359q1 149 81 309l101 -35q-69 -253 9 -370q117 -173 459 -182q380 -10 618 130q17 10 30 22q70 61 49 109q-17 40 -139 164
q-112 113 -338 290q17 125 69 243zM1951 1683l-20 -116l-810 -276l36 145l776 269q23 8 18 -22z" />
    <glyph glyph-name="uni06BA" unicode="&#x6ba;" horiz-adv-x="1395" 
d="M1195 608q131 -321 107 -499q-69 -511 -635 -511q-288 0 -430 152q-156 169 -125 452q15 142 98 320l110 -33q-61 -199 -59 -342q4 -372 419 -370q314 2 433 195q58 93 31 214q-18 80 -105 292l102 149q19 26 32 14t22 -33z" />
    <glyph glyph-name="uni06BE" unicode="&#x6be;" horiz-adv-x="1234" 
d="M645 288q175 -61 282 -67q95 157 48 251q-33 67 -201 147q6 -191 -129 -331zM503 142q-213 -141 -454 -141h-61v179h72q193 0 289 35q-106 39 -165 115q-56 74 -33 183q43 199 239 317l-131 54l62 173l381 -180q483 -230 417 -530q-25 -113 -85 -194q-62 -82 -147 -92
q-80 -11 -384 81zM506 337q104 67 140 212q32 127 -81 163q-137 42 -234 -111q-31 -49 -40 -77q-20 -66 30 -105q71 -53 185 -82z" />
    <glyph glyph-name="uni06C1" unicode="&#x6c1;" horiz-adv-x="992" 
d="M93 -38q87 236 180 374q94 139 172 198t158 64q156 9 160 -123q3 -85 21 -197q16 -97 142 -97h77v-181h-100q-273 0 -282 303q-2 98 -10 112q-14 24 -50 7q-92 -42 -206 -268q-92 -184 -122 -264z" />
    <glyph glyph-name="uni06CA" unicode="&#x6ca;" horiz-adv-x="823" 
d="M541 913q-13 -13 -27 0l-111 112q-13 13 1 27l113 113q11 11 22 0l119 -119q9 -8 -3 -19zM238 1165l118 -118q8 -10 -3 -20l-113 -114q-14 -13 -27 0l-112 112q-13 13 1 27l113 113q11 11 23 0zM75 -401q450 117 502 402l-141 -4q-197 -6 -272 90q-76 97 -49 264
q25 159 108 254q82 93 182 93q168 -1 260 -183q68 -134 70 -347q1 -89 -12 -167q-16 -98 -54 -177q-83 -173 -272 -274q-125 -70 -209 -89q-51 -12 -69 9q-37 44 -50 70q-25 50 6 59zM584 177q-13 204 -70 277q-46 58 -119 58q-85 0 -122 -106q-25 -70 -19 -133
q15 -130 330 -96z" />
    <glyph glyph-name="uni06CC" unicode="&#x6cc;" horiz-adv-x="1474" 
d="M1386 712q-6 -61 -38 -195l-46 2q-192 9 -284 -82q-87 -87 -118 -232l262 -50q153 -30 152 -151q-1 -142 -86 -254q-180 -233 -542 -235q-314 -2 -461 151q-154 162 -108 454q26 169 98 306l111 -31q-114 -352 -31 -518q92 -183 396 -181q309 2 457 174q81 92 9 104
l-244 43q-123 21 -147 84q-23 60 24 219q85 289 315 382q134 55 281 10z" />
    <glyph glyph-name="uni06D5" unicode="&#x6d5;" horiz-adv-x="873" 
d="M368 597q-123 -166 -124 -285q-1 -126 204 -126q173 0 195 108q26 130 -206 266q-55 32 -69 37zM313 776q19 26 35.5 26t26.5 -4q401 -152 401 -465q0 -152 -92 -239.5t-251.5 -87.5t-258.5 113q-65 72 -65 177q0 197 204 480z" />
    <glyph glyph-name="uni06F0" unicode="&#x6f0;" horiz-adv-x="924" 
d="M471 830l225 -225l-230 -230l-225 225z" />
    <glyph glyph-name="uni06F1" unicode="&#x6f1;" horiz-adv-x="771" 
d="M307 1343q234 -687 242 -1053q4 -227 -10 -238.5t-101 -34.5q-33 525 -289 1222l94 115q43 53 64 -11z" />
    <glyph glyph-name="uni06F2" unicode="&#x6f2;" horiz-adv-x="1045" 
d="M429 812q88 -410 89 -595q0 -137 -7 -152t-13 -18q-25 -12 -95 -29q-32 521 -287 1215l122 149q11 14 22 -12q11 -24 14 -34q3 -9 15 -40q36 -93 48 -121q67 -168 234 -168q221 0 254 317l4 47l123 -16l-3 -54q-20 -498 -409 -496q-48 0 -111 7z" />
    <glyph glyph-name="uni06F3" unicode="&#x6f3;" horiz-adv-x="1245" 
d="M897 816q-129 0 -196 109q-88 -134 -270 -107q89 -428 89 -568q0 -175 -11 -197q-5 -10 -102 -35q-33 516 -289 1215l118 144q18 22 28 -6q34 -99 58 -159q79 -204 195 -205q144 0 154 198l6 127l123 -2l5 -140q6 -194 107 -194q143 0 144 311v49l122 -5v-72
q-1 -462 -281 -463z" />
    <glyph glyph-name="uni06F4" unicode="&#x6f4;" horiz-adv-x="1140" 
d="M509 976q-39 130 4 237q66 164 257 163q130 -1 226 -117l-39 -84q-203 77 -294 -30q-44 -52 -44 -130q1 -77 69 -97q137 -39 325 21l24 -148q-128 -61 -276 -59q-214 3 -337 103q107 -423 94 -673q-3 -59 -12 -98q-3 -11 -101 -36q-30 502 -288 1201l122 149l8 6
q9 3 14 -13l63 -189q49 -147 185 -206z" />
    <glyph glyph-name="uni06F5" unicode="&#x6f5;" horiz-adv-x="1202" 
d="M646 466q30 -131 82 -194q51 -63 118 -62q201 1 76 337q-88 237 -347 504q-129 -195 -173 -278q-203 -387 -144 -509q26 -55 104 -54q151 1 214 257zM613 215q-70 -190 -251 -190q-245 0 -248 285q-4 322 354 862l-45 40l88 156q16 28 43 1q547 -541 548 -1029
q0 -315 -249 -314q-162 0 -240 189z" />
    <glyph glyph-name="uni06F6" unicode="&#x6f6;" horiz-adv-x="1031" 
d="M755 1179q-135 35 -204 35q-140 0 -218 -98q-76 -96 -33 -160q82 -123 346 -126q28 0 77 33q149 101 193 103q27 1 20 -29l-43 -182q-194 -104 -408 -359q-255 -303 -299 -384l-73 90q118 279 351 554q-320 47 -320 345q0 64 32 140q115 266 366 265q145 0 261 -103z" />
    <glyph glyph-name="uni06F7" unicode="&#x6f7;" 
d="M1103 1220q-319 -629 -456 -1200h-111q-136 536 -455 1201l98 164q9 16 19 -5q292 -607 394 -1006q119 489 372 1001q11 21 22 9z" />
    <glyph glyph-name="uni06F8" unicode="&#x6f8;" 
d="M986 21q-10 -14 -22 10q-246 477 -372 1001q-101 -401 -394 -1006q-10 -21 -19 -6l-98 164q319 667 455 1202h111q137 -573 456 -1201z" />
    <glyph glyph-name="uni06F9" unicode="&#x6f9;" horiz-adv-x="1044" 
d="M644 649q-530 -85 -523 266q4 231 89 351q117 165 281 126q77 -19 138 -88q125 -143 134 -377q24 -618 182 -765l-124 -146q-61 52 -102 153q-64 160 -75 480zM315 850q100 -44 309 1l-6 60q-26 265 -199 265q-70 0 -106 -55t-45 -119q-16 -125 47 -152z" />
    <glyph glyph-name="uni2000" unicode="&#x2000;" horiz-adv-x="1024" 
 />
    <glyph glyph-name="uni2001" unicode="&#x2001;" horiz-adv-x="2048" 
 />
    <glyph glyph-name="uni2002" unicode="&#x2002;" horiz-adv-x="1024" 
 />
    <glyph glyph-name="uni2003" unicode="&#x2003;" horiz-adv-x="2048" 
 />
    <glyph glyph-name="uni2004" unicode="&#x2004;" horiz-adv-x="682" 
 />
    <glyph glyph-name="uni2005" unicode="&#x2005;" horiz-adv-x="512" 
 />
    <glyph glyph-name="uni2006" unicode="&#x2006;" horiz-adv-x="342" 
 />
    <glyph glyph-name="uni2007" unicode="&#x2007;" horiz-adv-x="1145" 
 />
    <glyph glyph-name="uni2008" unicode="&#x2008;" horiz-adv-x="545" 
 />
    <glyph glyph-name="uni2009" unicode="&#x2009;" horiz-adv-x="410" 
 />
    <glyph glyph-name="uni200A" unicode="&#x200a;" horiz-adv-x="205" 
 />
    <glyph glyph-name="uni200B" unicode="&#x200b;" horiz-adv-x="0" 
 />
    <glyph glyph-name="uni200C" unicode="&#x200c;" horiz-adv-x="0" 
 />
    <glyph glyph-name="uni200D" unicode="&#x200d;" horiz-adv-x="0" 
 />
    <glyph glyph-name="endash" unicode="&#x2013;" horiz-adv-x="1024" 
d="M82 473v152h860v-152h-860z" />
    <glyph glyph-name="emdash" unicode="&#x2014;" horiz-adv-x="2048" 
d="M82 473v152h1884v-152h-1884z" />
    <glyph glyph-name="uni2015" unicode="&#x2015;" horiz-adv-x="2048" 
d="M82 473v152h1884v-152h-1884z" />
    <glyph glyph-name="underscoredbl" unicode="&#x2017;" horiz-adv-x="842" 
d="M846 -463h-850v139h850v-139zM846 -184h-850v139h850v-139z" />
    <glyph glyph-name="quoteleft" unicode="&#x2018;" horiz-adv-x="348" 
d="M37 961l-12 22q22 90 71 224t105 255h123q-66 -254 -103 -501h-184z" />
    <glyph glyph-name="quoteright" unicode="&#x2019;" horiz-adv-x="348" 
d="M309 1462l15 -22q-26 -100 -75 -232.5t-102 -246.5h-122q70 285 102 501h182z" />
    <glyph glyph-name="quotesinglbase" unicode="&#x201a;" horiz-adv-x="502" 
d="M350 238l15 -23q-26 -100 -75 -232.5t-102 -246.5h-125q27 104 59.5 257t45.5 245h182z" />
    <glyph glyph-name="quotereversed" unicode="&#x201b;" horiz-adv-x="348" 
d="M223 1462q37 -251 103 -501h-123q-45 94 -99.5 236t-78.5 243l14 22h184z" />
    <glyph glyph-name="quotedblleft" unicode="&#x201c;" horiz-adv-x="717" 
d="M406 961l-15 22q56 215 178 479h123q-30 -115 -59.5 -259.5t-42.5 -241.5h-184zM37 961l-12 22q22 90 71 224t105 255h123q-66 -254 -103 -501h-184z" />
    <glyph glyph-name="quotedblright" unicode="&#x201d;" horiz-adv-x="717" 
d="M309 1462l15 -22q-26 -100 -75 -232.5t-102 -246.5h-122q70 285 102 501h182zM678 1462l14 -22q-24 -91 -72 -224t-104 -255h-125q26 100 59 254t46 247h182z" />
    <glyph glyph-name="quotedblbase" unicode="&#x201e;" horiz-adv-x="829" 
d="M309 238l15 -22q-26 -100 -75 -232.5t-102 -246.5h-122q70 285 102 501h182zM678 238l14 -22q-24 -91 -72 -224t-104 -255h-125q26 100 59 254t46 247h182z" />
    <glyph glyph-name="dagger" unicode="&#x2020;" horiz-adv-x="1028" 
d="M905 999l-352 31l49 -1030h-196l49 1030l-332 -31v170l332 -30l-49 417h196l-49 -417l352 30v-170z" />
    <glyph glyph-name="daggerdbl" unicode="&#x2021;" horiz-adv-x="1044" 
d="M569 487l353 31v-168l-353 29l49 -379h-198l49 379l-346 -29v168l346 -31l-43 299l43 283l-346 -31v168l346 -30l-49 380h198l-49 -380l353 30v-168l-353 31l43 -283z" />
    <glyph glyph-name="bullet" unicode="&#x2022;" horiz-adv-x="770" 
d="M164 748q0 121 56.5 184t164.5 63q105 0 163 -62t58 -185q0 -119 -57.5 -183.5t-163.5 -64.5q-107 0 -164 65.5t-57 182.5z" />
    <glyph glyph-name="ellipsis" unicode="&#x2026;" horiz-adv-x="1606" 
d="M1213 106q0 67 30.5 101.5t87.5 34.5q58 0 90.5 -34.5t32.5 -101.5q0 -65 -33 -100t-90 -35q-51 0 -84.5 31.5t-33.5 103.5zM682 106q0 67 30.5 101.5t87.5 34.5q58 0 90.5 -34.5t32.5 -101.5q0 -65 -33 -100t-90 -35q-51 0 -84.5 31.5t-33.5 103.5zM152 106
q0 67 30.5 101.5t87.5 34.5q58 0 90.5 -34.5t32.5 -101.5q0 -65 -33 -100t-90 -35q-51 0 -84.5 31.5t-33.5 103.5z" />
    <glyph glyph-name="uni202F" unicode="&#x202f;" horiz-adv-x="148" 
 />
    <glyph glyph-name="perthousand" unicode="&#x2030;" horiz-adv-x="2462" 
d="M236 1026q0 -170 41.5 -255t134.5 -85q180 0 180 340q0 338 -180 338q-93 0 -134.5 -84t-41.5 -254zM729 1026q0 -230 -80.5 -345.5t-236.5 -115.5q-149 0 -230.5 119t-81.5 342q0 457 312 457q152 0 234.5 -120t82.5 -337zM1346 1462l-811 -1462h-148l811 1462h148z
M1870 440q0 -171 41.5 -255.5t134.5 -84.5q91 0 135.5 83.5t44.5 256.5q0 171 -44.5 253.5t-135.5 82.5q-93 0 -134.5 -82.5t-41.5 -253.5zM2363 440q0 -230 -81 -345t-236 -115q-148 0 -229.5 119.5t-81.5 340.5q0 457 311 457q150 0 233.5 -118t83.5 -339zM1139 440
q0 -171 40.5 -255.5t133.5 -84.5q91 0 135.5 83.5t44.5 256.5q0 171 -44.5 253.5t-135.5 82.5q-93 0 -133.5 -82.5t-40.5 -253.5zM1630 440q0 -230 -81 -345t-236 -115q-149 0 -230.5 119t-81.5 341q0 457 312 457q150 0 233.5 -118t83.5 -339z" />
    <glyph glyph-name="minute" unicode="&#x2032;" horiz-adv-x="453" 
d="M319 1462l-40 -528h-105l-41 528h186z" />
    <glyph glyph-name="second" unicode="&#x2033;" horiz-adv-x="805" 
d="M319 1462l-40 -528h-105l-41 528h186zM688 1462l-41 -528h-104l-41 528h186z" />
    <glyph glyph-name="guilsinglleft" unicode="&#x2039;" horiz-adv-x="623" 
d="M82 551l342 407l119 -69l-289 -350l289 -351l-119 -71l-342 407v27z" />
    <glyph glyph-name="guilsinglright" unicode="&#x203a;" horiz-adv-x="623" 
d="M541 524l-344 -407l-117 71l287 351l-287 350l117 69l344 -407v-27z" />
    <glyph glyph-name="exclamdbl" unicode="&#x203c;" horiz-adv-x="995" 
d="M775 403h-105l-51 1059h207zM601 106q0 136 120 136q58 0 89.5 -35t31.5 -101q0 -64 -32 -99.5t-89 -35.5q-52 0 -86 31.5t-34 103.5zM326 403h-105l-51 1059h207zM152 106q0 136 120 136q58 0 89.5 -35t31.5 -101q0 -64 -32 -99.5t-89 -35.5q-52 0 -86 31.5t-34 103.5z
" />
    <glyph glyph-name="fraction" unicode="&#x2044;" horiz-adv-x="266" 
d="M655 1462l-903 -1462h-143l903 1462h143z" />
    <glyph glyph-name="uni2070" unicode="&#x2070;" horiz-adv-x="711" 
d="M176 1024q0 -168 41 -251t135 -83t137 82.5t43 253.5q0 170 -43 252t-137 82t-135 -82.5t-41 -253.5zM670 1026q0 -457 -316 -457q-158 0 -236.5 118t-78.5 339q0 453 315 453q158 0 237 -116t79 -337z" />
    <glyph glyph-name="uni2074" unicode="&#x2074;" horiz-adv-x="711" 
d="M692 788h-125v-202h-145v202h-402v101l408 579h139v-563h125v-117zM422 905v195q0 134 6 209q-5 -12 -17 -31.5t-27 -42l-30 -45t-26 -39.5l-168 -246h262z" />
    <glyph glyph-name="uni2075" unicode="&#x2075;" horiz-adv-x="711" 
d="M328 1128q145 0 233 -71.5t88 -194.5q0 -140 -85 -217.5t-251 -77.5q-74 0 -143.5 15.5t-110.5 38.5v131q56 -34 126 -53t124 -19q95 0 150 41.5t55 130.5q0 78 -54.5 122t-156.5 44q-57 0 -95 -8.5t-69 -16.5l-59 41l33 416h495v-104h-381l-20 -230q62 12 121 12z" />
    <glyph glyph-name="uni2076" unicode="&#x2076;" horiz-adv-x="711" 
d="M41 963q0 261 109.5 388.5t328.5 127.5q74 0 123 -15v-114q-52 18 -135 18q-141 0 -216 -76.5t-85 -242.5h8q29 43 85.5 72.5t141.5 29.5q125 0 199 -74t74 -200q0 -144 -83 -226t-224 -82q-153 0 -239.5 105t-86.5 289zM365 680q81 0 130.5 46.5t49.5 145.5
q0 79 -44 124.5t-130 45.5q-85 0 -141 -45t-56 -104q0 -89 53 -151t138 -62z" />
    <glyph glyph-name="uni2077" unicode="&#x2077;" horiz-adv-x="711" 
d="M162 586l350 760h-455v116h598v-94l-352 -782h-141z" />
    <glyph glyph-name="uni2078" unicode="&#x2078;" horiz-adv-x="711" 
d="M356 1479q124 0 199.5 -59t75.5 -163q0 -130 -148 -206q176 -74 176 -232q0 -113 -82.5 -181.5t-220.5 -68.5q-146 0 -225.5 64t-79.5 180q0 69 36.5 127t121.5 104q-74 46 -102.5 92.5t-28.5 114.5q0 102 78.5 165t199.5 63zM182 813q0 -60 42 -96.5t128 -36.5
q90 0 132 36.5t42 96.5q0 63 -46.5 102.5t-127.5 67.5l-28 10q-72 -34 -107 -76t-35 -104zM354 1370q-68 0 -105.5 -30t-37.5 -87q0 -47 34 -82.5t115 -68.5q140 54 140 151q0 57 -39 87t-107 30z" />
    <glyph glyph-name="uni2079" unicode="&#x2079;" horiz-adv-x="711" 
d="M668 1094q0 -270 -109 -397.5t-321 -127.5q-83 0 -132 15v116q49 -20 142 -20q276 0 297 326h-10q-35 -51 -93 -77t-123 -26q-131 0 -207.5 73t-76.5 204q0 136 84.5 218.5t220.5 82.5q152 0 240 -101t88 -286zM340 1370q-81 0 -128.5 -47.5t-47.5 -134.5
q0 -81 42.5 -128.5t129.5 -47.5q84 0 141.5 42.5t57.5 104.5q0 97 -51.5 154t-143.5 57z" />
    <glyph glyph-name="uni207F" unicode="&#x207f;" horiz-adv-x="807" 
d="M588 801v420q0 84 -39 119.5t-119 35.5q-114 0 -159.5 -52.5t-45.5 -174.5v-348h-116v665h96l14 -88h10q75 101 220 101q258 0 258 -250v-428h-119z" />
    <glyph glyph-name="franc" unicode="&#x20a3;" 
d="M440 395h308v-129h-308v-266h-166v266h-176v129h176v1067h785v-151h-619v-535h580v-151h-580v-230z" />
    <glyph glyph-name="lira" unicode="&#x20a4;" 
d="M688 1481q201 0 359 -80l-60 -131q-152 71 -299 71q-122 0 -185 -67.5t-63 -196.5v-186h420v-129h-420v-166h420v-129h-420v-33q0 -100 -32.5 -168t-106.5 -112h795v-154h-1028v141q206 48 206 291v35h-200v129h200v166h-200v129h200v207q0 178 112 280.5t302 102.5z" />
    <glyph glyph-name="peseta" unicode="&#x20a7;" horiz-adv-x="1563" 
d="M1358 117q34 0 77 7t54 11v-125q-60 -30 -170 -30q-109 0 -173.5 68t-64.5 206v463h-157v80l157 69l62 191h98v-211h221v-129h-221v-441q0 -77 26 -118t91 -41zM926 1036q0 -227 -138.5 -344t-404.5 -117h-64v-575h-165v1462h262q256 0 383 -105.5t127 -320.5zM319 721
h52q200 0 292.5 72.5t92.5 234.5q0 145 -86 216t-269 71h-82v-594z" />
    <glyph glyph-name="dong" unicode="&#x20ab;" horiz-adv-x="1255" 
d="M922 147h-9q-115 -167 -344 -167q-215 0 -334.5 147t-119.5 418t120 421t334 150q223 0 342 -162h13q-11 83 -11 156v133h-448v129h448v184h166v-184h156v-129h-156v-1243h-135zM590 119q170 0 246.5 92.5t76.5 298.5v35q0 233 -77.5 332.5t-247.5 99.5
q-146 0 -223.5 -113.5t-77.5 -320.5q0 -210 77 -317t226 -107zM1102 -315h-926v131h926v-131z" />
    <glyph glyph-name="Euro" unicode="&#x20ac;" horiz-adv-x="1208" 
d="M795 1333q-319 0 -398 -403h510v-129h-524l-2 -57v-64l2 -45h463v-129h-447q37 -180 138.5 -278.5t271.5 -98.5q156 0 309 66v-150q-146 -65 -317 -65q-237 0 -381.5 134.5t-190.5 391.5h-166v129h152l-2 42v44l2 80h-152v129h164q39 261 185 407t383 146q201 0 366 -97
l-71 -139q-166 86 -295 86z" />
    <glyph glyph-name="uni2105" unicode="&#x2105;" horiz-adv-x="1688" 
d="M1311 1462l-811 -1462h-148l811 1462h148zM1546 334q0 -159 -84.5 -250.5t-232.5 -91.5q-139 0 -224 92.5t-85 249.5q0 158 83.5 250t231.5 92q141 0 226 -93t85 -249zM1055 334q0 -238 178 -238q176 0 176 238q0 235 -176 235q-178 0 -178 -235zM489 788
q-166 0 -257 88.5t-91 249.5q0 168 94 257.5t265 89.5q104 0 192 -35l-33 -103q-81 31 -161 31q-224 0 -224 -238q0 -235 220 -235q98 0 188 33v-101q-78 -37 -193 -37z" />
    <glyph glyph-name="uni2113" unicode="&#x2113;" horiz-adv-x="1065" 
d="M637 111q174 0 192 213h95q-8 -166 -84.5 -255t-218.5 -89q-150 0 -230 90.5t-80 259.5v243q-96 -35 -192 -57v113q78 21 192 59v498q0 138 75 217.5t210 79.5q117 0 184.5 -80.5t67.5 -218.5q0 -185 -103 -337t-278 -226v-283q0 -104 41 -165.5t129 -61.5zM723 1178
q0 194 -127 194q-67 0 -98 -43t-31 -151v-437q256 137 256 437z" />
    <glyph glyph-name="uni2116" unicode="&#x2116;" horiz-adv-x="2087" 
d="M1223 0h-187l-692 1227h-8q16 -288 16 -396v-831h-151v1462h194l682 -1222h8q-14 245 -14 383v839h152v-1462zM1987 621q0 -163 -80.5 -255t-227.5 -92q-139 0 -220 93.5t-81 253.5q0 163 80.5 253.5t227.5 90.5q139 0 220 -93.5t81 -250.5zM1509 621q0 -114 40.5 -173
t133.5 -59q91 0 130.5 58.5t39.5 173.5t-39.5 171t-130.5 56q-92 0 -133 -56t-41 -171zM1423 0v135h512v-135h-512z" />
    <glyph glyph-name="uni2120" unicode="&#x2120;" horiz-adv-x="1626" 
d="M584 940q0 -98 -74.5 -152.5t-198.5 -54.5q-145 0 -219 33v108q106 -40 225 -40q148 0 148 100q0 33 -11.5 53t-38.5 36.5t-112 47.5q-120 44 -160.5 89.5t-40.5 121.5q0 86 71 138.5t181 52.5q125 0 217 -39l-34 -99q-100 37 -183 37q-60 0 -97.5 -23t-37.5 -63
q0 -29 9 -47t30.5 -32t116.5 -50q129 -50 169 -95t40 -122zM1006 741l-201 559h-8l6 -129v-430h-119v721h188l195 -559l203 559h180v-721h-127v420l6 137h-8l-211 -557h-104z" />
    <glyph glyph-name="trademark" unicode="&#x2122;" horiz-adv-x="1589" 
d="M369 741h-123v615h-209v106h543v-106h-211v-615zM969 741l-201 559h-8l6 -129v-430h-119v721h187l196 -559l203 559h180v-721h-127v420l6 137h-8l-211 -557h-104z" />
    <glyph glyph-name="Omega" unicode="&#x2126;" horiz-adv-x="1602" 
d="M801 1333q-238 0 -363 -128.5t-125 -381.5q0 -225 86.5 -391.5t266.5 -298.5v-133h-586v152h364q-151 118 -231 293t-80 378q0 310 177 486t491 176q315 0 492 -173.5t177 -486.5q0 -207 -79 -380t-230 -293h363v-152h-586v133q183 134 267.5 301t84.5 389
q0 252 -124.5 381t-364.5 129z" />
    <glyph glyph-name="estimated" unicode="&#x212e;" horiz-adv-x="1268" 
d="M633 -35q-157 0 -277.5 73.5t-187 204t-66.5 287.5q0 171 69 298.5t191 197.5t271 70q152 0 273.5 -71t189 -200.5t67.5 -294.5h-827v-356q49 -53 132 -88t165 -35q131 0 222.5 52.5t172.5 181.5l72 -41q-98 -155 -206.5 -217t-260.5 -62zM932 616v277q-50 53 -131.5 86
t-169.5 33q-173 0 -295 -117v-279h596z" />
    <glyph glyph-name="oneeighth" unicode="&#x215b;" horiz-adv-x="1597" 
d="M1259 1462l-903 -1462h-143l903 1462h143zM333 1462h143v-876h-133v579q0 91 6 181q-22 -22 -49 -44.5t-162 -117.5l-67 96zM1220 890q124 0 199.5 -59t75.5 -163q0 -130 -148 -206q176 -74 176 -232q0 -113 -82.5 -181.5t-220.5 -68.5q-146 0 -225.5 64t-79.5 180
q0 69 36.5 127t121.5 104q-74 46 -102.5 92.5t-28.5 114.5q0 102 78.5 165t199.5 63zM1046 224q0 -60 42 -96.5t128 -36.5q90 0 132 36.5t42 96.5q0 63 -46.5 102.5t-127.5 67.5l-28 10q-72 -34 -107 -76t-35 -104zM1218 781q-68 0 -105.5 -30t-37.5 -87q0 -47 34 -82.5
t115 -68.5q140 54 140 151q0 57 -39 87t-107 30z" />
    <glyph glyph-name="threeeighths" unicode="&#x215c;" horiz-adv-x="1597" 
d="M1329 1462l-903 -1462h-143l903 1462h143zM1241 890q124 0 199.5 -59t75.5 -163q0 -130 -148 -206q176 -74 176 -232q0 -113 -82.5 -181.5t-220.5 -68.5q-146 0 -225.5 64t-79.5 180q0 69 36.5 127t121.5 104q-74 46 -102.5 92.5t-28.5 114.5q0 102 78.5 165t199.5 63z
M1067 224q0 -60 42 -96.5t128 -36.5q90 0 132 36.5t42 96.5q0 63 -46.5 102.5t-127.5 67.5l-28 10q-72 -34 -107 -76t-35 -104zM1239 781q-68 0 -105.5 -30t-37.5 -87q0 -47 34 -82.5t115 -68.5q140 54 140 151q0 57 -39 87t-107 30zM626 1255q0 -80 -41 -131.5t-109 -74.5
q176 -47 176 -209q0 -128 -92 -199.5t-260 -71.5q-152 0 -268 56v123q147 -68 270 -68q211 0 211 162q0 145 -231 145h-117v107h119q103 0 152.5 39.5t49.5 107.5q0 61 -40 95t-107 34q-66 0 -122 -21.5t-112 -56.5l-69 90q63 45 133 72t164 27q136 0 214.5 -59.5
t78.5 -166.5z" />
    <glyph glyph-name="fiveeighths" unicode="&#x215d;" horiz-adv-x="1597" 
d="M1323 1462l-903 -1462h-143l903 1462h143zM340 1128q145 0 233 -71.5t88 -194.5q0 -140 -85 -217.5t-251 -77.5q-74 0 -143.5 15.5t-110.5 38.5v131q56 -34 126 -53t124 -19q95 0 150 41.5t55 130.5q0 78 -54.5 122t-156.5 44q-57 0 -95 -8.5t-69 -16.5l-59 41l33 416
h495v-104h-381l-20 -230q62 12 121 12zM1237 890q124 0 199.5 -59t75.5 -163q0 -130 -148 -206q176 -74 176 -232q0 -113 -82.5 -181.5t-220.5 -68.5q-146 0 -225.5 64t-79.5 180q0 69 36.5 127t121.5 104q-74 46 -102.5 92.5t-28.5 114.5q0 102 78.5 165t199.5 63z
M1063 224q0 -60 42 -96.5t128 -36.5q90 0 132 36.5t42 96.5q0 63 -46.5 102.5t-127.5 67.5l-28 10q-72 -34 -107 -76t-35 -104zM1235 781q-68 0 -105.5 -30t-37.5 -87q0 -47 34 -82.5t115 -68.5q140 54 140 151q0 57 -39 87t-107 30z" />
    <glyph glyph-name="seveneighths" unicode="&#x215e;" horiz-adv-x="1597" 
d="M1237 1462l-903 -1462h-143l903 1462h143zM1233 890q124 0 199.5 -59t75.5 -163q0 -130 -148 -206q176 -74 176 -232q0 -113 -82.5 -181.5t-220.5 -68.5q-146 0 -225.5 64t-79.5 180q0 69 36.5 127t121.5 104q-74 46 -102.5 92.5t-28.5 114.5q0 102 78.5 165t199.5 63z
M1059 224q0 -60 42 -96.5t128 -36.5q90 0 132 36.5t42 96.5q0 63 -46.5 102.5t-127.5 67.5l-28 10q-72 -34 -107 -76t-35 -104zM1231 781q-68 0 -105.5 -30t-37.5 -87q0 -47 34 -82.5t115 -68.5q140 54 140 151q0 57 -39 87t-107 30zM211 586l350 760h-455v116h598v-94
l-352 -782h-141z" />
    <glyph glyph-name="partialdiff" unicode="&#x2202;" horiz-adv-x="1190" 
d="M1077 934q0 -262 -83.5 -491.5t-221.5 -346t-311 -116.5q-172 0 -265.5 100.5t-93.5 292.5q0 169 68 322.5t184 234t267 80.5q97 0 170 -46.5t116 -121.5l4 90q0 405 -282 405q-62 0 -134 -22t-120 -55v159q47 23 124.5 41.5t151.5 18.5q210 0 318 -138t108 -407z
M471 121q95 0 178 72t143 201.5t82 279.5q-25 97 -89 151t-144 54q-101 0 -183.5 -66t-133 -191t-50.5 -253q0 -118 50.5 -183t146.5 -65z" />
    <glyph glyph-name="Delta" unicode="&#x2206;" 
d="M39 104l463 1358h166l465 -1360v-102h-1094v104zM584 1268q-61 -225 -101 -346l-260 -770h721l-258 761q-68 202 -102 355z" />
    <glyph glyph-name="product" unicode="&#x220f;" horiz-adv-x="1513" 
d="M1143 -496v1805h-772v-1805h-170v1958h1112v-1958h-170z" />
    <glyph glyph-name="summation" unicode="&#x2211;" horiz-adv-x="1292" 
d="M76 -496v107l631 924l-615 819v108h1088v-151h-848l579 -772l-604 -883h938v-152h-1169z" />
    <glyph glyph-name="minus" unicode="&#x2212;" 
d="M104 653v138h961v-138h-961z" />
    <glyph glyph-name="radical" unicode="&#x221a;" horiz-adv-x="1124" 
d="M623 -14h-127l-279 782h-180v135h289l235 -684l514 1469h137z" />
    <glyph glyph-name="infinity" unicode="&#x221e;" horiz-adv-x="1444" 
d="M1325 719q0 -131 -83.5 -223.5t-211.5 -92.5q-93 0 -169.5 53t-141.5 169q-60 -104 -136.5 -160.5t-164.5 -56.5q-131 0 -215 86.5t-84 228.5q0 134 84 223.5t215 89.5q181 0 303 -219q124 215 309 215q133 0 214 -87.5t81 -225.5zM426 532q66 0 120.5 45.5t108.5 145.5
q-50 97 -104.5 143.5t-126.5 46.5q-76 0 -126 -52.5t-50 -139.5q0 -83 48.5 -136t129.5 -53zM1018 909q-66 0 -120.5 -46t-109.5 -144q51 -97 106 -144t126 -47q76 0 126 53.5t50 137.5q0 85 -50.5 137.5t-127.5 52.5z" />
    <glyph glyph-name="integral" unicode="&#x222b;" horiz-adv-x="786" 
d="M637 1556q79 0 123 -16v-137q-49 22 -111 22q-176 0 -176 -243v-1311q0 -176 -82.5 -269.5t-245.5 -93.5q-74 0 -133 19v135q61 -22 119 -22q182 0 182 243v1311q0 362 324 362z" />
    <glyph glyph-name="approxequal" unicode="&#x2248;" 
d="M336 512q-54 0 -117.5 -32t-120.5 -89v150q108 110 256 110q67 0 123 -14t144 -51q77 -33 122.5 -45.5t90.5 -12.5q53 0 117 33t118 90v-151q-101 -109 -254 -109q-67 0 -122.5 14.5t-143.5 51.5q-73 30 -118.5 42.5t-94.5 12.5zM336 918q-57 0 -121 -34t-117 -87v149
q106 109 256 109q69 0 127 -16t140 -50q69 -29 116.5 -42t96.5 -13q55 0 119.5 33t115.5 88v-150q-100 -110 -254 -110q-69 0 -128 16t-138 49q-84 34 -126.5 46t-86.5 12z" />
    <glyph glyph-name="notequal" unicode="&#x2260;" 
d="M381 449h-277v137h340l127 272h-467v137h531l135 287l125 -57l-109 -230h279v-137h-342l-129 -272h471v-137h-535l-131 -283l-125 55z" />
    <glyph glyph-name="lessequal" unicode="&#x2264;" 
d="M1065 242l-961 422v98l961 479v-149l-782 -371l782 -328v-151zM104 1v138h961v-138h-961z" />
    <glyph glyph-name="greaterequal" unicode="&#x2265;" 
d="M104 393l783 326l-783 373v149l961 -479v-98l-961 -422v151zM104 1v138h961v-138h-961z" />
    <glyph glyph-name="uni2400" unicode="&#x2400;" horiz-adv-x="0" 
 />
    <glyph glyph-name="lozenge" unicode="&#x25ca;" horiz-adv-x="1194" 
d="M111 735l450 740h72l452 -740l-452 -735h-72zM915 737l-317 531l-317 -531l317 -532z" />
    <glyph glyph-name="uniFD3E" unicode="&#xfd3e;" horiz-adv-x="1480" 
d="M580 652q-2 74 53 129.5t132 55.5t132 -55.5t53 -129.5q2 -75 -53 -130.5t-132 -55.5t-132 55.5t-53 130.5zM689 652q-1 -33 23 -58q25 -24 59 -24t58 24q23 23 24 58q1 33 -24 57q-24 25 -58 25t-59 -25q-22 -22 -23 -57zM1245 240q-1 -57 -57 -57h-224l-4 -4
q81 -432 292 -601q55 -44 -51 -100q-473 141 -597 667l-37 38h-224q-33 -1 -51 33q-6 11 -6 24v223l-158 159q-11 10 -16.5 34t16.5 46l158 159v223q0 28 15 38q27 19 42 19h224l25 25q118 587 609 732q37 11 54 -28q9 -21 0 -68q-220 -201 -298 -654l7 -7h224q57 -6 57 -57
v-844zM711 187q68 -303 299 -489q-127 238 -167 491q-5 29 16 49l41 42q17 17 41 17h190v730h-190q-24 0 -41 17l-44 45q-21 20 -16 49q48 301 183 549q-251 -195 -322 -559q-4 -18 -16 -30l-54 -54q-16 -17 -40 -17h-191v-190q0 -24 -16 -40l-135 -135l135 -135
q16 -16 16 -40v-190h191q24 -1 40 -17l65 -65q12 -12 15 -28z" />
    <glyph glyph-name="uniFD3F" unicode="&#xfd3f;" horiz-adv-x="1480" 
d="M525 652q-2 74 53 129.5t132 55.5t132 -55.5t53 -129.5q2 -75 -53 -130.5t-132 -55.5t-132 55.5t-53 130.5zM634 652q-1 -33 23 -58q25 -24 59 -24t58 24q23 23 24 58q1 33 -24 57q-24 25 -58 25t-59 -25q-22 -22 -23 -57zM279 -522q-105 56 -51 100q212 171 292 601
l-4 4h-224q-37 -1 -53 37q-4 9 -4 20v844q0 25 18.5 41t38.5 16h224l7 7q-78 453 -298 654q-8 47 5 77t50 19q491 -149 608 -731l25 -26h224q24 0 41 -18q16 -19 16 -39v-223l158 -159q23 -22 18 -40q-7 -29 -18 -40l-158 -159v-223q-1 -38 -37 -53q-10 -4 -20 -4h-224
l-37 -38q-124 -526 -597 -667zM470 -301q231 185 299 488q3 16 15 28l65 65q17 17 40 17h191v190q0 23 17 40l134 135l-134 135q-17 16 -17 40v190h-191q-23 0 -40 17l-54 54q-12 14 -16 30q-70 369 -322 559q128 -236 183 -549q5 -28 -16 -49l-44 -45q-16 -17 -40 -17h-191
v-730h191q24 -1 40 -17l41 -42q21 -20 16 -49q-45 -265 -167 -490z" />
    <glyph glyph-name="uniFE73" unicode="&#xfe73;" horiz-adv-x="895" 
d="M419 494q0 -107 88 -195.5t302 -88.5h91v-207h-184q-224 0 -364 135q-141 134 -141 336v37h208v-17z" />
    <glyph glyph-name="uniFEFF" unicode="&#xfeff;" horiz-adv-x="0" 
 />
    <glyph glyph-name="uniFFFC" unicode="&#xfffc;" horiz-adv-x="2048" 
d="M84 1214v304h303v-111h-192v-193h-111zM1681 1407v111h304v-304h-109v193h-195zM84 -383v303h111v-194h192v-109h-303zM1681 -383v109h195v194h109v-303h-304zM1290 -383v109h273v-109h-273zM508 -383v109h270v-109h-270zM508 1407v111h270v-111h-270zM1985 39h-109v270
h109v-270zM1985 823h-109v271h109v-271zM899 -383v109h272v-109h-272zM195 39h-111v270h111v-270zM899 1407v111h272v-111h-272zM1290 1407v111h273v-111h-273zM195 430h-111v272h111v-272zM195 823h-111v271h111v-271zM1985 430h-109v272h109v-272zM864 629
q0 -145 -67.5 -223t-194.5 -78t-194.5 78t-67.5 223q0 146 67.5 223.5t194.5 77.5q126 0 194 -77t68 -224zM467 629q0 -197 135 -197t135 197q0 196 -135 196t-135 -196zM948 922h172q109 0 165 -33.5t56 -116.5q0 -49 -23 -82t-67 -41v-8q61 -14 84 -48t23 -87
q0 -81 -54.5 -125.5t-148.5 -44.5h-207v586zM1071 690h66q46 0 64 17t18 49q0 34 -21 48.5t-68 14.5h-59v-129zM1071 592v-154h74q49 0 67.5 21.5t18.5 58.5q0 74 -90 74h-70zM1491 330q-52 0 -80 10v102q43 -8 68 -8q86 0 86 86v402h125v-398q0 -95 -52.5 -144.5
t-146.5 -49.5z" />
    <glyph glyph-name="uniFFFD" unicode="&#xfffd;" horiz-adv-x="2048" 
d="M1022 1556l940 -938l-940 -937l-938 937zM1087 367v47q0 50 22 82.5t87 81.5q103 82 139.5 145t36.5 151q0 135 -93.5 212t-258.5 77q-79 0 -172 -28t-164 -70l82 -178q160 80 250 80q63 0 94 -29t31 -76q0 -53 -24.5 -90.5t-96.5 -91.5q-84 -68 -113.5 -124t-29.5 -130
v-59h210zM850 92q0 -63 35.5 -99t105.5 -36q66 0 102.5 36.5t36.5 98.5q0 64 -36 100.5t-103 36.5q-72 0 -106.5 -36t-34.5 -101z" />
    <glyph glyph-name="glyph498" horiz-adv-x="233" 
d="M129 263l124 -124q8 -9 -3 -21l-118 -119q-15 -13 -29 1l-116 116q-14 14 0 28l119 119q12 11 23 0z" />
    <glyph glyph-name="glyph499" horiz-adv-x="612" 
d="M469 1q-13 -13 -27 0l-111 112q-13 13 1 27l113 113q11 11 22 0l119 -119q9 -8 -3 -19zM166 253l118 -118q8 -10 -3 -20l-113 -114q-14 -13 -27 0l-112 112q-13 13 1 27l113 113q11 11 23 0z" />
    <glyph glyph-name="glyph500" horiz-adv-x="590" 
d="M301 444l111 -111q6 -6 1 -12l-110 -109q-7 -8 -15 0l-107 107q-8 8 0 16l109 109q6 5 11 0zM447 218l112 -112q5 -5 0 -11l-110 -110q-7 -7 -15 1l-107 107q-8 8 0 16l109 109q6 5 11 0zM267 95l-109 -109q-8 -8 -16 0l-107 107q-8 8 0 16l109 109q7 4 11 0l111 -111
q6 -6 1 -12z" />
    <glyph glyph-name="glyph501" horiz-adv-x="636" 
d="M324 -204q-5 -5 -11 0l-109 109q-8 8 0 16l107 107q8 8 15 0l110 -109q5 -6 -1 -12zM470 22q-5 -5 -11 0l-109 110q-8 8 0 15l107 108q8 8 15 0l110 -110q5 -5 0 -10zM290 145q5 -5 -1 -11l-111 -112q-4 -4 -11 1l-109 109q-8 8 0 15l107 108q8 8 16 -1z" />
    <glyph glyph-name="glyph511" horiz-adv-x="788" 
d="M772 2071l-17 -102l-714 -243l31 128l684 236q21 8 16 -19z" />
    <glyph glyph-name="glyph522" horiz-adv-x="556" 
d="M264 367q3 48 2 118q0 78 -7 187q-19 340 -50 680l136 64q41 19 42 -20l24 -856q8 -272 -44 -377q-81 -163 -355 -163h-23v180h29q101 0 161 28q79 36 85 159z" />
    <glyph glyph-name="glyph523" horiz-adv-x="635" 
d="M318 138q-96 -138 -270 -138h-60v180h33q86 0 142 32q75 42 87 134q7 51 4 132q-11 317 -33 632v2l141 94q37 25 37 -23v-700q0 -221 95 -274q53 -29 140 -29h15v-180h-52q-183 0 -279 138z" />
    <glyph glyph-name="glyph524" horiz-adv-x="521" 
d="M187.128 -12.8301q-10.8896 1165.68 -35.6396 1312.18l147.509 60.9688q25.7393 10.9189 27.7197 -25.4795q16.8301 -289.372 8.91016 -776.207q-8.91016 -491.386 -12.8701 -498.666q-36.6299 -71.8877 -135.629 -72.7979z" />
    <glyph glyph-name="glyph525" horiz-adv-x="579" 
d="M185 795q1 347 -17 516l121 85q41 29 45 -34q12 -246 4 -472q-7 -217 -5 -418q1 -168 46 -230q46 -62 187 -62h26v-180h-51q-283 0 -336 278q-16 84 -18 287q-3 209 -2 230z" />
    <glyph glyph-name="glyph526" horiz-adv-x="678" 
d="M107 -35q62 -30 145 -29q154 1 221 78q24 29 -6 45q-31 18 -116 42q-86 23 -54 131q44 144 174 198q71 29 155 3q-4 -40 -22 -116l-31 2q-92 4 -148 -52q-30 -30 -40 -54l129 -43q60 -20 59.5 -94.5t-45.5 -133.5q-89 -117 -279 -117q-102 0 -181 32z" />
    </font>
</defs>
</svg>
